  0
SECTION
  2
HEADER
  9
$ACADVER
  1
AC1009
  9
$INSBASE
 10
0
 20
0
  9
$EXTMIN
 10
-139.6081804967427
 20
-187.1066826322217
  9
$EXTMAX
 10
104.138999093366
 20
140.1694465796153
  9
$LIMMIN
 10
-139.6081804967427
 20
-187.1066826322217
  9
$LIMMAX
 10
104.138999093366
 20
140.1694465796153
  9
$VIEWCTR
 10
10
 20
10
  9
$VIEWSIZE
 40
10
  9
$SNAPMODE
 70
0
  9
$SNAPUNIT
 10
1
 20
1
  9
$SNAPBASE
 10
0
 20
0
  9
$SNAPANG
 50
0
  9
$SNAPSTYLE
 70
0
  9
$SNAPISOPAIR
 70
0
  9
$GRIDMODE
 70
0
  9
$GRIDUNIT
 10
0
 20
0
  9
$ORTHOMODE
 70
0
  9
$REGENMODE
 70
1
  9
$FILLMODE
 70
1
  9
$QTEXTMODE
 70
0
  9
$DRAGMODE
 70
2
  9
$LTSCALE
 40
1
  9
$OSMODE
 70
0
  9
$ATTMODE
 70
1
  9
$TEXTSIZE
 40
3.5
  9
$TRACEWID
 40
0.5
  9
$TEXTSTYLE
  7
STANDARD
  9
$CLAYER
  8
0
  9
$CELTYPE
  6
BYLAYER
  9
$CECOLOR
 62
256
  9
$DIMSCALE
 40
1
  9
$DIMASZ
 40
0.18
  9
$DIMEXO
 40
0.0625
  9
$DIMDLI
 40
0.38
  9
$DIMRND
 40
0
  9
$DIMDLE
 40
0
  9
$DIMEXE
 40
0.18
  9
$DIMTP
 40
0
  9
$DIMTM
 40
0
  9
$DIMTXT
 40
0.18
  9
$DIMCEN
 40
0.09
  9
$DIMTSZ
 40
0
  9
$DIMTOL
 70
0
  9
$DIMLIM
 70
0
  9
$DIMTIH
 70
1
  9
$DIMTOH
 70
1
  9
$DIMSE1
 70
0
  9
$DIMSE2
 70
0
  9
$DIMTAD
 70
0
  9
$DIMZIN
 70
0
  9
$DIMBLK
  1

  9
$DIMASO
 70
1
  9
$DIMSHO
 70
1
  9
$DIMPOST
  1

  9
$DIMAPOST
  1

  9
$DIMALT
 70
0
  9
$DIMALTD
 70
2
  9
$DIMALTF
 40
25.4
  9
$DIMLFAC
 40
1
  9
$DIMTOFL
 70
0
  9
$DIMTVP
 40
0
  9
$DIMTIX
 70
0
  9
$DIMSOXD
 70
0
  9
$DIMSAH
 70
0
  9
$DIMBLK1
  1

  9
$DIMBLK2
  1

  9
$DIMSTYLE
  2
*UNNAMED
  9
$DIMCLRD
 70
0
  9
$DIMCLRE
 70
0
  9
$DIMCLRT
 70
0
  9
$DIMTFAC
 40
1
  9
$DIMGAP
 40
0.09
  9
$LUNITS
 70
2
  9
$LUPREC
 70
4
  9
$AXISMODE
 70
0
  9
$AXISUNIT
 10
0
 20
0
  9
$SKETCHINC
 40
0.1
  9
$FILLETRAD
 40
2
  9
$AUNITS
 70
0
  9
$AUPREC
 70
0
  9
$MENU
  1
ACAD
  9
$ELEVATION
 40
0
  9
$THICKNESS
 40
0
  9
$VIEWDIR
 10
0
 20
0
 30
1
  9
$LIMCHECK
 70
0
  9
$BLIPMODE
 70
1
  9
$CHAMFERA
 40
0
  9
$CHAMFERB
 40
0
  9
$FASTZOOM
 70
1
  9
$SKPOLY
 70
0
  9
$ANGBASE
 50
0
  9
$ANGDIR
 70
0
  9
$PDMODE
 70
0
  9
$PDSIZE
 40
0
  9
$PLINEWID
 40
0
  9
$COORDS
 70
2
  0
ENDSEC
  0
SECTION
  2
TABLES
  0
TABLE
  2
DIMSTYLE
 70
4
  0
DIMSTYLE
  2
DMST_1
 70
0
  3

  4

  5

  6

  7

 40
1
 41
5
 42
0
 43
7
 44
2
 45
0
 46
0
 47
0
 48
0
140
5
141
0
142
0
143
25.4
144
1
145
0
146
1
147
0.09
 71
0
 72
0
 73
0
 74
0
 75
0
 76
0
 77
1
 78
9
170
0
171
2
172
0
173
0
174
0
175
0
176
1
177
1
178
7
  0
DIMSTYLE
  2
DMST_2
 70
0
  3

  4

  5

  6

  7

 40
1
 41
5
 42
0
 43
7
 44
1
 45
0
 46
0
 47
0
 48
0
140
5
141
0
142
0
143
25.4
144
1
145
0
146
1
147
0.09
 71
0
 72
0
 73
0
 74
0
 75
0
 76
0
 77
1
 78
9
170
0
171
2
172
0
173
0
174
0
175
0
176
1
177
1
178
7
  0
DIMSTYLE
  2
DMST_3
 70
0
  3

  4

  5

  6

  7

 40
1
 41
5
 42
0
 43
7
 44
2
 45
0
 46
0
 47
0
 48
0
140
5
141
-1.5
142
0
143
25.4
144
1
145
0
146
1
147
0.09
 71
0
 72
0
 73
0
 74
0
 75
0
 76
0
 77
1
 78
9
170
0
171
2
172
1
173
0
174
0
175
0
176
1
177
1
178
7
  0
DIMSTYLE
  2
DMST_4
 70
0
  3

  4

  5

  6

  7

 40
1
 41
5
 42
0
 43
7
 44
2
 45
0
 46
0
 47
0
 48
0
140
5
141
0
142
0
143
25.4
144
1
145
0
146
1
147
0.09
 71
0
 72
0
 73
0
 74
0
 75
0
 76
0
 77
1
 78
9
170
0
171
2
172
1
173
0
174
0
175
0
176
1
177
1
178
7
  0
ENDTAB
  0
TABLE
  2
LTYPE
 70
9
  0
LTYPE
  2
CONTINUOUS
 70
64
  3
Solid line
 72
65
 73
0
 40
0
  0
LTYPE
  2
BORDER
 70
64
  3
__ __ . __ __ .
 72
65
 73
6
 40
15.0719270031767
 49
4.306264858050486
 49
-2.153132429025243
 49
4.306264858050486
 49
-2.153132429025243
 49
0
 49
-2.153132429025243
  0
LTYPE
  2
CENTER
 70
64
  3
____ _ ____ _
 72
65
 73
4
 40
17.22505943220195
 49
10.76566214512622
 49
-2.153132429025243
 49
2.153132429025243
 49
-2.153132429025243
  0
LTYPE
  2
DASHDOT
 70
64
  3
__ . __ . __ .
 72
65
 73
4
 40
8.612529716100973
 49
4.306264858050486
 49
-2.153132429025243
 49
0
 49
-2.153132429025243
  0
LTYPE
  2
DASHED
 70
64
  3
__ __ __ __ __
 72
65
 73
2
 40
6.459397287075729
 49
4.306264858050486
 49
-2.153132429025243
  0
LTYPE
  2
DIVIDE
 70
64
  3
__ . . __ . . 
 72
65
 73
6
 40
10.76566214512622
 49
4.306264858050486
 49
-2.153132429025243
 49
0
 49
-2.153132429025243
 49
0
 49
-2.153132429025243
  0
LTYPE
  2
DOT
 70
64
  3
..............
 72
65
 73
4
 40
4.306264858050486
 49
0
 49
-2.153132429025243
 49
0
 49
-2.153132429025243
  0
LTYPE
  2
HIDDEN
 70
64
  3
_ _ _ _ _ _ _
 72
65
 73
2
 40
3.229698643537865
 49
2.153132429025243
 49
-1.076566214512622
  0
LTYPE
  2
PHANTOM
 70
64
  3
_____ _ _ _____ _ _ 
 72
65
 73
6
 40
21.53132429025243
 49
10.76566214512622
 49
-2.153132429025243
 49
2.153132429025243
 49
-2.153132429025243
 49
2.153132429025243
 49
-2.153132429025243
  0
ENDTAB
  0
TABLE
  2
LAYER
 70
3
  0
LAYER
  2
1
 70
0
 62
7
  6
CONTINUOUS
  0
LAYER
  2
0
 70
0
 62
7
  6
CONTINUOUS
  0
ENDTAB
  0
TABLE
  2
STYLE
 70
4
  0
STYLE
  2
STANDARD
 70
0
 40
0
 41
1
 50
0
 71
0
 42
3.5
  3
txt
  4

  0
STYLE
  2
SIMPLEX
 70
0
 40
0
 41
1
 50
0
 71
0
 42
3.5
  3
simplex
  4

  0
STYLE
  2
COMPLEX
 70
0
 40
0
 41
1
 50
0
 71
0
 42
3.5
  3
complex
  4

  0
STYLE
  2
ITALIC
 70
0
 40
0
 41
1
 50
0
 71
0
 42
3.5
  3
italic
  4

  0
ENDTAB
  0
TABLE
  2
VIEW
 70
0
  0
ENDTAB
  0
ENDSEC
  0
SECTION
  2
BLOCKS
  0
BLOCK
  8
1
  2
*D0
 70
1
 10
0
 20
0
 30
0
  0
LINE
  8
1
 62
1
 10
-63.0181517107239
 20
-185.1066826322217
 30
0
 11
-28.01815171072389
 21
-185.1066826322217
 31
0
  0
LINE
  8
1
 62
1
 10
-28.01815171072389
 20
-174.097679554111
 30
0
 11
-28.01815171072389
 21
-187.1066826322217
 31
0
  0
LINE
  8
1
 62
1
 10
-63.0181517107239
 20
-174.097679554111
 30
0
 11
-63.0181517107239
 21
-187.1066826322217
 31
0
  0
SOLID
  8
1
 62
1
 10
-63.0181517107239
 20
-185.1066826322217
 30
0
 11
-58.0181517107239
 21
-184.4566826322217
 31
0
 12
-58.0181517107239
 22
-185.7566826322217
 32
0
 13
-58.0181517107239
 23
-185.7566826322217
 33
0
  0
SOLID
  8
1
 62
1
 10
-28.01815171072389
 20
-185.1066826322217
 30
0
 11
-33.01815171072388
 21
-185.7566826322217
 31
0
 12
-33.01815171072388
 22
-184.4566826322217
 32
0
 13
-33.01815171072388
 23
-184.4566826322217
 33
0
  0
TEXT
  8
1
 62
7
 10
-46.5181517107239
 20
-184.1066826322217
 30
0
 40
5
  1
35
 41
0.9
  0
TEXT
  8
1
 62
7
 10
-52.0181517107239
 20
-184.1066826322217
 30
0
 40
5
  1
Ö
 41
0.9
  0
ENDBLK
  8
0
  0
BLOCK
  8
1
  2
*D1
 70
1
 10
0
 20
0
 30
0
  0
LINE
  8
1
 62
1
 10
-0.7801049177660104
 20
-160.097679554111
 30
0
 11
-0.7801049177660104
 21
-150.097679554111
 31
0
  0
LINE
  8
1
 62
1
 10
-0.7801049177660104
 20
-174.097679554111
 30
0
 11
-0.7801049177660104
 21
-184.097679554111
 31
0
  0
LINE
  8
1
 62
1
 10
-0.7801049177660104
 20
-174.097679554111
 30
0
 11
-0.7801049177660104
 21
-160.097679554111
 31
0
  0
LINE
  8
1
 62
1
 10
-15.51815171072388
 20
-160.097679554111
 30
0
 11
1.21989508223399
 21
-160.097679554111
 31
0
  0
LINE
  8
1
 62
1
 10
-28.01815171072388
 20
-174.097679554111
 30
0
 11
1.21989508223399
 21
-174.097679554111
 31
0
  0
SOLID
  8
1
 62
1
 10
-0.7801049177660104
 20
-174.097679554111
 30
0
 11
-0.1301049177660117
 21
-179.097679554111
 31
0
 12
-1.430104917766011
 22
-179.097679554111
 32
0
 13
-1.430104917766011
 23
-179.097679554111
 33
0
  0
SOLID
  8
1
 62
1
 10
-0.7801049177660104
 20
-160.097679554111
 30
0
 11
-1.430104917766012
 21
-155.097679554111
 31
0
 12
-0.1301049177660129
 22
-155.097679554111
 32
0
 13
-0.1301049177660129
 23
-155.097679554111
 33
0
  0
TEXT
  8
1
 62
7
 10
-2.28010491776601
 20
-173.222679554111
 30
0
 40
5
  1
13,5
 50
90
 41
0.9
  0
ENDBLK
  8
0
  0
BLOCK
  8
1
  2
*D2
 70
1
 10
0
 20
0
 30
0
  0
LINE
  8
1
 62
1
 10
74.28184828927601
 20
15.822699109951
 30
0
 11
84.28184828927601
 21
15.822699109951
 31
0
  0
LINE
  8
1
 62
1
 10
66.28184828927601
 20
15.822699109951
 30
0
 11
74.28184828927601
 21
15.822699109951
 31
0
  0
LINE
  8
1
 62
1
 10
74.28184828927601
 20
4.169446579653789
 30
0
 11
74.28184828927601
 21
17.822699109951
 31
0
  0
LINE
  8
1
 62
1
 10
66.28184828927601
 20
4.169446579653789
 30
0
 11
66.28184828927601
 21
17.822699109951
 31
0
  0
LINE
  8
1
 62
1
 10
64.51408133630964
 20
14.05493215698463
 30
0
 11
68.04961524224238
 21
17.59046606291737
 31
0
  0
SOLID
  8
1
 62
1
 10
74.28184828927601
 20
15.822699109951
 30
0
 11
79.28184828927601
 21
16.472699109951
 31
0
 12
79.28184828927601
 22
15.172699109951
 32
0
 13
79.28184828927601
 23
15.172699109951
 33
0
  0
TEXT
  8
1
 62
7
 10
68.76612990417101
 20
16.822699109951
 30
0
 40
5
  1
8
 41
0.9
  0
ENDBLK
  8
0
  0
BLOCK
  8
1
  2
*D3
 70
1
 10
0
 20
0
 30
0
  0
LINE
  8
1
 62
1
 10
62.48184828927612
 20
15.80931079466498
 30
0
 11
48.34867963975302
 21
15.80931079466498
 31
0
  0
LINE
  8
1
 62
1
 10
62.48184828927612
 20
15.80931079466498
 30
0
 11
66.28184828927603
 21
15.80931079466498
 31
0
  0
LINE
  8
1
 62
1
 10
66.28184828927603
 20
4.169446579653791
 30
0
 11
66.28184828927603
 21
17.80931079466498
 31
0
  0
LINE
  8
1
 62
1
 10
62.48184828927612
 20
-90.83055342034501
 30
0
 11
62.48184828927612
 21
17.80931079466498
 31
0
  0
LINE
  8
1
 62
1
 10
68.0496152422424
 20
17.57707774763135
 30
0
 11
64.51408133630966
 21
14.04154384169861
 31
0
  0
SOLID
  8
1
 62
1
 10
62.48184828927612
 20
15.80931079466498
 30
0
 11
57.48184828927612
 21
15.15931079466498
 31
0
 12
57.48184828927612
 22
16.45931079466498
 32
0
 13
57.48184828927612
 23
16.45931079466498
 33
0
  0
TEXT
  8
1
 62
7
 10
48.34867963975302
 20
17.30931079466498
 30
0
 40
5
  1
3,8
 41
0.9
  0
ENDBLK
  8
0
  0
BLOCK
  8
1
  2
*D4
 70
1
 10
0
 20
0
 30
0
  0
LINE
  8
1
 62
1
 10
66.081848289276
 20
86.76107105656297
 30
0
 11
76.581848289276
 21
86.76107105656297
 31
0
  0
LINE
  8
1
 62
1
 10
76.581848289276
 20
75.66944657965377
 30
0
 11
76.581848289276
 21
88.76107105656297
 31
0
  0
LINE
  8
1
 62
1
 10
66.081848289276
 20
78.16944657965377
 30
0
 11
66.081848289276
 21
88.76107105656297
 31
0
  0
SOLID
  8
1
 62
1
 10
76.581848289276
 20
86.76107105656297
 30
0
 11
71.581848289276
 21
86.11107105656296
 31
0
 12
71.581848289276
 22
87.41107105656297
 32
0
 13
71.581848289276
 23
87.41107105656297
 33
0
  0
TEXT
  8
1
 62
7
 10
65.08372370925801
 20
88.26107105656297
 30
0
 40
5
  1
10,5
 41
0.9
  0
ENDBLK
  8
0
  0
BLOCK
  8
1
  2
*D5
 70
1
 10
0
 20
0
 30
0
  0
LINE
  8
1
 62
1
 10
62.48184828927612
 20
86.76107105656297
 30
0
 11
49.77441623003301
 21
86.76107105656297
 31
0
  0
LINE
  8
1
 62
1
 10
62.48184828927612
 20
86.76107105656297
 30
0
 11
66.081848289276
 21
86.76107105656297
 31
0
  0
LINE
  8
1
 62
1
 10
76.081848289276
 20
86.76107105656297
 30
0
 11
66.081848289276
 21
86.76107105656297
 31
0
  0
LINE
  8
1
 62
1
 10
66.081848289276
 20
78.16944657965377
 30
0
 11
66.081848289276
 21
88.76107105656297
 31
0
  0
LINE
  8
1
 62
1
 10
62.48184828927612
 20
121.1694465796541
 30
0
 11
62.48184828927612
 21
84.76107105656297
 31
0
  0
SOLID
  8
1
 62
1
 10
66.081848289276
 20
86.76107105656297
 30
0
 11
71.081848289276
 21
87.41107105656297
 31
0
 12
71.081848289276
 22
86.11107105656296
 32
0
 13
71.081848289276
 23
86.11107105656296
 33
0
  0
SOLID
  8
1
 62
1
 10
62.48184828927612
 20
86.76107105656297
 30
0
 11
57.48184828927612
 21
86.11107105656296
 31
0
 12
57.48184828927612
 22
87.41107105656297
 32
0
 13
57.48184828927612
 23
87.41107105656297
 33
0
  0
TEXT
  8
1
 62
7
 10
49.77441623003301
 20
88.26107105656297
 30
0
 40
5
  1
3,6
 41
0.9
  0
ENDBLK
  8
0
  0
BLOCK
  8
1
  2
*D6
 70
1
 10
0
 20
0
 30
0
  0
LINE
  8
1
 62
1
 10
95.747979903041
 20
-99.83055342034498
 30
0
 11
95.747979903041
 21
130.1694465796153
 31
0
  0
LINE
  8
1
 62
1
 10
71.48184828927612
 20
130.1694465796153
 30
0
 11
97.747979903041
 21
130.1694465796153
 31
0
  0
LINE
  8
1
 62
1
 10
71.48184828927612
 20
-99.83055342034498
 30
0
 11
97.747979903041
 21
-99.83055342034498
 31
0
  0
SOLID
  8
1
 62
1
 10
95.747979903041
 20
130.1694465796153
 30
0
 11
96.397979903041
 21
125.1694465796153
 31
0
 12
95.09797990304099
 22
125.1694465796153
 32
0
 13
95.09797990304099
 23
125.1694465796153
 33
0
  0
SOLID
  8
1
 62
1
 10
95.747979903041
 20
-99.83055342034498
 30
0
 11
95.09797990304099
 21
-94.83055342034498
 31
0
 12
96.39797990304099
 22
-94.83055342034498
 32
0
 13
96.39797990304099
 23
-94.83055342034498
 33
0
  0
TEXT
  8
1
 62
7
 10
94.747979903041
 20
9.169446579635119
 30
0
 40
5
  1
230
 50
90
 41
0.9
  0
ENDBLK
  8
0
  0
BLOCK
  8
1
  2
*D7
 70
1
 10
0
 20
0
 30
0
  0
LINE
  8
1
 62
1
 10
54.57756490858401
 20
-90.83055342034501
 30
0
 11
54.57756490858401
 21
-80.83055342034501
 31
0
  0
LINE
  8
1
 62
1
 10
54.57756490858401
 20
-99.83055342034501
 30
0
 11
54.57756490858401
 21
-109.830553420345
 31
0
  0
LINE
  8
1
 62
1
 10
54.57756490858401
 20
-99.83055342034501
 30
0
 11
54.57756490858401
 21
-90.83055342034501
 31
0
  0
LINE
  8
1
 62
1
 10
66.53184828927601
 20
-90.83055342034501
 30
0
 11
52.57756490858401
 21
-90.83055342034501
 31
0
  0
LINE
  8
1
 62
1
 10
71.48184828927612
 20
-99.83055342034501
 30
0
 11
52.57756490858401
 21
-99.83055342034501
 31
0
  0
SOLID
  8
1
 62
1
 10
54.57756490858401
 20
-90.83055342034501
 30
0
 11
53.92756490858401
 21
-85.83055342034501
 31
0
 12
55.22756490858401
 22
-85.83055342034501
 32
0
 13
55.22756490858401
 23
-85.83055342034501
 33
0
  0
SOLID
  8
1
 62
1
 10
54.57756490858401
 20
-99.83055342034501
 30
0
 11
55.22756490858401
 21
-104.830553420345
 31
0
 12
53.92756490858401
 22
-104.830553420345
 32
0
 13
53.92756490858401
 23
-104.830553420345
 33
0
  0
TEXT
  8
1
 62
7
 10
53.57756490858401
 20
-96.83055342034501
 30
0
 40
5
  1
9
 50
90
 41
0.9
  0
ENDBLK
  8
0
  0
BLOCK
  8
1
  2
*D8
 70
1
 10
0
 20
0
 30
0
  0
LINE
  8
1
 62
1
 10
54.414038109606
 20
130.1694465796153
 30
0
 11
54.414038109606
 21
140.1694465796153
 31
0
  0
LINE
  8
1
 62
1
 10
54.414038109606
 20
121.1694465796538
 30
0
 11
54.414038109606
 21
111.1694465796538
 31
0
  0
LINE
  8
1
 62
1
 10
54.414038109606
 20
121.1694465796538
 30
0
 11
54.414038109606
 21
130.1694465796153
 31
0
  0
LINE
  8
1
 62
1
 10
71.48184828927612
 20
130.1694465796153
 30
0
 11
52.414038109606
 21
130.1694465796153
 31
0
  0
LINE
  8
1
 62
1
 10
66.53184828927601
 20
121.1694465796538
 30
0
 11
52.414038109606
 21
121.1694465796538
 31
0
  0
SOLID
  8
1
 62
1
 10
54.414038109606
 20
130.1694465796153
 30
0
 11
53.764038109606
 21
135.1694465796153
 31
0
 12
55.064038109606
 22
135.1694465796153
 32
0
 13
55.064038109606
 23
135.1694465796153
 33
0
  0
SOLID
  8
1
 62
1
 10
54.414038109606
 20
121.1694465796538
 30
0
 11
55.064038109606
 21
116.1694465796538
 31
0
 12
53.764038109606
 22
116.1694465796538
 32
0
 13
53.764038109606
 23
116.1694465796538
 33
0
  0
TEXT
  8
1
 62
7
 10
53.414038109606
 20
124.1694465796345
 30
0
 40
5
  1
9
 50
90
 41
0.9
  0
ENDBLK
  8
0
  0
BLOCK
  8
1
  2
*D9
 70
1
 10
0
 20
0
 30
0
  0
LINE
  8
1
 62
1
 10
-133.5655819359923
 20
-64.8305534203447
 30
0
 11
-133.5655819359923
 21
-25.83055342034501
 31
0
  0
LINE
  8
1
 62
1
 10
-117.446354940999
 20
-25.83055342034501
 30
0
 11
-135.5655819359923
 21
-25.83055342034501
 31
0
  0
LINE
  8
1
 62
1
 10
-102.5181517107239
 20
-64.8305534203447
 30
0
 11
-135.5655819359923
 21
-64.8305534203447
 31
0
  0
SOLID
  8
1
 62
1
 10
-133.5655819359923
 20
-25.83055342034501
 30
0
 11
-132.9155819359923
 21
-30.83055342034501
 31
0
 12
-134.2155819359923
 22
-30.83055342034501
 32
0
 13
-134.2155819359923
 23
-30.83055342034501
 33
0
  0
SOLID
  8
1
 62
1
 10
-133.5655819359923
 20
-64.8305534203447
 30
0
 11
-134.2155819359923
 21
-59.8305534203447
 31
0
 12
-132.9155819359923
 22
-59.8305534203447
 32
0
 13
-132.9155819359923
 23
-59.8305534203447
 33
0
  0
TEXT
  8
1
 62
7
 10
-134.5655819359923
 20
-49.08055342034487
 30
0
 40
5
  1
39
 50
90
 41
0.9
  0
ENDBLK
  8
0
  0
BLOCK
  8
1
  2
*D10
 70
1
 10
0
 20
0
 30
0
  0
LINE
  8
1
 62
1
 10
-133.4840249961162
 20
-99.83055342034501
 30
0
 11
-133.4840249961162
 21
-64.83055342034501
 31
0
  0
LINE
  8
1
 62
1
 10
-98.01815171072393
 20
-64.83055342034501
 30
0
 11
-135.4840249961162
 21
-64.83055342034501
 31
0
  0
LINE
  8
1
 62
1
 10
-105.5181517107239
 20
-99.83055342034501
 30
0
 11
-135.4840249961162
 21
-99.83055342034501
 31
0
  0
SOLID
  8
1
 62
1
 10
-133.4840249961162
 20
-99.83055342034501
 30
0
 11
-134.1340249961162
 21
-94.83055342034501
 31
0
 12
-132.8340249961162
 22
-94.83055342034501
 32
0
 13
-132.8340249961162
 23
-94.83055342034501
 33
0
  0
SOLID
  8
1
 62
1
 10
-133.4840249961162
 20
-64.83055342034501
 30
0
 11
-132.8340249961162
 21
-69.83055342034501
 31
0
 12
-134.1340249961162
 22
-69.83055342034501
 32
0
 13
-134.1340249961162
 23
-69.83055342034501
 33
0
  0
TEXT
  8
1
 62
7
 10
-134.4840249961162
 20
-86.08055342034501
 30
0
 40
5
  1
35
 50
90
 41
0.9
  0
ENDBLK
  8
0
  0
BLOCK
  8
1
  2
*D11
 70
1
 10
0
 20
0
 30
0
  0
LINE
  8
1
 62
1
 10
-133.6081804967427
 20
78.16944657965377
 30
0
 11
-133.6081804967427
 21
95.16944657965377
 31
0
  0
LINE
  8
1
 62
1
 10
-102.5181517107239
 20
95.16944657965377
 30
0
 11
-135.6081804967427
 21
95.16944657965377
 31
0
  0
LINE
  8
1
 62
1
 10
-113.018151710723
 20
78.16944657965377
 30
0
 11
-135.6081804967427
 21
78.16944657965377
 31
0
  0
SOLID
  8
1
 62
1
 10
-133.6081804967427
 20
95.16944657965377
 30
0
 11
-132.9581804967427
 21
90.16944657965377
 31
0
 12
-134.2581804967427
 22
90.16944657965377
 32
0
 13
-134.2581804967427
 23
90.16944657965377
 33
0
  0
SOLID
  8
1
 62
1
 10
-133.6081804967427
 20
78.16944657965377
 30
0
 11
-134.2581804967427
 21
83.16944657965377
 31
0
 12
-132.9581804967427
 22
83.16944657965377
 32
0
 13
-132.9581804967427
 23
83.16944657965377
 33
0
  0
TEXT
  8
1
 62
7
 10
-134.6081804967427
 20
83.66944657965377
 30
0
 40
5
  1
17
 50
90
 41
0.9
  0
ENDBLK
  8
0
  0
BLOCK
  8
1
  2
*D12
 70
1
 10
0
 20
0
 30
0
  0
LINE
  8
1
 62
1
 10
-133.6081804967427
 20
95.16944657965374
 30
0
 11
-133.6081804967427
 21
130.1694465796539
 31
0
  0
LINE
  8
1
 62
1
 10
-105.5181517107239
 20
130.1694465796539
 30
0
 11
-135.6081804967427
 21
130.1694465796539
 31
0
  0
LINE
  8
1
 62
1
 10
-97.51815171072393
 20
95.16944657965374
 30
0
 11
-135.6081804967427
 21
95.16944657965374
 31
0
  0
SOLID
  8
1
 62
1
 10
-133.6081804967427
 20
130.1694465796539
 30
0
 11
-132.9581804967427
 21
125.1694465796539
 31
0
 12
-134.2581804967427
 22
125.1694465796539
 32
0
 13
-134.2581804967427
 23
125.1694465796539
 33
0
  0
SOLID
  8
1
 62
1
 10
-133.6081804967427
 20
95.16944657965374
 30
0
 11
-134.2581804967427
 21
100.1694465796537
 31
0
 12
-132.9581804967427
 22
100.1694465796537
 32
0
 13
-132.9581804967427
 23
100.1694465796537
 33
0
  0
TEXT
  8
1
 62
7
 10
-134.6081804967427
 20
108.9194465796538
 30
0
 40
5
  1
35
 50
90
 41
0.9
  0
ENDBLK
  8
0
  0
BLOCK
  8
1
  2
*D13
 70
1
 10
0
 20
0
 30
0
  0
LINE
  8
1
 62
1
 10
-64.5181517107239
 20
69.50880039507797
 30
0
 11
-26.51815171072389
 21
69.50880039507797
 31
0
  0
LINE
  8
1
 62
1
 10
-26.51815171072389
 20
47.29444657965379
 30
0
 11
-26.51815171072389
 21
71.50880039507797
 31
0
  0
LINE
  8
1
 62
1
 10
-64.5181517107239
 20
47.29444657965379
 30
0
 11
-64.5181517107239
 21
71.50880039507797
 31
0
  0
SOLID
  8
1
 62
1
 10
-64.5181517107239
 20
69.50880039507797
 30
0
 11
-59.5181517107239
 21
70.15880039507798
 31
0
 12
-59.5181517107239
 22
68.85880039507796
 32
0
 13
-59.5181517107239
 23
68.85880039507796
 33
0
  0
SOLID
  8
1
 62
1
 10
-26.51815171072389
 20
69.50880039507797
 30
0
 11
-31.51815171072389
 21
68.85880039507796
 31
0
 12
-31.51815171072389
 22
70.15880039507798
 32
0
 13
-31.51815171072389
 23
70.15880039507798
 33
0
  0
TEXT
  8
1
 62
7
 10
-49.2681517107239
 20
70.50880039507797
 30
0
 40
5
  1
38
 41
0.9
  0
ENDBLK
  8
0
  0
BLOCK
  8
1
  2
*D14
 70
1
 10
0
 20
0
 30
0
  0
LINE
  8
1
 62
1
 10
-0.8268026772950066
 20
-34.83055342034621
 30
0
 11
-0.8268026772950066
 21
-24.83055342034621
 31
0
  0
LINE
  8
1
 62
1
 10
-0.8268026772950066
 20
-42.83055342034621
 30
0
 11
-0.8268026772950066
 21
-52.83055342034621
 31
0
  0
LINE
  8
1
 62
1
 10
-0.8268026772950066
 20
-42.83055342034621
 30
0
 11
-0.8268026772950066
 21
-34.83055342034621
 31
0
  0
LINE
  8
1
 62
1
 10
-33.56610979549299
 20
-34.83055342034621
 30
0
 11
0.1731973227049934
 21
-34.83055342034621
 31
0
  0
LINE
  8
1
 62
1
 10
-22.39315171072511
 20
-42.83055342034621
 30
0
 11
0.1731973227049934
 21
-42.83055342034621
 31
0
  0
SOLID
  8
1
 62
1
 10
-0.8268026772950066
 20
-34.83055342034621
 30
0
 11
-1.476802677295008
 21
-29.83055342034621
 31
0
 12
-0.176802677295009
 22
-29.83055342034621
 32
0
 13
-0.176802677295009
 23
-29.83055342034621
 33
0
  0
SOLID
  8
1
 62
1
 10
-0.8268026772950066
 20
-42.83055342034621
 30
0
 11
-0.1768026772950079
 21
-47.83055342034621
 31
0
 12
-1.476802677295007
 22
-47.83055342034621
 32
0
 13
-1.476802677295007
 23
-47.83055342034621
 33
0
  0
TEXT
  8
1
 62
7
 10
-1.826802677295007
 20
-40.33055342034621
 30
0
 40
5
  1
8
 50
90
 41
0.9
  0
ENDBLK
  8
0
  0
BLOCK
  8
1
  2
*D15
 70
1
 10
0
 20
0
 30
0
  0
LINE
  8
1
 62
1
 10
-41.51815171072388
 20
57.475472843034
 30
0
 11
-28.77784961784411
 21
57.475472843034
 31
0
  0
LINE
  8
1
 62
1
 10
-49.5181517107239
 20
57.475472843034
 30
0
 11
-41.51815171072388
 21
57.475472843034
 31
0
  0
LINE
  8
1
 62
1
 10
-59.5181517107239
 20
57.475472843034
 30
0
 11
-49.5181517107239
 21
57.475472843034
 31
0
  0
LINE
  8
1
 62
1
 10
-41.51815171072388
 20
47.16944657965379
 30
0
 11
-41.51815171072388
 21
58.475472843034
 31
0
  0
LINE
  8
1
 62
1
 10
-49.5181517107239
 20
47.16944657965379
 30
0
 11
-49.5181517107239
 21
58.475472843034
 31
0
  0
SOLID
  8
1
 62
1
 10
-49.5181517107239
 20
57.475472843034
 30
0
 11
-54.5181517107239
 21
56.825472843034
 31
0
 12
-54.5181517107239
 22
58.125472843034
 32
0
 13
-54.5181517107239
 23
58.125472843034
 33
0
  0
SOLID
  8
1
 62
1
 10
-41.51815171072388
 20
57.475472843034
 30
0
 11
-36.51815171072388
 21
58.125472843034
 31
0
 12
-36.51815171072388
 22
56.825472843034
 32
0
 13
-36.51815171072388
 23
56.825472843034
 33
0
  0
TEXT
  8
1
 62
7
 10
-39.77784961784411
 20
58.475472843034
 30
0
 40
5
  1
8/9
 41
0.9
  0
ENDBLK
  8
0
  0
BLOCK
  8
1
  2
*D16
 70
1
 10
0
 20
0
 30
0
  0
LINE
  8
1
 62
1
 10
-64.5181517107239
 20
-20.14297827838601
 30
0
 11
-26.51815171072389
 21
-20.14297827838601
 31
0
  0
LINE
  8
1
 62
1
 10
-26.51815171072389
 20
-38.70555342034712
 30
0
 11
-26.51815171072389
 21
-19.14297827838601
 31
0
  0
LINE
  8
1
 62
1
 10
-64.5181517107239
 20
-38.70555342034621
 30
0
 11
-64.5181517107239
 21
-19.14297827838601
 31
0
  0
SOLID
  8
1
 62
1
 10
-64.5181517107239
 20
-20.14297827838601
 30
0
 11
-59.5181517107239
 21
-19.49297827838601
 31
0
 12
-59.5181517107239
 22
-20.79297827838601
 32
0
 13
-59.5181517107239
 23
-20.79297827838601
 33
0
  0
SOLID
  8
1
 62
1
 10
-26.51815171072389
 20
-20.14297827838601
 30
0
 11
-31.51815171072389
 21
-20.79297827838601
 31
0
 12
-31.51815171072389
 22
-19.49297827838601
 32
0
 13
-31.51815171072389
 23
-19.49297827838601
 33
0
  0
TEXT
  8
1
 62
7
 10
-49.2681517107239
 20
-19.14297827838601
 30
0
 40
5
  1
38
 41
0.9
  0
ENDBLK
  8
0
  0
BLOCK
  8
1
  2
*D17
 70
1
 10
0
 20
0
 30
0
  0
LINE
  8
1
 62
1
 10
62.48184828927612
 20
-109.788372802412
 30
0
 11
80.48184828927612
 21
-109.788372802412
 31
0
  0
LINE
  8
1
 62
1
 10
80.48184828927612
 20
-90.83055342034501
 30
0
 11
80.48184828927612
 21
-110.788372802412
 31
0
  0
LINE
  8
1
 62
1
 10
62.48184828927612
 20
-90.83055342034501
 30
0
 11
62.48184828927612
 21
-110.788372802412
 31
0
  0
SOLID
  8
1
 62
1
 10
62.48184828927612
 20
-109.788372802412
 30
0
 11
67.48184828927612
 21
-109.138372802412
 31
0
 12
67.48184828927612
 22
-110.438372802412
 32
0
 13
67.48184828927612
 23
-110.438372802412
 33
0
  0
SOLID
  8
1
 62
1
 10
80.48184828927612
 20
-109.788372802412
 30
0
 11
75.48184828927612
 21
-110.438372802412
 31
0
 12
75.48184828927612
 22
-109.138372802412
 32
0
 13
75.48184828927612
 23
-109.138372802412
 33
0
  0
TEXT
  8
1
 62
7
 10
68.48184828927612
 20
-108.788372802412
 30
0
 40
5
  1
18
 41
0.9
  0
ENDBLK
  8
0
  0
BLOCK
  8
1
  2
*D18
 70
1
 10
0
 20
0
 30
0
  0
LINE
  8
1
 62
1
 10
-105.518151710724
 20
37.44221660081499
 30
0
 11
-95.51815171072396
 21
37.44221660081499
 31
0
  0
LINE
  8
1
 62
1
 10
-115.5181517107231
 20
37.44221660081499
 30
0
 11
-125.518151710723
 21
37.44221660081499
 31
0
  0
LINE
  8
1
 62
1
 10
-115.5181517107231
 20
37.44221660081499
 30
0
 11
-105.518151710724
 21
37.44221660081499
 31
0
  0
LINE
  8
1
 62
1
 10
-105.518151710724
 20
48.16944657965379
 30
0
 11
-105.518151710724
 21
36.44221660081499
 31
0
  0
LINE
  8
1
 62
1
 10
-115.5181517107231
 20
48.610264031425
 30
0
 11
-115.5181517107231
 21
36.44221660081499
 31
0
  0
SOLID
  8
1
 62
1
 10
-115.5181517107231
 20
37.44221660081499
 30
0
 11
-120.5181517107231
 21
36.79221660081499
 31
0
 12
-120.5181517107231
 22
38.09221660081499
 32
0
 13
-120.5181517107231
 23
38.09221660081499
 33
0
  0
SOLID
  8
1
 62
1
 10
-105.518151710724
 20
37.44221660081499
 30
0
 11
-100.518151710724
 21
38.09221660081499
 31
0
 12
-100.518151710724
 22
36.79221660081499
 32
0
 13
-100.518151710724
 23
36.79221660081499
 33
0
  0
TEXT
  8
1
 62
7
 10
-113.5181517107235
 20
38.44221660081499
 30
0
 40
5
  1
10
 41
0.9
  0
ENDBLK
  8
0
  0
BLOCK
  8
1
  2
*D19
 70
1
 10
0
 20
0
 30
0
  0
LINE
  8
1
 62
1
 10
-102.5181517107239
 20
116.435791167126
 30
0
 11
-90.14878453646649
 21
116.435791167126
 31
0
  0
LINE
  8
1
 62
1
 10
-105.5181517107239
 20
116.435791167126
 30
0
 11
-102.5181517107239
 21
116.435791167126
 31
0
  0
LINE
  8
1
 62
1
 10
-115.5181517107239
 20
116.435791167126
 30
0
 11
-105.5181517107239
 21
116.435791167126
 31
0
  0
LINE
  8
1
 62
1
 10
-102.5181517107239
 20
130.1694465796539
 30
0
 11
-102.5181517107239
 21
114.435791167126
 31
0
  0
LINE
  8
1
 62
1
 10
-105.5181517107239
 20
130.1694465796539
 30
0
 11
-105.5181517107239
 21
114.435791167126
 31
0
  0
SOLID
  8
1
 62
1
 10
-105.5181517107239
 20
116.435791167126
 30
0
 11
-110.5181517107239
 21
115.785791167126
 31
0
 12
-110.5181517107239
 22
117.085791167126
 32
0
 13
-110.5181517107239
 23
117.085791167126
 33
0
  0
SOLID
  8
1
 62
1
 10
-102.5181517107239
 20
116.435791167126
 30
0
 11
-97.51815171072391
 21
117.085791167126
 31
0
 12
-97.51815171072391
 22
115.785791167126
 32
0
 13
-97.51815171072391
 23
115.785791167126
 33
0
  0
TEXT
  8
1
 62
7
 10
-93.14878453646649
 20
117.435791167126
 30
0
 40
5
  1
3
 41
0.9
  0
ENDBLK
  8
0
  0
BLOCK
  8
1
  2
*D20
 70
1
 10
0
 20
0
 30
0
  0
LINE
  8
1
 62
1
 10
-0.186766120272011
 20
21.66944657965379
 30
0
 11
-0.186766120272011
 21
43.16944657965379
 31
0
  0
LINE
  8
1
 62
1
 10
-35.6181517107241
 20
43.16944657965379
 30
0
 11
1.813233879727989
 21
43.16944657965379
 31
0
  0
LINE
  8
1
 62
1
 10
-39.918151710724
 20
21.66944657965379
 30
0
 11
1.813233879727989
 21
21.66944657965379
 31
0
  0
SOLID
  8
1
 62
1
 10
-0.186766120272011
 20
43.16944657965379
 30
0
 11
0.4632338797279877
 21
38.16944657965379
 31
0
 12
-0.8367661202720116
 22
38.16944657965379
 32
0
 13
-0.8367661202720116
 23
38.16944657965379
 33
0
  0
SOLID
  8
1
 62
1
 10
-0.186766120272011
 20
21.66944657965379
 30
0
 11
-0.8367661202720125
 21
26.66944657965379
 31
0
 12
0.4632338797279866
 22
26.66944657965379
 32
0
 13
0.4632338797279866
 23
26.66944657965379
 33
0
  0
TEXT
  8
1
 62
7
 10
-1.686766120272011
 20
26.29444657965379
 30
0
 40
5
  1
21,5
 50
90
 41
0.9
  0
ENDBLK
  8
0
  0
BLOCK
  8
1
  2
*D21
 70
1
 10
0
 20
0
 30
0
  0
LINE
  8
1
 62
1
 10
-80.9909664292021
 20
-158.597679554111
 30
0
 11
-80.9909664292021
 21
-148.597679554111
 31
0
  0
LINE
  8
1
 62
1
 10
-80.9909664292021
 20
-160.097679554111
 30
0
 11
-80.9909664292021
 21
-158.597679554111
 31
0
  0
LINE
  8
1
 62
1
 10
-80.9909664292021
 20
-170.097679554111
 30
0
 11
-80.9909664292021
 21
-160.097679554111
 31
0
  0
LINE
  8
1
 62
1
 10
-102.5181517107239
 20
-158.597679554111
 30
0
 11
-79.9909664292021
 21
-158.597679554111
 31
0
  0
LINE
  8
1
 62
1
 10
-15.51815171072388
 20
-160.097679554111
 30
0
 11
-81.9909664292021
 21
-160.097679554111
 31
0
  0
SOLID
  8
1
 62
1
 10
-80.9909664292021
 20
-158.597679554111
 30
0
 11
-81.64096642920211
 21
-153.597679554111
 31
0
 12
-80.34096642920211
 22
-153.597679554111
 32
0
 13
-80.34096642920211
 23
-153.597679554111
 33
0
  0
SOLID
  8
1
 62
1
 10
-80.9909664292021
 20
-160.097679554111
 30
0
 11
-80.3409664292021
 21
-165.097679554111
 31
0
 12
-81.64096642920211
 22
-165.097679554111
 32
0
 13
-81.64096642920211
 23
-165.097679554111
 33
0
  0
TEXT
  8
1
 62
7
 10
-82.42938208004399
 20
-154.9611806276287
 30
0
 40
5
  1
1
 50
90
 41
0.9
  0
ENDBLK
  8
0
  0
BLOCK
  8
1
  2
*D22
 70
1
 10
0
 20
0
 30
0
  0
LINE
  8
1
 62
1
 10
-80.8967455217844
 20
-113.597679554111
 30
0
 11
-80.8967455217844
 21
-103.597679554111
 31
0
  0
LINE
  8
1
 62
1
 10
-80.8967455217844
 20
-115.097679554111
 30
0
 11
-80.8967455217844
 21
-113.597679554111
 31
0
  0
LINE
  8
1
 62
1
 10
-80.8967455217844
 20
-125.097679554111
 30
0
 11
-80.8967455217844
 21
-115.097679554111
 31
0
  0
LINE
  8
1
 62
1
 10
-102.5181517107239
 20
-113.597679554111
 30
0
 11
-79.8967455217844
 21
-113.597679554111
 31
0
  0
LINE
  8
1
 62
1
 10
-15.51815171072388
 20
-115.097679554111
 30
0
 11
-81.8967455217844
 21
-115.097679554111
 31
0
  0
SOLID
  8
1
 62
1
 10
-80.8967455217844
 20
-113.597679554111
 30
0
 11
-81.5467455217844
 21
-108.597679554111
 31
0
 12
-80.2467455217844
 22
-108.597679554111
 32
0
 13
-80.2467455217844
 23
-108.597679554111
 33
0
  0
SOLID
  8
1
 62
1
 10
-80.8967455217844
 20
-115.097679554111
 30
0
 11
-80.24674552178439
 21
-120.097679554111
 31
0
 12
-81.5467455217844
 22
-120.097679554111
 32
0
 13
-81.5467455217844
 23
-120.097679554111
 33
0
  0
TEXT
  8
1
 62
7
 10
-82.91092508501009
 20
-110.5805534203462
 30
0
 40
5
  1
1
 50
90
 41
0.9
  0
ENDBLK
  8
0
  0
BLOCK
  8
1
  2
*D23
 70
1
 10
0
 20
0
 30
0
  0
LINE
  8
1
 62
1
 10
-0.7765600269590038
 20
-115.097679554111
 30
0
 11
-0.7765600269590038
 21
-105.097679554111
 31
0
  0
LINE
  8
1
 62
1
 10
-0.7765600269590038
 20
-128.097679554111
 30
0
 11
-0.7765600269590038
 21
-138.097679554111
 31
0
  0
LINE
  8
1
 62
1
 10
-0.7765600269590038
 20
-128.097679554111
 30
0
 11
-0.7765600269590038
 21
-115.097679554111
 31
0
  0
LINE
  8
1
 62
1
 10
-15.51815171072388
 20
-115.097679554111
 30
0
 11
0.2234399730409962
 21
-115.097679554111
 31
0
  0
LINE
  8
1
 62
1
 10
-15.51815171072388
 20
-128.097679554111
 30
0
 11
0.2234399730409962
 21
-128.097679554111
 31
0
  0
SOLID
  8
1
 62
1
 10
-0.7765600269590038
 20
-115.097679554111
 30
0
 11
-1.426560026959005
 21
-110.097679554111
 31
0
 12
-0.1265600269590063
 22
-110.097679554111
 32
0
 13
-0.1265600269590063
 23
-110.097679554111
 33
0
  0
SOLID
  8
1
 62
1
 10
-0.7765600269590038
 20
-128.097679554111
 30
0
 11
-0.1265600269590051
 21
-133.097679554111
 31
0
 12
-1.426560026959004
 22
-133.097679554111
 32
0
 13
-1.426560026959004
 23
-133.097679554111
 33
0
  0
TEXT
  8
1
 62
7
 10
-1.776560026959004
 20
-124.597679554111
 30
0
 40
5
  1
13
 50
90
 41
0.9
  0
ENDBLK
  8
0
  0
BLOCK
  8
1
  2
*D24
 70
1
 10
0
 20
0
 30
0
  0
LINE
  8
1
 62
1
 10
14.384623046635
 20
-64.83055342034621
 30
0
 11
14.384623046635
 21
-34.83055342034621
 31
0
  0
LINE
  8
1
 62
1
 10
-34.40565171072399
 20
-34.83055342034621
 30
0
 11
15.384623046635
 21
-34.83055342034621
 31
0
  0
LINE
  8
1
 62
1
 10
-58.5181517107239
 20
-64.83055342034621
 30
0
 11
15.384623046635
 21
-64.83055342034621
 31
0
  0
SOLID
  8
1
 62
1
 10
14.384623046635
 20
-64.83055342034621
 30
0
 11
13.734623046635
 21
-59.83055342034621
 31
0
 12
15.034623046635
 22
-59.83055342034621
 32
0
 13
15.034623046635
 23
-59.83055342034621
 33
0
  0
SOLID
  8
1
 62
1
 10
14.384623046635
 20
-34.83055342034621
 30
0
 11
15.034623046635
 21
-39.83055342034621
 31
0
 12
13.734623046635
 22
-39.83055342034621
 32
0
 13
13.734623046635
 23
-39.83055342034621
 33
0
  0
TEXT
  8
1
 62
7
 10
13.384623046635
 20
-53.58055342034621
 30
0
 40
5
  1
30
 50
90
 41
0.9
  0
ENDBLK
  8
0
  0
BLOCK
  8
1
  2
*D25
 70
1
 10
0
 20
0
 30
0
  0
LINE
  8
1
 62
1
 10
14.363065290854
 20
43.16944657965379
 30
0
 11
14.363065290854
 21
95.16944657965377
 31
0
  0
LINE
  8
1
 62
1
 10
-58.5181517107239
 20
95.16944657965377
 30
0
 11
15.363065290854
 21
95.16944657965377
 31
0
  0
LINE
  8
1
 62
1
 10
-35.61815171072411
 20
43.16944657965379
 30
0
 11
15.363065290854
 21
43.16944657965379
 31
0
  0
SOLID
  8
1
 62
1
 10
14.363065290854
 20
43.16944657965379
 30
0
 11
13.713065290854
 21
48.16944657965379
 31
0
 12
15.013065290854
 22
48.16944657965379
 32
0
 13
15.013065290854
 23
48.16944657965379
 33
0
  0
SOLID
  8
1
 62
1
 10
14.363065290854
 20
95.16944657965377
 30
0
 11
15.013065290854
 21
90.16944657965377
 31
0
 12
13.713065290854
 22
90.16944657965377
 32
0
 13
13.713065290854
 23
90.16944657965377
 33
0
  0
TEXT
  8
1
 62
7
 10
13.363065290854
 20
65.41944657965377
 30
0
 40
5
  1
52
 50
90
 41
0.9
  0
ENDBLK
  8
0
  0
BLOCK
  8
1
  2
*D26
 70
1
 10
0
 20
0
 30
0
  0
LINE
  8
1
 62
1
 10
14.384623046635
 20
-34.83055342034621
 30
0
 11
14.384623046635
 21
43.16944657965379
 31
0
  0
LINE
  8
1
 62
1
 10
-35.61815171072411
 20
43.16944657965379
 30
0
 11
15.384623046635
 21
43.16944657965379
 31
0
  0
LINE
  8
1
 62
1
 10
-34.40565171072399
 20
-34.83055342034621
 30
0
 11
15.384623046635
 21
-34.83055342034621
 31
0
  0
SOLID
  8
1
 62
1
 10
14.384623046635
 20
-34.83055342034621
 30
0
 11
13.734623046635
 21
-29.83055342034621
 31
0
 12
15.034623046635
 22
-29.83055342034621
 32
0
 13
15.034623046635
 23
-29.83055342034621
 33
0
  0
SOLID
  8
1
 62
1
 10
14.384623046635
 20
43.16944657965379
 30
0
 11
15.034623046635
 21
38.16944657965379
 31
0
 12
13.734623046635
 22
38.16944657965379
 32
0
 13
13.734623046635
 23
38.16944657965379
 33
0
  0
TEXT
  8
1
 62
7
 10
13.384623046635
 20
0.4194465796537941
 30
0
 40
5
  1
78
 50
90
 41
0.9
  0
ENDBLK
  8
0
  0
BLOCK
  8
1
  2
*D27
 70
1
 10
0
 20
0
 30
0
  0
LINE
  8
1
 62
1
 10
29.20601221354201
 20
-64.83055342034621
 30
0
 11
29.20601221354201
 21
95.16944657965377
 31
0
  0
LINE
  8
1
 62
1
 10
-58.5181517107239
 20
95.16944657965377
 30
0
 11
30.20601221354201
 21
95.16944657965377
 31
0
  0
LINE
  8
1
 62
1
 10
-58.5181517107239
 20
-64.83055342034621
 30
0
 11
30.20601221354201
 21
-64.83055342034621
 31
0
  0
SOLID
  8
1
 62
1
 10
29.20601221354201
 20
-64.83055342034621
 30
0
 11
28.55601221354201
 21
-59.83055342034621
 31
0
 12
29.85601221354201
 22
-59.83055342034621
 32
0
 13
29.85601221354201
 23
-59.83055342034621
 33
0
  0
SOLID
  8
1
 62
1
 10
29.20601221354201
 20
95.16944657965377
 30
0
 11
29.85601221354201
 21
90.16944657965377
 31
0
 12
28.55601221354201
 22
90.16944657965377
 32
0
 13
28.55601221354201
 23
90.16944657965377
 33
0
  0
TEXT
  8
1
 62
7
 10
28.20601221354201
 20
9.919446579653769
 30
0
 40
5
  1
160
 50
90
 41
0.9
  0
ENDBLK
  8
0
  0
BLOCK
  8
1
  2
*D28
 70
1
 10
0
 20
0
 30
0
  0
LINE
  8
1
 62
1
 10
-133.5784100833166
 20
-25.83055342034501
 30
0
 11
-133.5784100833166
 21
4.16944657965499
 31
0
  0
LINE
  8
1
 62
1
 10
-117.4463549409991
 20
4.16944657965499
 30
0
 11
-134.5784100833166
 21
4.16944657965499
 31
0
  0
LINE
  8
1
 62
1
 10
-117.4463549409991
 20
-25.83055342034501
 30
0
 11
-134.5784100833166
 21
-25.83055342034501
 31
0
  0
SOLID
  8
1
 62
1
 10
-133.5784100833166
 20
-25.83055342034501
 30
0
 11
-134.2284100833166
 21
-20.83055342034501
 31
0
 12
-132.9284100833166
 22
-20.83055342034501
 32
0
 13
-132.9284100833166
 23
-20.83055342034501
 33
0
  0
SOLID
  8
1
 62
1
 10
-133.5784100833166
 20
4.16944657965499
 30
0
 11
-132.9284100833166
 21
-0.8305534203450105
 31
0
 12
-134.2284100833166
 22
-0.8305534203450105
 32
0
 13
-134.2284100833166
 23
-0.8305534203450105
 33
0
  0
TEXT
  8
1
 62
7
 10
-134.5784100833166
 20
-14.58055342034501
 30
0
 40
5
  1
30
 50
90
 41
0.9
  0
ENDBLK
  8
0
  0
BLOCK
  8
1
  2
*D29
 70
1
 10
0
 20
0
 30
0
  0
LINE
  8
1
 62
1
 10
-133.6060469476739
 20
48.1694465796538
 30
0
 11
-133.6060469476739
 21
78.16944657965377
 31
0
  0
LINE
  8
1
 62
1
 10
-113.018151710723
 20
78.16944657965377
 30
0
 11
-134.6060469476739
 21
78.16944657965377
 31
0
  0
LINE
  8
1
 62
1
 10
-113.018151710723
 20
48.1694465796538
 30
0
 11
-134.6060469476739
 21
48.1694465796538
 31
0
  0
SOLID
  8
1
 62
1
 10
-133.6060469476739
 20
48.1694465796538
 30
0
 11
-134.2560469476739
 21
53.1694465796538
 31
0
 12
-132.9560469476739
 22
53.1694465796538
 32
0
 13
-132.9560469476739
 23
53.1694465796538
 33
0
  0
SOLID
  8
1
 62
1
 10
-133.6060469476739
 20
78.16944657965377
 30
0
 11
-132.9560469476739
 21
73.16944657965377
 31
0
 12
-134.2560469476739
 22
73.16944657965377
 32
0
 13
-134.2560469476739
 23
73.16944657965377
 33
0
  0
TEXT
  8
1
 62
7
 10
-134.6060469476739
 20
59.41944657965377
 30
0
 40
5
  1
30
 50
90
 41
0.9
  0
ENDBLK
  8
0
  0
BLOCK
  8
1
  2
*D30
 70
1
 10
0
 20
0
 30
0
  0
LINE
  8
1
 62
1
 10
-133.5791752739575
 20
4.169446579654991
 30
0
 11
-133.5791752739575
 21
48.16944657965379
 31
0
  0
LINE
  8
1
 62
1
 10
-113.018151710723
 20
48.16944657965379
 30
0
 11
-134.5791752739575
 21
48.16944657965379
 31
0
  0
LINE
  8
1
 62
1
 10
-117.4463549409991
 20
4.169446579654991
 30
0
 11
-134.5791752739575
 21
4.169446579654991
 31
0
  0
SOLID
  8
1
 62
1
 10
-133.5791752739575
 20
4.169446579654991
 30
0
 11
-134.2291752739575
 21
9.169446579654991
 31
0
 12
-132.9291752739575
 22
9.169446579654991
 32
0
 13
-132.9291752739575
 23
9.169446579654991
 33
0
  0
SOLID
  8
1
 62
1
 10
-133.5791752739575
 20
48.16944657965379
 30
0
 11
-132.9291752739575
 21
43.16944657965379
 31
0
 12
-134.2291752739575
 22
43.16944657965379
 32
0
 13
-134.2291752739575
 23
43.16944657965379
 33
0
  0
TEXT
  8
1
 62
7
 10
-134.5791752739575
 20
22.41944657965439
 30
0
 40
5
  1
44
 50
90
 41
0.9
  0
ENDBLK
  8
0
  0
BLOCK
  8
1
  2
*D31
 70
1
 10
0
 20
0
 30
0
  0
LINE
  8
1
 62
1
 10
-105.5181517107239
 20
-81.02313551186201
 30
0
 11
-45.5181517107239
 21
-81.02313551186201
 31
0
  0
LINE
  8
1
 62
1
 10
-45.5181517107239
 20
-53.8805534203461
 30
0
 11
-45.5181517107239
 21
-82.02313551186201
 31
0
  0
LINE
  8
1
 62
1
 10
-105.5181517107239
 20
-99.83055342034501
 30
0
 11
-105.5181517107239
 21
-80.02313551186201
 31
0
  0
SOLID
  8
1
 62
1
 10
-105.5181517107239
 20
-81.02313551186201
 30
0
 11
-100.5181517107239
 21
-80.373135511862
 31
0
 12
-100.5181517107239
 22
-81.67313551186201
 32
0
 13
-100.5181517107239
 23
-81.67313551186201
 33
0
  0
SOLID
  8
1
 62
1
 10
-45.5181517107239
 20
-81.02313551186201
 30
0
 11
-50.5181517107239
 21
-81.67313551186201
 31
0
 12
-50.5181517107239
 22
-80.373135511862
 32
0
 13
-50.5181517107239
 23
-80.373135511862
 33
0
  0
TEXT
  8
1
 62
7
 10
-91.76815171072391
 20
-80.02313551186201
 30
0
 40
5
  1
50/60/70
 41
0.9
  0
ENDBLK
  8
0
  0
BLOCK
  8
1
  2
*D32
 70
1
 10
0
 20
0
 30
0
  0
LINE
  8
1
 62
1
 10
-45.51815171072389
 20
-81.02313551186201
 30
0
 11
-15.51815171072388
 21
-81.02313551186201
 31
0
  0
LINE
  8
1
 62
1
 10
-15.51815171072388
 20
-43.55542715449821
 30
0
 11
-15.51815171072388
 21
-82.02313551186201
 31
0
  0
LINE
  8
1
 62
1
 10
-45.51815171072389
 20
-53.8805534203461
 30
0
 11
-45.51815171072389
 21
-82.02313551186201
 31
0
  0
SOLID
  8
1
 62
1
 10
-45.51815171072389
 20
-81.02313551186201
 30
0
 11
-40.51815171072389
 21
-80.373135511862
 31
0
 12
-40.51815171072389
 22
-81.67313551186201
 32
0
 13
-40.51815171072389
 23
-81.67313551186201
 33
0
  0
SOLID
  8
1
 62
1
 10
-15.51815171072388
 20
-81.02313551186201
 30
0
 11
-20.51815171072388
 21
-81.67313551186201
 31
0
 12
-20.51815171072388
 22
-80.373135511862
 32
0
 13
-20.51815171072388
 23
-80.373135511862
 33
0
  0
TEXT
  8
1
 62
7
 10
-34.26815171072388
 20
-80.02313551186201
 30
0
 40
5
  1
30
 41
0.9
  0
ENDBLK
  8
0
  0
BLOCK
  8
1
  2
*D33
 70
1
 10
0
 20
0
 30
0
  0
LINE
  8
1
 62
1
 10
-105.5181517107239
 20
-38.485461042487
 30
0
 11
-95.51815171072388
 21
-38.485461042487
 31
0
  0
LINE
  8
1
 62
1
 10
-118.5181517107239
 20
-38.485461042487
 30
0
 11
-128.5181517107239
 21
-38.485461042487
 31
0
  0
LINE
  8
1
 62
1
 10
-118.5181517107239
 20
-38.485461042487
 30
0
 11
-105.5181517107239
 21
-38.485461042487
 31
0
  0
LINE
  8
1
 62
1
 10
-105.5181517107239
 20
-25.83055342034501
 30
0
 11
-105.5181517107239
 21
-39.485461042487
 31
0
  0
LINE
  8
1
 62
1
 10
-118.5181517107239
 20
-25.83055342034501
 30
0
 11
-118.5181517107239
 21
-39.485461042487
 31
0
  0
SOLID
  8
1
 62
1
 10
-105.5181517107239
 20
-38.485461042487
 30
0
 11
-100.5181517107239
 21
-37.835461042487
 31
0
 12
-100.5181517107239
 22
-39.135461042487
 32
0
 13
-100.5181517107239
 23
-39.135461042487
 33
0
  0
SOLID
  8
1
 62
1
 10
-118.5181517107239
 20
-38.485461042487
 30
0
 11
-123.5181517107239
 21
-39.135461042487
 31
0
 12
-123.5181517107239
 22
-37.835461042487
 32
0
 13
-123.5181517107239
 23
-37.835461042487
 33
0
  0
TEXT
  8
1
 62
7
 10
-115.4310504608723
 20
-37.485461042487
 30
0
 40
5
  1
13
 41
0.9
  0
ENDBLK
  8
0
  0
BLOCK
  8
1
  2
*D34
 70
1
 10
0
 20
0
 30
0
  0
LINE
  8
1
 62
1
 10
-60.3931517107239
 20
-42.83055342034621
 30
0
 11
-68.6431517107239
 21
-42.83055342034621
 31
0
  0
LINE
  8
1
 62
1
 10
-64.5181517107239
 20
-38.70555342034621
 30
0
 11
-64.5181517107239
 21
-46.95555342034621
 31
0
  0
LINE
  8
1
 62
1
 10
-55.07335305224468
 20
-36.71841154529049
 30
0
 11
-81.68315763895021
 21
-53.93877873177751
 31
0
  0
SOLID
  8
1
 62
1
 10
-67.66641793021748
 20
-44.8679340453651
 30
0
 11
-71.51096024787138
 21
-48.13014102343506
 31
0
 12
-72.21725219787776
 22
-47.03874206734422
 32
0
 13
-72.21725219787776
 23
-47.03874206734422
 33
0
  0
SOLID
  8
1
 62
1
 10
-61.36988549123032
 20
-40.7931727953273
 30
0
 11
-57.52534317357642
 21
-37.53096581725734
 31
0
 12
-56.81905122357004
 22
-38.62236477334818
 32
0
 13
-56.81905122357004
 23
-38.62236477334818
 33
0
  0
TEXT
  8
1
 62
7
 10
-82.49810988895756
 20
-52.6794722439804
 30
0
 40
5
  1
7,5
 50
32.9086703382867
 41
0.9
  0
ENDBLK
  8
0
  0
BLOCK
  8
1
  2
*D35
 70
1
 10
0
 20
0
 30
0
  0
LINE
  8
1
 62
1
 10
-55.418151710724
 20
43.16944657965379
 30
0
 11
-68.6431517107239
 21
43.16944657965379
 31
0
  0
LINE
  8
1
 62
1
 10
-64.5181517107239
 20
47.29444657965379
 30
0
 11
-64.5181517107239
 21
39.04444657965379
 31
0
  0
LINE
  8
1
 62
1
 10
-56.23967618363028
 20
50.78714590079478
 30
0
 11
-77.4244922554917
 21
31.29327188003381
 31
0
  0
SOLID
  8
1
 62
1
 10
-67.27764355308844
 20
40.63021347260678
 30
0
 11
-70.51683227101967
 21
36.76625741053425
 31
0
 12
-71.39709974812929
 22
37.72288124922062
 32
0
 13
-71.39709974812929
 23
37.72288124922062
 33
0
  0
SOLID
  8
1
 62
1
 10
-61.75865986835936
 20
45.7086796867008
 30
0
 11
-58.51947115042813
 21
49.57263574877332
 31
0
 12
-57.6392036733185
 22
48.61601191008695
 32
0
 13
-57.6392036733185
 23
48.61601191008695
 33
0
  0
TEXT
  8
1
 62
7
 10
-78.4401854983105
 20
32.39706861697963
 30
0
 40
5
  1
7,5
 50
42.61968495067279
 41
0.9
  0
ENDBLK
  8
0
  0
BLOCK
  8
1
  2
*D36
 70
1
 10
0
 20
0
 30
0
  0
LINE
  8
1
 62
1
 10
-37.21954401234416
 20
29.26520923184301
 30
0
 11
-57.30163317375803
 21
10.88395922288262
 31
0
  0
SOLID
  8
1
 62
1
 10
-48.28435427685049
 20
19.13752569559071
 30
0
 11
-51.53375807844834
 21
15.28215607204467
 31
0
 12
-52.4114906515902
 22
16.24110629496856
 32
0
 13
-52.4114906515902
 23
16.24110629496856
 33
0
  0
SOLID
  8
1
 62
1
 10
-42.75194914459732
 20
24.20136746371687
 30
0
 11
-39.50254534299949
 21
28.05673708726292
 31
0
 12
-38.62481276985762
 22
27.09778686433904
 32
0
 13
-38.62481276985762
 23
27.09778686433904
 33
0
  0
TEXT
  8
1
 62
7
 10
-58.31440152738327
 20
11.99044024933324
 30
0
 40
5
  1
7,5
 50
42.46804454484813
 41
0.9
  0
ENDBLK
  8
0
  0
ENDSEC
  0
SECTION
  2
ENTITIES
  0
LINE
  8
1
 62
7
 10
-17.2681517107232
 20
7.16944657965368
 30
0
 11
-17.2681517107232
 21
9.16944657965368
 31
0
  0
LINE
  8
1
 62
7
 10
-21.2681517107232
 20
7.16944657965368
 30
0
 11
-21.2681517107232
 21
9.16944657965368
 31
0
  0
LINE
  8
1
 62
7
 10
-24.2681517107232
 20
8.16944657965368
 30
0
 11
-24.2681517107232
 21
6.16944657965368
 31
0
  0
LINE
  8
1
 62
7
 10
-28.2681517107232
 20
6.16944657965368
 30
0
 11
-28.2681517107232
 21
8.16944657965368
 31
0
  0
LINE
  8
1
 62
7
 10
-24.2681517107232
 20
8.16944657965368
 30
0
 11
-28.2681517107232
 21
8.16944657965368
 31
0
  0
LINE
  8
1
 62
7
 10
-17.2681517107232
 20
9.16944657965368
 30
0
 11
-21.2681517107232
 21
9.16944657965368
 31
0
  0
LINE
  8
1
 62
7
 10
-24.2681517107232
 20
6.16944657965368
 30
0
 11
-28.2681517107232
 21
6.16944657965368
 31
0
  0
LINE
  8
1
 62
7
 10
-17.2681517107232
 20
7.16944657965368
 30
0
 11
-21.2681517107232
 21
7.16944657965368
 31
0
  0
LINE
  8
1
 62
2
  6
DIVIDE
 10
-70.4727415853655
 20
-53.33055342034621
 30
0
 11
-58.7952916224295
 21
-53.33055342034621
 31
0
  0
LINE
  8
1
 62
3
 10
-61.5181517107239
 20
-51.83055342034621
 30
0
 11
-61.5181517107229
 21
-54.83055342034621
 31
0
  0
LINE
  8
1
 62
3
 10
-67.5181517107239
 20
-51.83055342034621
 30
0
 11
-67.5181517107239
 21
-54.83055342034621
 31
0
  0
LINE
  8
1
 62
3
 10
-67.5181517107239
 20
-54.83055342034621
 30
0
 11
-61.5181517107229
 21
-54.83055342034621
 31
0
  0
LINE
  8
1
 62
3
 10
-67.5181517107239
 20
-51.83055342034621
 30
0
 11
-61.5181517107239
 21
-51.83055342034621
 31
0
  0
LINE
  8
1
 62
3
 10
-59.5181517107239
 20
-48.83055342034601
 30
0
 11
-59.5181517107239
 21
-57.83055342034601
 31
0
  0
LINE
  8
1
 62
3
 10
-69.5181517107239
 20
-48.83055342034601
 30
0
 11
-69.5181517107239
 21
-57.83055342034601
 31
0
  0
LINE
  8
1
 62
7
 10
-59.5181517107239
 20
-57.83055342034601
 30
0
 11
-69.5181517107239
 21
-57.83055342034601
 31
0
  0
LINE
  8
1
 62
7
 10
-59.5181517107239
 20
-48.83055342034601
 30
0
 11
-69.5181517107228
 21
-48.83055342034601
 31
0
  0
LINE
  8
1
 62
7
 10
-63.0181517107239
 20
-173.097679554111
 30
0
 11
-63.0181517107239
 21
-174.097679554111
 31
0
  0
LINE
  8
1
 62
7
 10
-28.01815171072388
 20
-173.097679554111
 30
0
 11
-28.01815171072388
 21
-174.097679554111
 31
0
  0
LINE
  8
1
 62
7
 10
-28.01815171072388
 20
-174.097679554111
 30
0
 11
-63.0181517107239
 21
-174.097679554111
 31
0
  0
LINE
  8
1
 62
7
 10
-115.5181517107239
 20
-165.1845236136671
 30
0
 11
-115.5181517107239
 21
-163.1251544756642
 31
0
  0
LINE
  8
1
 62
7
 10
-105.5181517107239
 20
-165.1845236136671
 30
0
 11
-115.5181517107239
 21
-165.1845236136671
 31
0
  0
LINE
  8
1
 62
7
 10
-105.5181517107239
 20
-162.684337023893
 30
0
 11
-113.0181517107239
 21
-162.684337023893
 31
0
  0
LINE
  8
1
 62
7
 10
-37.51815171072388
 20
-160.097679554111
 30
0
 11
-37.51815171072388
 21
-173.097679554111
 31
0
  0
LINE
  8
1
 62
7
 10
-102.5181517107239
 20
-160.097679554111
 30
0
 11
-15.51815171072388
 21
-160.097679554111
 31
0
  0
LINE
  8
1
 62
7
 10
-15.51815171072388
 20
-171.347679554111
 30
0
 11
-15.51815171072388
 21
-173.097679554111
 31
0
  0
LINE
  8
1
 62
7
 10
-15.51815171072388
 20
-173.097679554111
 30
0
 11
-102.5181517107239
 21
-173.097679554111
 31
0
  0
LINE
  8
1
 62
7
 10
-15.51815171072388
 20
-160.097679554111
 30
0
 11
-15.51815171072388
 21
-173.097679554111
 31
0
  0
LINE
  8
1
 62
7
 10
-17.26815171072388
 20
-173.097679554111
 30
0
 11
-15.51815171072388
 21
-173.097679554111
 31
0
  0
LINE
  8
1
 62
7
 10
-27.01815171072388
 20
-173.097679554111
 30
0
 11
-24.51815171072388
 21
-173.097679554111
 31
0
  0
LINE
  8
1
 62
7
 10
-21.01815171072388
 20
-173.097679554111
 30
0
 11
-17.51815171072388
 21
-173.097679554111
 31
0
  0
LINE
  8
1
 62
7
 10
-108.6023645821907
 20
-170.9476795541109
 30
0
 11
-117.4463549410013
 21
-170.9476795541109
 31
0
  0
LINE
  8
1
 62
7
 10
-114.5116414146819
 20
-162.9476795541111
 30
0
 11
-117.4463549409994
 21
-162.9476795541111
 31
0
  0
LINE
  8
1
 62
7
 10
-105.5181517107239
 20
-176.597679554111
 30
0
 11
-102.5181517107239
 21
-176.597679554111
 31
0
  0
LINE
  8
1
 62
7
 10
-105.5181517107239
 20
-158.597679554111
 30
0
 11
-102.5181517107239
 21
-158.597679554111
 31
0
  0
LINE
  8
1
 62
7
 10
-105.5181517107239
 20
-158.597679554111
 30
0
 11
-105.5181517107239
 21
-176.597679554111
 31
0
  0
LINE
  8
1
 62
7
 10
-102.5181517107239
 20
-158.597679554111
 30
0
 11
-102.5181517107239
 21
-176.597679554111
 31
0
  0
LINE
  8
1
 62
7
 10
-102.5181517107239
 20
-174.847679554111
 30
0
 11
-102.5181517107239
 21
-171.347679554111
 31
0
  0
LINE
  8
1
 62
7
 10
-102.5181517107239
 20
-160.097679554111
 30
0
 11
-102.5181517107239
 21
-171.347679554111
 31
0
  0
LINE
  8
1
 62
7
 10
68.581848289276
 20
75.66944657965377
 30
0
 11
68.581848289276
 21
50.66944657965379
 31
0
  0
LINE
  8
1
 62
7
 10
-115.5181517107239
 20
-120.1845236136671
 30
0
 11
-115.5181517107239
 21
-118.1251544756642
 31
0
  0
LINE
  8
1
 62
7
 10
-105.5181517107239
 20
-120.1845236136671
 30
0
 11
-115.5181517107239
 21
-120.1845236136671
 31
0
  0
LINE
  8
1
 62
7
 10
-105.5181517107239
 20
-117.684337023893
 30
0
 11
-113.0181517107239
 21
-117.684337023893
 31
0
  0
LINE
  8
1
 62
7
 10
-37.51815171072388
 20
-115.097679554111
 30
0
 11
-37.51815171072388
 21
-128.097679554111
 31
0
  0
LINE
  8
1
 62
7
 10
-102.5181517107239
 20
-115.097679554111
 30
0
 11
-15.51815171072388
 21
-115.097679554111
 31
0
  0
LINE
  8
1
 62
7
 10
-15.51815171072388
 20
-126.347679554111
 30
0
 11
-15.51815171072388
 21
-128.097679554111
 31
0
  0
LINE
  8
1
 62
7
 10
-15.51815171072388
 20
-128.097679554111
 30
0
 11
-102.5181517107239
 21
-128.097679554111
 31
0
  0
LINE
  8
1
 62
7
 10
-15.51815171072388
 20
-115.097679554111
 30
0
 11
-15.51815171072388
 21
-128.097679554111
 31
0
  0
LINE
  8
1
 62
7
 10
-17.26815171072388
 20
-128.097679554111
 30
0
 11
-15.51815171072388
 21
-128.097679554111
 31
0
  0
LINE
  8
1
 62
7
 10
-28.01815171072388
 20
-128.097679554111
 30
0
 11
-24.51815171072388
 21
-128.097679554111
 31
0
  0
LINE
  8
1
 62
7
 10
-21.01815171072388
 20
-128.097679554111
 30
0
 11
-17.51815171072388
 21
-128.097679554111
 31
0
  0
LINE
  8
1
 62
7
 10
-108.6023645821907
 20
-125.9476795541109
 30
0
 11
-117.4463549410013
 21
-125.9476795541109
 31
0
  0
LINE
  8
1
 62
7
 10
-114.5116414146819
 20
-117.9476795541111
 30
0
 11
-117.4463549409994
 21
-117.9476795541111
 31
0
  0
LINE
  8
1
 62
7
 10
-105.5181517107239
 20
-131.597679554111
 30
0
 11
-102.5181517107239
 21
-131.597679554111
 31
0
  0
LINE
  8
1
 62
7
 10
-105.5181517107239
 20
-113.597679554111
 30
0
 11
-102.5181517107239
 21
-113.597679554111
 31
0
  0
LINE
  8
1
 62
7
 10
-105.5181517107239
 20
-113.597679554111
 30
0
 11
-105.5181517107239
 21
-131.597679554111
 31
0
  0
LINE
  8
1
 62
7
 10
-102.5181517107239
 20
-113.597679554111
 30
0
 11
-102.5181517107239
 21
-131.597679554111
 31
0
  0
LINE
  8
1
 62
7
 10
-102.5181517107239
 20
-129.847679554111
 30
0
 11
-102.5181517107239
 21
-126.347679554111
 31
0
  0
LINE
  8
1
 62
7
 10
-102.5181517107239
 20
-115.097679554111
 30
0
 11
-102.5181517107239
 21
-126.347679554111
 31
0
  0
LINE
  8
1
 62
2
  6
DIVIDE
 10
71.48184828927612
 20
128.124985814912
 30
0
 11
71.48184828927612
 21
115.9194465796538
 31
0
  0
LINE
  8
1
 62
2
  6
DIVIDE
 10
76.43184828927591
 20
121.1694465796538
 30
0
 11
66.53184828927601
 21
121.1694465796538
 31
0
  0
LINE
  8
1
 62
2
  6
PHANTOM
 10
-35.51815171072388
 20
-44.505553420345
 30
0
 11
-35.51815171072388
 21
-52.7555534203461
 31
0
  0
LINE
  8
1
 62
2
  6
PHANTOM
 10
-31.39315171072388
 20
-48.6305534203461
 30
0
 11
-39.64315171072511
 21
-48.6305534203461
 31
0
  0
LINE
  8
1
 62
2
  6
PHANTOM
 10
-55.5181517107239
 20
-44.505553420345
 30
0
 11
-55.5181517107239
 21
-52.7555534203461
 31
0
  0
LINE
  8
1
 62
2
  6
PHANTOM
 10
-51.393151710723
 20
-48.6305534203461
 30
0
 11
-59.64315171072509
 21
-48.6305534203461
 31
0
  0
LINE
  8
1
 62
2
  6
PHANTOM
 10
-26.51815171072388
 20
-38.70555342034712
 30
0
 11
-26.51815171072388
 21
-46.95555342034501
 31
0
  0
LINE
  8
1
 62
2
  6
PHANTOM
 10
-22.39315171072511
 20
-42.83055342034621
 30
0
 11
-30.643151710723
 21
-42.83055342034621
 31
0
  0
LINE
  8
1
 62
2
  6
DIVIDE
 10
-26.51815171072388
 20
47.29444657965379
 30
0
 11
-26.51815171072388
 21
39.04444657965499
 31
0
  0
LINE
  8
1
 62
2
  6
DIVIDE
 10
-22.39315171072388
 20
43.16944657965379
 30
0
 11
-30.64315171072388
 21
43.16944657965379
 31
0
  0
LINE
  8
1
 62
2
  6
PHANTOM
 10
-45.5181517107239
 20
53.0694465796538
 30
0
 11
-45.5181517107239
 21
33.2694465796539
 31
0
  0
LINE
  8
1
 62
2
  6
PHANTOM
 10
-35.61815171072411
 20
43.16944657965379
 30
0
 11
-55.418151710724
 21
43.16944657965379
 31
0
  0
LINE
  8
1
 62
2
  6
DIVIDE
 10
71.48184828927612
 20
-85.88055342034481
 30
0
 11
71.48184828927612
 21
-95.78055342034531
 31
0
  0
LINE
  8
1
 62
2
  6
DIVIDE
 10
76.43184828927591
 20
-90.83055342034501
 30
0
 11
66.53184828927601
 21
-90.83055342034501
 31
0
  0
LINE
  8
1
 62
2
  6
DIVIDE
 10
69.981848289276
 20
-47.83055342034621
 30
0
 11
69.981848289276
 21
-58.83055342034621
 31
0
  0
LINE
  8
1
 62
2
  6
DIVIDE
 10
75.481848289276
 20
-53.33055342034621
 30
0
 11
64.481848289276
 21
-53.33055342034621
 31
0
  0
LINE
  8
1
 62
2
  6
CENTER
 10
-45.5181517107239
 20
26.7694465796539
 30
0
 11
-45.5181517107239
 21
16.5694465796538
 31
0
  0
LINE
  8
1
 62
2
  6
CENTER
 10
-50.61815171072409
 20
21.66944657965379
 30
0
 11
-41.76815171072388
 21
21.66944657965379
 31
0
  0
LINE
  8
1
 62
7
 10
80.48184828927612
 20
-90.83055342034501
 30
0
 11
80.48184828927612
 21
121.1694465796541
 31
0
  0
LINE
  8
1
 62
7
 10
-102.5181517107239
 20
50.16944657965379
 30
0
 11
-102.5181517107239
 21
76.16944657965377
 31
0
  0
LINE
  8
1
 62
7
 10
-102.5181517107239
 20
89.16944657965502
 30
0
 11
-102.5181517107239
 21
79.16944657965502
 31
0
  0
LINE
  8
1
 62
7
 10
-102.5181517107239
 20
79.16944657965502
 30
0
 11
-102.5181517107239
 21
89.16944657965502
 31
0
  0
LINE
  8
1
 62
7
 10
-102.5181517107239
 20
89.16944657965502
 30
0
 11
-102.5181517107239
 21
95.16944657965377
 31
0
  0
LINE
  8
1
 62
7
 10
-102.5181517107239
 20
47.16944657965379
 30
0
 11
-102.5181517107239
 21
50.16944657965379
 31
0
  0
LINE
  8
1
 62
7
 10
-102.5181517107239
 20
5.169446579654988
 30
0
 11
-102.5181517107239
 21
47.16944657965379
 31
0
  0
LINE
  8
1
 62
7
 10
-102.5181517107239
 20
76.16944657965377
 30
0
 11
-102.5181517107239
 21
89.16944657965502
 31
0
  0
LINE
  8
1
 62
7
 10
-102.5181517107239
 20
95.16944657965377
 30
0
 11
-102.5181517107239
 21
130.1694465796539
 31
0
  0
LINE
  8
1
 62
7
 10
-102.5181517107239
 20
-77.7786885041241
 30
0
 11
-102.5181517107239
 21
-64.83055342034621
 31
0
  0
LINE
  8
1
 62
7
 10
-102.5181517107239
 20
-80.80895153691401
 30
0
 11
-102.5181517107239
 21
-77.7786885041241
 31
0
  0
LINE
  8
1
 62
7
 10
-102.5181517107239
 20
-90.7950195144122
 30
0
 11
-102.5181517107239
 21
-85.7950195144122
 31
0
  0
LINE
  8
1
 62
7
 10
-102.5181517107239
 20
-85.7950195144122
 30
0
 11
-102.5181517107239
 21
-84.83055342034501
 31
0
  0
LINE
  8
1
 62
7
 10
-102.5181517107239
 20
-64.83055342034621
 30
0
 11
-102.5181517107239
 21
-63.08055342034621
 31
0
  0
LINE
  8
1
 62
7
 10
-102.5181517107239
 20
-41.83055342034621
 30
0
 11
-102.5181517107239
 21
-39.83055342034621
 31
0
  0
LINE
  8
1
 62
7
 10
-102.5181517107239
 20
-63.08055342034621
 30
0
 11
-102.5181517107239
 21
-41.83055342034621
 31
0
  0
LINE
  8
1
 62
7
 10
-102.5181517107239
 20
-39.83055342034621
 30
0
 11
-102.5181517107239
 21
5.169446579654988
 31
0
  0
LINE
  8
1
 62
7
 10
-102.5181517107239
 20
-84.83055342034501
 30
0
 11
-102.5181517107239
 21
-80.80895153691401
 31
0
  0
LINE
  8
1
 62
7
 10
-105.5181517107239
 20
130.1694465796539
 30
0
 11
-105.5181517107239
 21
78.16944657965377
 31
0
  0
LINE
  8
1
 62
7
 10
-105.5181517107239
 20
4.169446579654988
 30
0
 11
-105.5181517107239
 21
-25.83055342034501
 31
0
  0
LINE
  8
1
 62
7
 10
-105.5181517107239
 20
78.16944657965377
 30
0
 11
-105.5181517107239
 21
48.16944657965379
 31
0
  0
LINE
  8
1
 62
7
 10
-105.5181517107239
 20
48.16944657965379
 30
0
 11
-105.5181517107239
 21
4.169446579654988
 31
0
  0
LINE
  8
1
 62
7
 10
-105.5181517107239
 20
-25.83055342034501
 30
0
 11
-105.5181517107239
 21
-99.83055342034501
 31
0
  0
LINE
  8
1
 62
7
 10
-117.446354940999
 20
4.169446579654988
 30
0
 11
-105.5181517107239
 21
4.169446579654988
 31
0
  0
LINE
  8
1
 62
7
 10
-117.446354940999
 20
-25.83055342034501
 30
0
 11
-105.5181517107239
 21
-25.83055342034501
 31
0
  0
LINE
  8
1
 62
2
  6
PHANTOM
 10
-72.51815171072369
 20
-38.33055342034621
 30
0
 11
-71.0181517107237
 21
-38.33055342034621
 31
0
  0
LINE
  8
1
 62
2
  6
PHANTOM
 10
-78.51815171072369
 20
-38.33055342034621
 30
0
 11
-77.71815171072373
 21
-38.33055342034621
 31
0
  0
LINE
  8
1
 62
7
 10
-77.71815171072373
 20
-38.33055342034621
 30
0
 11
-77.71815171072373
 21
-37.83055342034621
 31
0
  0
LINE
  8
1
 62
7
 10
-73.31815171072387
 20
-38.33055342034621
 30
0
 11
-73.31815171072387
 21
-38.83055342034621
 31
0
  0
LINE
  8
1
 62
2
  6
PHANTOM
 10
-73.31815171072387
 20
-38.33055342034621
 30
0
 11
-72.51815171072369
 21
-38.33055342034621
 31
0
  0
LINE
  8
1
 62
7
 10
-102.5181517107239
 20
47.16944657965379
 30
0
 11
-102.5181517107239
 21
5.169446579654988
 31
0
  0
LINE
  8
1
 62
7
 10
-102.5181517107239
 20
5.169446579654988
 30
0
 11
-102.5181517107239
 21
-36.58055342034621
 31
0
  0
LINE
  8
1
 62
7
 10
-102.5181517107239
 20
-41.83055342034621
 30
0
 11
-102.5181517107239
 21
-63.08055342034621
 31
0
  0
LINE
  8
1
 62
7
 10
-102.5181517107239
 20
-63.08055342034621
 30
0
 11
-102.5181517107239
 21
-64.83055342034621
 31
0
  0
LINE
  8
0
 62
7
 10
-102.5181517107239
 20
-36.58055342034621
 30
0
 11
-102.5181517107239
 21
-39.83055342034621
 31
0
  0
LINE
  8
1
 62
7
 10
-102.5181517107239
 20
-36.58055342034621
 30
0
 11
-102.5181517107239
 21
-41.83055342034621
 31
0
  0
LINE
  8
1
 62
2
  6
PHANTOM
 10
-75.51815171072369
 20
-41.33055342034621
 30
0
 11
-75.51815171072369
 21
-42.83055342034621
 31
0
  0
LINE
  8
1
 62
2
  6
PHANTOM
 10
-75.51815171072369
 20
-35.33055342034621
 30
0
 11
-75.51815171072369
 21
-36.1305534203461
 31
0
  0
LINE
  8
1
 62
2
  6
PHANTOM
 10
-42.518151710723
 20
63.16944657965377
 30
0
 11
-41.018151710723
 21
63.16944657965377
 31
0
  0
LINE
  8
1
 62
2
  6
PHANTOM
 10
-48.518151710723
 20
63.16944657965377
 30
0
 11
-47.71815171072309
 21
63.16944657965377
 31
0
  0
LINE
  8
1
 62
2
  6
PHANTOM
 10
-45.518151710723
 20
60.16944657965379
 30
0
 11
-45.518151710723
 21
58.66944657965379
 31
0
  0
LINE
  8
1
 62
2
  6
PHANTOM
 10
-45.518151710723
 20
66.16944657965377
 30
0
 11
-45.518151710723
 21
65.36944657965387
 31
0
  0
LINE
  8
1
 62
7
 10
-35.04327797657189
 20
93.41944657965502
 30
0
 11
-17.26815171072388
 21
75.64432031380687
 31
0
  0
LINE
  8
1
 62
7
 10
-47.71815171072309
 20
63.16944657965377
 30
0
 11
-47.71815171072309
 21
63.66944657965377
 31
0
  0
LINE
  8
1
 62
7
 10
-43.318151710723
 20
63.16944657965377
 30
0
 11
-43.318151710723
 21
62.66944657965379
 31
0
  0
LINE
  8
1
 62
2
  6
PHANTOM
 10
-43.318151710723
 20
63.16944657965377
 30
0
 11
-42.518151710723
 21
63.16944657965377
 31
0
  0
LINE
  8
1
 62
2
  6
PHANTOM
 10
-47.5181517107239
 20
-8.830553420345012
 30
0
 11
-46.0181517107239
 21
-8.830553420345012
 31
0
  0
LINE
  8
1
 62
2
  6
PHANTOM
 10
-53.5181517107239
 20
-8.830553420345012
 30
0
 11
-52.718151710724
 21
-8.830553420345012
 31
0
  0
LINE
  8
1
 62
7
 10
-48.31815171072409
 20
-8.830553420345012
 30
0
 11
-48.31815171072409
 21
-9.330553420345012
 31
0
  0
LINE
  8
1
 62
2
  6
PHANTOM
 10
-48.31815171072409
 20
-8.830553420345012
 30
0
 11
-47.5181517107239
 21
-8.830553420345012
 31
0
  0
LINE
  8
1
 62
7
 10
-52.718151710724
 20
-8.830553420345012
 30
0
 11
-52.718151710724
 21
-8.330553420345012
 31
0
  0
LINE
  8
1
 62
2
  6
PHANTOM
 10
-50.5181517107239
 20
-11.83055342034501
 30
0
 11
-50.5181517107239
 21
-13.33055342034501
 31
0
  0
LINE
  8
1
 62
2
  6
PHANTOM
 10
-50.5181517107239
 20
-5.830553420345012
 30
0
 11
-50.5181517107239
 21
-6.630553420344995
 31
0
  0
LINE
  8
1
 62
7
 10
-50.5181517107239
 20
-11.030553420346
 30
0
 11
-51.0181517107239
 21
-11.030553420346
 31
0
  0
LINE
  8
1
 62
2
  6
PHANTOM
 10
-50.5181517107239
 20
-11.030553420346
 30
0
 11
-50.5181517107239
 21
-11.83055342034501
 31
0
  0
LINE
  8
1
 62
7
 10
-50.5181517107239
 20
-6.630553420344995
 30
0
 11
-50.0181517107239
 21
-6.630553420344995
 31
0
  0
LINE
  8
1
 62
7
 10
-17.26815171072388
 20
75.64432031380687
 30
0
 11
-15.51815171072388
 21
73.8943203138071
 31
0
  0
LINE
  8
1
 62
7
 10
-45.518151710723
 20
65.36944657965387
 30
0
 11
-45.018151710723
 21
65.36944657965387
 31
0
  0
LINE
  8
1
 62
2
  6
PHANTOM
 10
-45.518151710723
 20
60.969446579654
 30
0
 11
-45.518151710723
 21
60.16944657965379
 31
0
  0
LINE
  8
1
 62
7
 10
-45.518151710723
 20
60.969446579654
 30
0
 11
-46.018151710723
 21
60.969446579654
 31
0
  0
LINE
  8
1
 62
7
 10
-15.51815171072388
 20
2.669446579653794
 30
0
 11
-15.51815171072388
 21
-4.830553420346206
 31
0
  0
LINE
  8
1
 62
7
 10
-15.51815171072388
 20
22.66944657965379
 30
0
 11
-15.51815171072388
 21
2.669446579653794
 31
0
  0
LINE
  8
1
 62
7
 10
-97.51815171072391
 20
95.16944657965377
 30
0
 11
-79.51815171072391
 21
95.16944657965377
 31
0
  0
LINE
  8
1
 62
7
 10
-100.5181517107239
 20
95.16944657965377
 30
0
 11
-100.0181517107239
 21
95.16944657965377
 31
0
  0
LINE
  8
1
 62
7
 10
-100.0181517107239
 20
95.16944657965377
 30
0
 11
-97.51815171072391
 21
95.16944657965377
 31
0
  0
LINE
  8
1
 62
7
 10
-102.5181517107239
 20
79.16944657965502
 30
0
 11
-102.5181517107239
 21
76.16944657965377
 31
0
  0
LINE
  8
1
 62
7
 10
-102.5181517107239
 20
89.16944657965502
 30
0
 11
-102.5181517107239
 21
79.16944657965502
 31
0
  0
LINE
  8
0
 62
7
 10
-100.0181517107239
 20
95.16944657965377
 30
0
 11
-100.5181517107239
 21
95.16944657965377
 31
0
  0
LINE
  8
1
 62
7
 10
-102.5181517107239
 20
-99.83055342034501
 30
0
 11
-102.5181517107239
 21
-90.7950195144122
 31
0
  0
LINE
  8
0
 62
7
 10
-100.5181517107239
 20
-64.83055342034501
 30
0
 11
-98.01815171072391
 21
-64.83055342034501
 31
0
  0
LINE
  8
0
 62
7
 10
-98.01815171072391
 20
-64.83055342034501
 30
0
 11
-97.51815171072391
 21
-64.83055342034501
 31
0
  0
LINE
  8
1
 62
7
 10
-102.5181517107239
 20
-85.7950195144122
 30
0
 11
-102.5181517107239
 21
-84.83055342034501
 31
0
  0
LINE
  8
1
 62
7
 10
-102.5181517107239
 20
-90.7950195144122
 30
0
 11
-102.5181517107239
 21
-85.7950195144122
 31
0
  0
LINE
  8
1
 62
7
 10
-102.5181517107239
 20
-84.83055342034501
 30
0
 11
-102.5181517107239
 21
-80.80895153691401
 31
0
  0
LINE
  8
1
 62
7
 10
-102.5181517107239
 20
-80.80895153691401
 30
0
 11
-102.5181517107239
 21
-77.7786885041241
 31
0
  0
LINE
  8
1
 62
7
 10
-17.26815171072388
 20
-45.30542715449812
 30
0
 11
-35.04327797657101
 21
-63.08055342034621
 31
0
  0
LINE
  8
1
 62
7
 10
-35.04327797657101
 20
-63.08055342034621
 30
0
 11
-36.79327797657101
 21
-64.83055342034501
 31
0
  0
LINE
  8
1
 62
7
 10
-75.51815171072369
 20
-36.1305534203461
 30
0
 11
-75.01815171072369
 21
-36.1305534203461
 31
0
  0
LINE
  8
1
 62
2
  6
PHANTOM
 10
-75.51815171072369
 20
-40.530553420346
 30
0
 11
-75.51815171072369
 21
-41.33055342034621
 31
0
  0
LINE
  8
1
 62
7
 10
-75.51815171072369
 20
-40.530553420346
 30
0
 11
-76.01815171072369
 21
-40.530553420346
 31
0
  0
LINE
  8
1
 62
7
 10
-102.5181517107239
 20
-84.83055342034501
 30
0
 11
-102.5181517107239
 21
-80.80895153691401
 31
0
  0
LINE
  8
1
 62
7
 10
-49.5181517107239
 20
47.16944657965379
 30
0
 11
-49.5181517107239
 21
39.16944657965379
 31
0
  0
LINE
  8
1
 62
7
 10
-41.51815171072388
 20
47.16944657965379
 30
0
 11
-49.5181517107239
 21
47.16944657965379
 31
0
  0
LINE
  8
1
 62
7
 10
-41.51815171072388
 20
39.16944657965379
 30
0
 11
-41.51815171072388
 21
47.16944657965379
 31
0
  0
LINE
  8
1
 62
7
 10
-49.5181517107239
 20
39.16944657965379
 30
0
 11
-41.51815171072388
 21
39.16944657965379
 31
0
  0
LINE
  8
1
 62
7
 10
-118.5181517107239
 20
4.169446579654988
 30
0
 11
-118.5181517107239
 21
-25.83055342034501
 31
0
  0
LINE
  8
1
 62
7
 10
-118.5181517107239
 20
4.169446579654988
 30
0
 11
-117.446354940999
 21
4.169446579654988
 31
0
  0
LINE
  8
1
 62
7
 10
-118.5181517107239
 20
4.169446579654988
 30
0
 11
-118.5181517107239
 21
-25.83055342034501
 31
0
  0
LINE
  8
1
 62
3
 10
-117.446354940999
 20
4.169446579654988
 30
0
 11
-117.446354940999
 21
-25.83055342034501
 31
0
  0
LINE
  8
1
 62
7
 10
-118.5181517107239
 20
4.169446579654988
 30
0
 11
-118.5181517107239
 21
-25.83055342034501
 31
0
  0
LINE
  8
1
 62
7
 10
-118.5181517107239
 20
-25.83055342034501
 30
0
 11
-117.446354940999
 21
-25.83055342034501
 31
0
  0
LINE
  8
1
 62
7
 10
-115.518151710723
 20
77.72862912788258
 30
0
 11
-115.518151710723
 21
48.610264031425
 31
0
  0
LINE
  8
1
 62
7
 10
-113.018151710723
 20
78.16944657965377
 30
0
 11
-105.5181517107239
 21
78.16944657965377
 31
0
  0
LINE
  8
1
 62
7
 10
-113.018151710723
 20
48.16944657965379
 30
0
 11
-105.5181517107239
 21
48.16944657965379
 31
0
  0
LINE
  8
1
 62
2
  6
PHANTOM
 10
-55.0181517107239
 20
-8.830553420345012
 30
0
 11
-53.5181517107239
 21
-8.830553420345012
 31
0
  0
LINE
  8
0
 62
7
 10
-58.5181517107239
 20
95.16944657965377
 30
0
 11
-79.51815171072391
 21
95.16944657965377
 31
0
  0
LINE
  8
0
 62
7
 10
-78.51815171072391
 20
-64.83055342034621
 30
0
 11
-58.5181517107239
 21
-64.83055342034621
 31
0
  0
LINE
  8
0
 62
7
 10
-102.5181517107239
 20
-64.8305534203447
 30
0
 11
-78.51815171072391
 21
-64.83055342034621
 31
0
  0
LINE
  8
0
 62
7
 10
-58.5181517107239
 20
-64.83055342034621
 30
0
 11
-36.79327797657101
 21
-64.83055342034501
 31
0
  0
LINE
  8
0
 62
7
 10
-102.5181517107239
 20
-63.08055342034621
 30
0
 11
-102.5181517107239
 21
-64.83055342034621
 31
0
  0
LINE
  8
0
 62
7
 10
-15.51815171072388
 20
35.16944657965379
 30
0
 11
-15.51815171072388
 21
73.8943203138071
 31
0
  0
LINE
  8
0
 62
7
 10
-97.51815171072391
 20
95.16944657965377
 30
0
 11
-100.0181517107239
 21
95.16944657965377
 31
0
  0
LINE
  8
0
 62
7
 10
-15.51815171072388
 20
-4.830553420346206
 30
0
 11
-15.51815171072388
 21
2.669446579653794
 31
0
  0
LINE
  8
1
 62
2
  6
PHANTOM
 10
-45.5181517107239
 20
-34.83055342034621
 30
0
 11
-45.5181517107239
 21
-21.62761570561702
 31
0
  0
LINE
  8
1
 62
2
  6
PHANTOM
 10
-45.5181517107239
 20
-34.83055342034621
 30
0
 11
-34.40565171072399
 21
-34.83055342034621
 31
0
  0
LINE
  8
1
 62
2
  6
PHANTOM
 10
-34.40565171072399
 20
-34.83055342034621
 30
0
 11
-33.56610979549299
 21
-34.83055342034621
 31
0
  0
LINE
  8
1
 62
2
  6
PHANTOM
 10
-56.63065171072409
 20
-34.83055342034621
 30
0
 11
-45.5181517107239
 21
-34.83055342034621
 31
0
  0
LINE
  8
1
 62
2
  6
PHANTOM
 10
-45.5181517107239
 20
-53.8805534203461
 30
0
 11
-45.5181517107239
 21
-34.83055342034621
 31
0
  0
LINE
  8
1
 62
2
  6
PHANTOM
 10
-45.5181517107239
 20
-53.8805534203461
 30
0
 11
-40.40565171072399
 21
-53.8805534203461
 31
0
  0
LINE
  8
1
 62
2
  6
DASHDOT
 10
-40.40565171072399
 20
-53.8805534203461
 30
0
 11
-39.72027771932491
 21
-53.8805534203461
 31
0
  0
LINE
  8
1
 62
2
  6
PHANTOM
 10
-50.63065171072409
 20
-53.8805534203461
 30
0
 11
-45.5181517107239
 21
-53.8805534203461
 31
0
  0
LINE
  8
1
 62
2
  6
PHANTOM
 10
-45.5181517107239
 20
-58.99305342034611
 30
0
 11
-45.5181517107239
 21
-53.8805534203461
 31
0
  0
LINE
  8
1
 62
7
 10
-36.79327797657069
 20
95.16944657965377
 30
0
 11
-35.04327797657189
 21
93.41944657965502
 31
0
  0
LINE
  8
1
 62
7
 10
-15.51815171072388
 20
-43.5554271544982
 30
0
 11
-17.26815171072388
 21
-45.30542715449812
 31
0
  0
LINE
  8
1
 62
7
 10
-102.5181517107239
 20
79.16944657965502
 30
0
 11
-102.5181517107239
 21
89.16944657965502
 31
0
  0
LINE
  8
0
 62
7
 10
-79.51815171072391
 20
95.16944657965377
 30
0
 11
-102.5181517107239
 21
95.16944657965377
 31
0
  0
LINE
  8
0
 62
7
 10
-36.79327797657069
 20
95.16944657965377
 30
0
 11
-58.5181517107239
 21
95.16944657965377
 31
0
  0
LINE
  8
0
 62
7
 10
-15.51815171072388
 20
22.66944657965379
 30
0
 11
-15.51815171072388
 21
35.16944657965379
 31
0
  0
LINE
  8
0
 62
7
 10
-102.5181517107239
 20
47.16944657965379
 30
0
 11
-102.5181517107239
 21
5.169446579654988
 31
0
  0
LINE
  8
0
 62
7
 10
-15.51815171072388
 20
2.669446579653794
 30
0
 11
-15.51815171072388
 21
22.66944657965379
 31
0
  0
LINE
  8
0
 62
7
 10
-15.51815171072388
 20
-43.5554271544982
 30
0
 11
-15.51815171072388
 21
-4.830553420346206
 31
0
  0
LINE
  8
0
 62
7
 10
-102.5181517107239
 20
-64.83055342034621
 30
0
 11
-100.5181517107239
 21
-64.83055342034501
 31
0
  0
LINE
  8
0
 62
7
 10
-102.5181517107239
 20
-41.83055342034621
 30
0
 11
-102.5181517107239
 21
-63.08055342034621
 31
0
  0
LINE
  8
0
 62
7
 10
-102.518151710723
 20
-26.83055342034621
 30
0
 11
-102.5181517107239
 21
-36.58055342034621
 31
0
  0
LINE
  8
1
 62
2
  6
PHANTOM
 10
-57.59975505593
 20
-34.83055342034621
 30
0
 11
-56.63065171072409
 21
-34.83055342034621
 31
0
  0
LINE
  8
1
 62
7
 10
-50.63065171072409
 20
-53.8805534203461
 30
0
 11
-50.63065171072409
 21
-44.697163780545
 31
0
  0
LINE
  8
1
 62
2
  6
DASHDOT
 10
-51.5103678470859
 20
-53.8805534203461
 30
0
 11
-50.63065171072409
 21
-53.8805534203461
 31
0
  0
LINE
  8
1
 62
7
 10
-40.40565171072399
 20
-53.8805534203461
 30
0
 11
-40.40565171072399
 21
-44.697163780545
 31
0
  0
LINE
  8
1
 62
2
  6
DASHDOT
 10
-45.5181517107239
 20
-60.57126067289499
 30
0
 11
-45.5181517107239
 21
-58.99305342034611
 31
0
  0
LINE
  8
1
 62
7
 10
-46.018151710723
 20
65.36944657965387
 30
0
 11
-45.518151710723
 21
65.36944657965387
 31
0
  0
LINE
  8
1
 62
7
 10
-46.018151710723
 20
63.66944657965377
 30
0
 11
-46.018151710723
 21
65.36944657965387
 31
0
  0
LINE
  8
1
 62
7
 10
-47.71815171072309
 20
63.66944657965377
 30
0
 11
-46.018151710723
 21
63.66944657965377
 31
0
  0
LINE
  8
1
 62
7
 10
-47.71815171072309
 20
62.66944657965379
 30
0
 11
-47.71815171072309
 21
63.16944657965377
 31
0
  0
LINE
  8
1
 62
7
 10
-46.018151710723
 20
62.66944657965379
 30
0
 11
-47.71815171072309
 21
62.66944657965379
 31
0
  0
LINE
  8
1
 62
7
 10
-46.018151710723
 20
60.969446579654
 30
0
 11
-46.018151710723
 21
62.66944657965379
 31
0
  0
LINE
  8
1
 62
7
 10
-45.018151710723
 20
60.969446579654
 30
0
 11
-45.518151710723
 21
60.969446579654
 31
0
  0
LINE
  8
1
 62
7
 10
-45.018151710723
 20
62.66944657965379
 30
0
 11
-45.018151710723
 21
60.969446579654
 31
0
  0
LINE
  8
1
 62
7
 10
-43.318151710723
 20
62.66944657965379
 30
0
 11
-45.018151710723
 21
62.66944657965379
 31
0
  0
LINE
  8
1
 62
7
 10
-43.318151710723
 20
63.66944657965377
 30
0
 11
-43.318151710723
 21
63.16944657965377
 31
0
  0
LINE
  8
1
 62
7
 10
-45.018151710723
 20
63.66944657965377
 30
0
 11
-43.318151710723
 21
63.66944657965377
 31
0
  0
LINE
  8
1
 62
7
 10
-45.018151710723
 20
65.36944657965387
 30
0
 11
-45.018151710723
 21
63.66944657965377
 31
0
  0
LINE
  8
1
 62
2
  6
PHANTOM
 10
-45.518151710723
 20
67.66944657965377
 30
0
 11
-45.518151710723
 21
66.16944657965377
 31
0
  0
LINE
  8
1
 62
2
  6
PHANTOM
 10
-50.018151710723
 20
63.16944657965377
 30
0
 11
-48.518151710723
 21
63.16944657965377
 31
0
  0
LINE
  8
1
 62
7
 10
-76.01815171072369
 20
-36.1305534203461
 30
0
 11
-75.51815171072369
 21
-36.1305534203461
 31
0
  0
LINE
  8
1
 62
7
 10
-76.01815171072369
 20
-37.83055342034621
 30
0
 11
-76.01815171072369
 21
-36.1305534203461
 31
0
  0
LINE
  8
1
 62
7
 10
-77.71815171072373
 20
-37.83055342034621
 30
0
 11
-76.01815171072369
 21
-37.83055342034621
 31
0
  0
LINE
  8
1
 62
7
 10
-77.71815171072373
 20
-38.83055342034621
 30
0
 11
-77.71815171072373
 21
-38.33055342034621
 31
0
  0
LINE
  8
1
 62
7
 10
-76.01815171072369
 20
-38.83055342034621
 30
0
 11
-77.71815171072373
 21
-38.83055342034621
 31
0
  0
LINE
  8
1
 62
7
 10
-76.01815171072369
 20
-40.530553420346
 30
0
 11
-76.01815171072369
 21
-38.83055342034621
 31
0
  0
LINE
  8
1
 62
7
 10
-75.01815171072369
 20
-40.530553420346
 30
0
 11
-75.51815171072369
 21
-40.530553420346
 31
0
  0
LINE
  8
1
 62
7
 10
-75.01815171072369
 20
-38.83055342034621
 30
0
 11
-75.01815171072369
 21
-40.530553420346
 31
0
  0
LINE
  8
1
 62
7
 10
-73.31815171072387
 20
-38.83055342034621
 30
0
 11
-75.01815171072369
 21
-38.83055342034621
 31
0
  0
LINE
  8
1
 62
7
 10
-73.31815171072387
 20
-37.83055342034621
 30
0
 11
-73.31815171072387
 21
-38.33055342034621
 31
0
  0
LINE
  8
1
 62
7
 10
-75.01815171072369
 20
-37.83055342034621
 30
0
 11
-73.31815171072387
 21
-37.83055342034621
 31
0
  0
LINE
  8
1
 62
7
 10
-75.01815171072369
 20
-36.1305534203461
 30
0
 11
-75.01815171072369
 21
-37.83055342034621
 31
0
  0
LINE
  8
1
 62
2
  6
PHANTOM
 10
-75.51815171072369
 20
-33.83055342034621
 30
0
 11
-75.51815171072369
 21
-35.33055342034621
 31
0
  0
LINE
  8
1
 62
2
  6
PHANTOM
 10
-80.01815171072369
 20
-38.33055342034621
 30
0
 11
-78.51815171072369
 21
-38.33055342034621
 31
0
  0
LINE
  8
1
 62
7
 10
-51.0181517107239
 20
-6.630553420344995
 30
0
 11
-50.5181517107239
 21
-6.630553420344995
 31
0
  0
LINE
  8
1
 62
7
 10
-51.0181517107239
 20
-8.330553420345012
 30
0
 11
-51.0181517107239
 21
-6.630553420344995
 31
0
  0
LINE
  8
1
 62
7
 10
-52.718151710724
 20
-8.330553420345012
 30
0
 11
-51.0181517107239
 21
-8.330553420345012
 31
0
  0
LINE
  8
1
 62
7
 10
-52.718151710724
 20
-9.330553420345012
 30
0
 11
-52.718151710724
 21
-8.830553420345012
 31
0
  0
LINE
  8
1
 62
7
 10
-51.0181517107239
 20
-9.330553420345012
 30
0
 11
-52.718151710724
 21
-9.330553420345012
 31
0
  0
LINE
  8
1
 62
7
 10
-51.0181517107239
 20
-11.030553420346
 30
0
 11
-51.0181517107239
 21
-9.330553420345012
 31
0
  0
LINE
  8
1
 62
7
 10
-50.0181517107239
 20
-11.030553420346
 30
0
 11
-50.5181517107239
 21
-11.030553420346
 31
0
  0
LINE
  8
1
 62
7
 10
-50.0181517107239
 20
-9.330553420345012
 30
0
 11
-50.0181517107239
 21
-11.030553420346
 31
0
  0
LINE
  8
1
 62
7
 10
-48.31815171072409
 20
-9.330553420345012
 30
0
 11
-50.0181517107239
 21
-9.330553420345012
 31
0
  0
LINE
  8
1
 62
7
 10
-48.31815171072409
 20
-8.330553420345012
 30
0
 11
-48.31815171072409
 21
-8.830553420345012
 31
0
  0
LINE
  8
1
 62
7
 10
-50.0181517107239
 20
-8.330553420345012
 30
0
 11
-48.31815171072409
 21
-8.330553420345012
 31
0
  0
LINE
  8
1
 62
7
 10
-50.0181517107239
 20
-6.630553420344995
 30
0
 11
-50.0181517107239
 21
-8.330553420345012
 31
0
  0
LINE
  8
1
 62
2
  6
PHANTOM
 10
-50.5181517107239
 20
-4.330553420345012
 30
0
 11
-50.5181517107239
 21
-5.830553420345012
 31
0
  0
LINE
  8
1
 62
7
 10
-52.918151710724
 20
-47.8781585645861
 30
0
 11
-52.918151710724
 21
-45.928239596971
 31
0
  0
LINE
  8
1
 62
7
 10
-38.11815171072411
 20
-47.87815856458502
 30
0
 11
-38.11815171072411
 21
-45.928239596971
 31
0
  0
LINE
  8
1
 62
2
 10
-29.51815171072388
 20
81.66944657965377
 30
0
 11
-29.51815171072388
 21
72.66944657965377
 31
0
  0
LINE
  8
1
 62
2
 10
-33.51815171072388
 20
81.66944657965377
 30
0
 11
-33.51815171072388
 21
72.66944657965377
 31
0
  0
LINE
  8
1
 62
2
 10
-37.51815171072388
 20
81.66944657965377
 30
0
 11
-37.51815171072388
 21
72.66944657965377
 31
0
  0
LINE
  8
1
 62
7
 10
-37.51815171072388
 20
72.16944657965377
 30
0
 11
-29.51815171072388
 21
72.16944657965377
 31
0
  0
LINE
  8
1
 62
7
 10
-37.51815171072388
 20
82.16944657965377
 30
0
 11
-29.51815171072388
 21
82.16944657965377
 31
0
  0
LINE
  8
1
 62
7
 10
-32.91815171072309
 20
-51.3328672437201
 30
0
 11
-32.918151710724
 21
-45.928239596971
 31
0
  0
LINE
  8
1
 62
7
 10
-38.11815171072288
 20
-51.33286724372101
 30
0
 11
-38.11815171072411
 21
-47.87815856458502
 31
0
  0
LINE
  8
1
 62
7
 10
-52.91815171072309
 20
-51.3328672437201
 30
0
 11
-52.918151710724
 21
-47.8781585645861
 31
0
  0
LINE
  8
1
 62
7
 10
-58.1181517107229
 20
-51.33286724372101
 30
0
 11
-58.11815171072409
 21
-45.928239596971
 31
0
  0
LINE
  8
1
 62
7
 10
-102.5181517107239
 20
50.16944657965379
 30
0
 11
-102.5181517107239
 21
47.16944657965379
 31
0
  0
LINE
  8
1
 62
7
 10
-102.5181517107239
 20
95.16944657965377
 30
0
 11
-102.5181517107239
 21
89.16944657965502
 31
0
  0
LINE
  8
1
 62
7
 10
-17.26815171072388
 20
-45.30542715449812
 30
0
 11
-35.04327797657101
 21
-63.08055342034621
 31
0
  0
LINE
  8
1
 62
7
 10
-15.51815171072388
 20
35.16944657965379
 30
0
 11
-15.51815171072388
 21
22.66944657965379
 31
0
  0
LINE
  8
1
 62
7
 10
-35.04327797657189
 20
93.41944657965502
 30
0
 11
-17.26815171072388
 21
75.64432031380687
 31
0
  0
LINE
  8
1
 62
7
 10
-102.5181517107239
 20
95.16944657965377
 30
0
 11
-100.5181517107239
 21
95.16944657965377
 31
0
  0
LINE
  8
1
 62
7
 10
-73.51815171072391
 20
95.16944657965377
 30
0
 11
-58.5181517107239
 21
95.16944657965377
 31
0
  0
LINE
  8
1
 62
7
 10
-78.51815171072391
 20
-64.83055342034621
 30
0
 11
-58.5181517107239
 21
-64.83055342034621
 31
0
  0
LINE
  8
1
 62
7
 10
62.48184828927612
 20
121.1694465796541
 30
0
 11
62.48184828927612
 21
-90.83055342034501
 31
0
  0
LINE
  8
1
 62
7
 10
66.28184828927601
 20
-25.83055342034621
 30
0
 11
74.28184828927601
 21
-25.83055342034621
 31
0
  0
LINE
  8
1
 62
7
 10
66.28184828927601
 20
-25.83055342034621
 30
0
 11
66.28184828927601
 21
4.169446579653794
 31
0
  0
LINE
  8
1
 62
7
 10
74.28184828927601
 20
-25.83055342034621
 30
0
 11
74.28184828927601
 21
4.169446579653794
 31
0
  0
LINE
  8
1
 62
7
 10
74.28184828927601
 20
4.169446579653794
 30
0
 11
66.28184828927601
 21
4.169446579653794
 31
0
  0
LINE
  8
1
 62
7
 10
68.581848289276
 20
75.66944657965377
 30
0
 11
76.581848289276
 21
75.66944657965377
 31
0
  0
LINE
  8
1
 62
7
 10
68.581848289276
 20
78.16944657965377
 30
0
 11
68.581848289276
 21
75.66944657965377
 31
0
  0
LINE
  8
1
 62
7
 10
66.081848289276
 20
78.16944657965377
 30
0
 11
68.581848289276
 21
78.16944657965377
 31
0
  0
LINE
  8
1
 62
7
 10
76.581848289276
 20
50.66944657965379
 30
0
 11
76.581848289276
 21
75.66944657965377
 31
0
  0
LINE
  8
1
 62
7
 10
68.581848289276
 20
50.66944657965379
 30
0
 11
76.581848289276
 21
50.66944657965379
 31
0
  0
LINE
  8
1
 62
7
 10
68.581848289276
 20
48.16944657965379
 30
0
 11
68.581848289276
 21
50.66944657965379
 31
0
  0
LINE
  8
1
 62
7
 10
66.081848289276
 20
48.16944657965379
 30
0
 11
68.581848289276
 21
48.16944657965379
 31
0
  0
LINE
  8
1
 62
7
 10
66.081848289276
 20
78.16944657965377
 30
0
 11
66.081848289276
 21
48.16944657965379
 31
0
  0
LINE
  8
1
 62
7
 10
-105.5181517107239
 20
130.1694465796539
 30
0
 11
-102.5181517107239
 21
130.1694465796539
 31
0
  0
LINE
  8
1
 62
7
 10
-105.5181517107239
 20
-99.83055342034501
 30
0
 11
-102.5181517107239
 21
-99.83055342034501
 31
0
  0
LINE
  8
1
 62
7
 10
-102.5181517107239
 20
76.16944657965377
 30
0
 11
-91.01815171072391
 21
76.16944657965377
 31
0
  0
LINE
  8
1
 62
7
 10
-90.01815171072391
 20
75.16944657965377
 30
0
 11
-90.01815171072391
 21
51.16944657965379
 31
0
  0
LINE
  8
1
 62
7
 10
-91.01815171072391
 20
50.16944657965379
 30
0
 11
-102.5181517107239
 21
50.16944657965379
 31
0
  0
LINE
  8
1
 62
2
  6
CENTER
 10
-41.76815171072388
 20
21.66944657965379
 30
0
 11
-39.918151710724
 21
21.66944657965379
 31
0
  0
LINE
  8
1
 62
7
 10
-113.018151710723
 20
78.16944657965377
 30
0
 11
-115.518151710723
 21
77.72862912788258
 31
0
  0
LINE
  8
1
 62
7
 10
-113.018151710723
 20
48.16944657965379
 30
0
 11
-115.518151710723
 21
48.610264031425
 31
0
  0
LINE
  8
1
 62
7
 10
-115.518151710723
 20
75.66944657965377
 30
0
 11
-105.5181517107239
 21
75.66944657965377
 31
0
  0
LINE
  8
1
 62
7
 10
-100.518151710723
 20
50.66944657965379
 30
0
 11
-102.5181517107239
 21
50.66944657965379
 31
0
  0
LINE
  8
1
 62
7
 10
-100.518151710723
 20
75.66944657965377
 30
0
 11
-100.518151710723
 21
50.66944657965379
 31
0
  0
LINE
  8
1
 62
7
 10
-102.5181517107239
 20
75.66944657965377
 30
0
 11
-100.518151710723
 21
75.66944657965377
 31
0
  0
LINE
  8
1
 62
7
 10
-105.5181517107239
 20
50.66944657965379
 30
0
 11
-115.518151710723
 21
50.66944657965379
 31
0
  0
LINE
  8
1
 62
3
 10
-66.0181517107239
 20
-48.83055342034569
 30
0
 11
-66.0181517107239
 21
-50.030553420346
 31
0
  0
LINE
  8
1
 62
3
 10
-63.0181517107239
 20
-48.83055342034601
 30
0
 11
-63.0181517107239
 21
-50.030553420346
 31
0
  0
LINE
  8
1
 62
3
 10
-66.0181517107239
 20
-57.83055342034569
 30
0
 11
-66.0181517107239
 21
-56.63055342034602
 31
0
  0
LINE
  8
1
 62
3
 10
-63.0181517107239
 20
-57.83055342034569
 30
0
 11
-63.0181517107239
 21
-56.63055342034602
 31
0
  0
LINE
  8
1
 62
3
 10
-66.0181517107239
 20
-56.63055342034602
 30
0
 11
-63.0181517107239
 21
-56.63055342034602
 31
0
  0
LINE
  8
1
 62
3
 10
-66.0181517107239
 20
-50.030553420346
 30
0
 11
-63.0181517107239
 21
-50.030553420346
 31
0
  0
LINE
  8
1
 62
3
 10
-67.5181517107239
 20
-51.83055342034621
 30
0
 11
-66.0181517107239
 21
-50.030553420346
 31
0
  0
LINE
  8
1
 62
3
 10
-63.0181517107239
 20
-50.030553420346
 30
0
 11
-61.5181517107239
 21
-51.83055342034621
 31
0
  0
LINE
  8
1
 62
3
 10
-66.0181517107239
 20
-56.63055342034602
 30
0
 11
-67.5181517107239
 21
-54.83055342034621
 31
0
  0
LINE
  8
1
 62
3
 10
-63.0181517107239
 20
-56.63055342034602
 30
0
 11
-61.5181517107229
 21
-54.83055342034621
 31
0
  0
LINE
  8
1
 62
7
 10
66.081848289276
 20
77.72862912788258
 30
0
 11
68.581848289276
 21
77.72862912788258
 31
0
  0
LINE
  8
1
 62
7
 10
66.081848289276
 20
48.610264031425
 30
0
 11
68.581848289276
 21
48.610264031425
 31
0
  0
LINE
  8
1
 62
7
 10
-106.518151710723
 20
75.66944657965377
 30
0
 11
-106.518151710723
 21
50.66944657965379
 31
0
  0
LINE
  8
1
 62
7
 10
-113.0181517107239
 20
-117.684337023893
 30
0
 11
-115.5181517107239
 21
-118.1251544756642
 31
0
  0
LINE
  8
1
 62
7
 10
-113.0181517107239
 20
-162.684337023893
 30
0
 11
-115.5181517107239
 21
-163.1251544756642
 31
0
  0
LINE
  8
1
 62
7
 10
-115.5181517107239
 20
-120.1845236136671
 30
0
 11
-106.518151710723
 21
-127.6845236136671
 31
0
  0
LINE
  8
1
 62
7
 10
-106.518151710723
 20
-127.6845236136671
 30
0
 11
-105.5181517107239
 21
-127.6845236136671
 31
0
  0
LINE
  8
1
 62
7
 10
-115.5181517107239
 20
-165.1845236136671
 30
0
 11
-106.518151710723
 21
-172.6845236136671
 31
0
  0
LINE
  8
1
 62
7
 10
-106.518151710723
 20
-172.6845236136671
 30
0
 11
-105.5181517107239
 21
-172.6845236136671
 31
0
  0
ARC
  8
1
 62
7
 10
-110.5181517107239
 20
-166.9476795541111
 30
0
 40
7.999999999999456
 50
150.0000000000151
 51
180
  0
ARC
  8
1
 62
7
 10
-110.5181517107239
 20
-166.9476795541111
 30
0
 40
8
 50
180
 51
210.0000000000109
  0
ARC
  8
1
 62
7
 10
71.48184828927612
 20
-90.83055342034501
 30
0
 40
8.999999999999993
 50
180
 51
270
  0
ARC
  8
1
 62
7
 10
-110.5181517107239
 20
-121.9476795541111
 30
0
 40
7.999999999999464
 50
150.0000000000151
 51
180
  0
ARC
  8
1
 62
7
 10
-110.5181517107239
 20
-121.9476795541111
 30
0
 40
8
 50
180
 51
210.0000000000109
  0
ARC
  8
1
 62
7
 10
71.48184828927612
 20
121.1694465796541
 30
0
 40
4.499999999999687
 50
90
 51
270
  0
ARC
  8
1
 62
7
 10
71.48184828927612
 20
121.1694465796541
 30
0
 40
4.500000000000313
 50
270
 51
0
  0
ARC
  8
1
 62
7
 10
71.48184828927612
 20
121.1694465796541
 30
0
 40
4.5
 50
0
 51
90
  0
ARC
  8
1
 62
7
 10
71.48184828927612
 20
121.1694465796541
 30
0
 40
2.200000000000102
 50
180
 51
0
  0
ARC
  8
1
 62
7
 10
71.48184828927612
 20
121.1694465796541
 30
0
 40
2.19999999999979
 50
0
 51
180
  0
ARC
  8
1
 62
7
 10
-75.51815171072369
 20
-38.3305534203464
 30
0
 40
3.000000000000185
 50
90
 51
180
  0
ARC
  8
1
 62
7
 10
-75.51815171072369
 20
-38.3305534203464
 30
0
 40
3
 50
180
 51
270
  0
ARC
  8
1
 62
7
 10
-75.51815171072369
 20
-38.3305534203464
 30
0
 40
2.999999999999815
 50
270
 51
0
  0
ARC
  8
1
 62
7
 10
-75.51815171072369
 20
-38.3305534203464
 30
0
 40
3
 50
0
 51
90
  0
ARC
  8
1
 62
7
 10
-45.518151710723
 20
63.16944657965377
 30
0
 40
2.999999999999993
 50
90
 51
180
  0
ARC
  8
1
 62
7
 10
-45.518151710723
 20
63.16944657965377
 30
0
 40
3
 50
180
 51
270
  0
ARC
  8
1
 62
7
 10
-45.518151710723
 20
63.16944657965377
 30
0
 40
2.999999999999986
 50
270
 51
0
  0
ARC
  8
1
 62
7
 10
-45.518151710723
 20
63.16944657965377
 30
0
 40
3
 50
0
 51
90
  0
ARC
  8
1
 62
7
 10
-50.5181517107239
 20
-8.830553420345012
 30
0
 40
3
 50
90
 51
180
  0
ARC
  8
1
 62
7
 10
-50.5181517107239
 20
-8.830553420345012
 30
0
 40
3
 50
180
 51
270
  0
ARC
  8
1
 62
7
 10
-50.5181517107239
 20
-8.830553420345012
 30
0
 40
2.999999999999998
 50
270
 51
0
  0
ARC
  8
1
 62
7
 10
-50.5181517107239
 20
-8.830553420345012
 30
0
 40
3
 50
0
 51
90
  0
ARC
  8
1
 62
7
 10
-45.5181517107239
 20
-34.83055342034621
 30
0
 40
11.11249999999915
 50
297.3914626952562
 51
0
  0
ARC
  8
1
 62
7
 10
-45.5181517107239
 20
-34.83055342034621
 30
0
 40
11.11250000000021
 50
90
 51
180
  0
ARC
  8
1
 62
7
 10
-45.5181517107239
 20
-34.83055342034621
 30
0
 40
11.11249999999991
 50
0
 51
90
  0
ARC
  8
1
 62
7
 10
-45.5181517107239
 20
-53.8805534203461
 30
0
 40
5.112500000000189
 50
180
 51
270
  0
ARC
  8
1
 62
7
 10
-45.5181517107239
 20
-34.83055342034621
 30
0
 40
11.11250000000019
 50
180
 51
242.6085373047426
  0
ARC
  8
1
 62
7
 10
-45.5181517107239
 20
-53.8805534203461
 30
0
 40
5.112500000000011
 50
270
 51
0
  0
ARC
  8
1
 62
7
 10
-55.5181517107239
 20
-48.6305534203461
 30
0
 40
3.750000000000485
 50
46.10544623634213
 51
105.6090681917435
  0
ARC
  8
1
 62
7
 10
-35.51815171072388
 20
-48.6305534203461
 30
0
 40
3.750000000000471
 50
46.10544623634236
 51
74.39093180826116
  0
ARC
  8
1
 62
7
 10
-35.51815171072388
 20
-48.6305534203461
 30
0
 40
3.749999999999727
 50
226.1054462363501
 51
313.8945537636793
  0
ARC
  8
1
 62
7
 10
-35.51815171072388
 20
-48.6305534203461
 30
0
 40
3.749999999999841
 50
74.39093180826116
 51
133.8945537636615
  0
ARC
  8
1
 62
7
 10
-55.5181517107239
 20
-48.6305534203461
 30
0
 40
3.749999999999727
 50
226.1054462363501
 51
313.8945537636795
  0
ARC
  8
1
 62
7
 10
-55.5181517107239
 20
-48.6305534203461
 30
0
 40
3.749999999999926
 50
105.6090681917435
 51
133.8945537636611
  0
ARC
  8
1
 62
7
 10
71.48184828927612
 20
121.1694465796541
 30
0
 40
8.999999999961204
 50
90
 51
180
  0
ARC
  8
1
 62
7
 10
71.48184828927612
 20
-90.83055342034501
 30
0
 40
9
 50
270
 51
0
  0
ARC
  8
1
 62
7
 10
71.48184828927612
 20
121.1694465796541
 30
0
 40
9
 50
0
 51
90
  0
CIRCLE
  8
1
 62
7
 10
-26.51815171072388
 20
-42.83055342034621
 30
0
 40
3.75
  0
CIRCLE
  8
1
 62
7
 10
-64.5181517107239
 20
-42.83055342034621
 30
0
 40
3.750000000000902
  0
CIRCLE
  8
1
 62
7
 10
-26.51815171072388
 20
43.16944657965379
 30
0
 40
3.75
  0
CIRCLE
  8
1
 62
7
 10
-64.5181517107239
 20
43.16944657965379
 30
0
 40
3.75
  0
CIRCLE
  8
1
 62
7
 10
-45.5181517107239
 20
43.16944657965379
 30
0
 40
9.000000000000021
  0
CIRCLE
  8
1
 62
7
 10
71.48184828927612
 20
-90.83055342034501
 30
0
 40
4.5
  0
CIRCLE
  8
1
 62
7
 10
71.48184828927612
 20
-90.83055342034501
 30
0
 40
2.19999999999979
  0
CIRCLE
  8
1
 62
7
 10
69.981848289276
 20
-53.33055342034621
 30
0
 40
5
  0
CIRCLE
  8
1
 62
7
 10
69.981848289276
 20
-53.33055342034621
 30
0
 40
2.5
  0
CIRCLE
  8
1
 62
7
 10
-45.5181517107239
 20
21.66944657965379
 30
0
 40
3.750000000000021
  0
ARC
  8
1
 62
7
 10
-91.01815171072391
 20
75.16944657965377
 30
0
 40
1
 50
0
 51
90
  0
ARC
  8
1
 62
7
 10
-91.01815171072391
 20
51.16944657965379
 30
0
 40
1
 50
270
 51
0
  0
TEXT
  8
1
 62
7
 10
-132.0994203350639
 20
-168.1276465080508
 30
0
 40
5
  1
PZ
 41
0.9
  0
TEXT
  8
1
 62
7
 10
-132.0994203350639
 20
-123.1276465080508
 30
0
 40
5
  1
RZ
 41
0.9
  0
TEXT
  8
1
 62
7
 10
30.63899909336599
 20
-153.8903801651789
 30
0
 40
7
  1
1260_6XX_18X
 41
0.9
 72
1
 73
2
 11
68.43899909336599
 21
-150.3903801651789
 31
0
  0
DIMENSION
  8
1
  6
CONTINUOUS
 62
1
  2
*D0
  3
DMST_1
 10
-63.0181517107239
 20
-185.1066826322217
 30
0
 11
-45.5181517107239
 21
-181.6066826322217
 31
0
 12
0
 22
0
 32
0
 70
0
  1
Ö<>
 13
-28.01815171072388
 23
-174.097679554111
 33
0
 14
-63.0181517107239
 24
-174.097679554111
 34
0
 53
0
  0
DIMENSION
  8
1
  6
CONTINUOUS
 62
1
  2
*D1
  3
DMST_1
 10
-0.7801049177660104
 20
-174.097679554111
 30
0
 11
-4.53010491776601
 21
-167.097679554111
 31
0
 12
0
 22
0
 32
0
 70
0
  1
13,5
 13
-15.51815171072388
 23
-160.097679554111
 33
0
 14
-28.01815171072388
 24
-174.097679554111
 34
0
 50
90
 53
0
  0
DIMENSION
  8
1
  6
CONTINUOUS
 62
1
  2
*D5
  3
DMST_1
 10
62.48184828927612
 20
86.76107105656297
 30
0
 11
54.39941623003301
 21
90.51107105656297
 31
0
 12
0
 22
0
 32
0
 70
0
 13
66.081848289276
 23
78.16944657965377
 33
0
 14
62.48184828927612
 24
121.1694465796541
 34
0
 53
0
  0
DIMENSION
  8
1
  6
CONTINUOUS
 62
1
  2
*D6
  3
DMST_1
 10
95.747979903041
 20
-99.83055342034498
 30
0
 11
92.247979903041
 21
15.16944657963512
 31
0
 12
0
 22
0
 32
0
 70
0
 13
71.48184828927612
 23
130.1694465796153
 33
0
 14
71.48184828927612
 24
-99.83055342034501
 34
0
 50
90
 53
0
  0
DIMENSION
  8
1
  6
CONTINUOUS
 62
1
  2
*D7
  3
DMST_1
 10
54.57756490858401
 20
-90.83055342034501
 30
0
 11
51.07756490858401
 21
-95.33055342034501
 31
0
 12
0
 22
0
 32
0
 70
0
 13
71.48184828927612
 23
-99.83055342034501
 33
0
 14
66.53184828927601
 24
-90.83055342034501
 34
0
 50
90
 53
0
  0
DIMENSION
  8
1
  6
CONTINUOUS
 62
1
  2
*D8
  3
DMST_1
 10
54.414038109606
 20
121.1694465796538
 30
0
 11
50.914038109606
 21
125.6694465796345
 31
0
 12
0
 22
0
 32
0
 70
0
 13
71.48184828927612
 23
130.1694465796153
 33
0
 14
66.53184828927601
 24
121.1694465796538
 34
0
 50
90
 53
0
  0
DIMENSION
  8
1
  6
CONTINUOUS
 62
1
  2
*D9
  3
DMST_1
 10
-133.5655819359923
 20
-64.8305534203447
 30
0
 11
-137.0655819359923
 21
-45.33055342034487
 31
0
 12
0
 22
0
 32
0
 70
0
 13
-117.446354940999
 23
-25.83055342034501
 33
0
 14
-102.5181517107239
 24
-64.8305534203447
 34
0
 50
90
 53
0
  0
DIMENSION
  8
1
  6
CONTINUOUS
 62
1
  2
*D10
  3
DMST_1
 10
-133.4840249961162
 20
-64.83055342034501
 30
0
 11
-136.9840249961162
 21
-82.33055342034501
 31
0
 12
0
 22
0
 32
0
 70
0
 13
-105.5181517107239
 23
-99.83055342034501
 33
0
 14
-98.01815171072391
 24
-64.83055342034501
 34
0
 50
90
 53
0
  0
DIMENSION
  8
1
  6
CONTINUOUS
 62
1
  2
*D11
  3
DMST_1
 10
-133.6081804967427
 20
95.16944657965377
 30
0
 11
-137.1081804967427
 21
86.66944657965377
 31
0
 12
0
 22
0
 32
0
 70
0
 13
-113.018151710723
 23
78.16944657965377
 33
0
 14
-102.5181517107239
 24
95.16944657965377
 34
0
 50
90
 53
0
  0
DIMENSION
  8
1
  6
CONTINUOUS
 62
1
  2
*D12
  3
DMST_1
 10
-133.6081804967427
 20
130.1694465796539
 30
0
 11
-137.1081804967427
 21
112.6694465796538
 31
0
 12
0
 22
0
 32
0
 70
0
 13
-97.51815171072391
 23
95.16944657965377
 33
0
 14
-105.5181517107239
 24
130.1694465796539
 34
0
 50
90
 53
0
  0
DIMENSION
  8
1
  6
CONTINUOUS
 62
1
  2
*D13
  3
DMST_1
 10
-64.5181517107239
 20
69.50880039507797
 30
0
 11
-45.5181517107239
 21
73.00880039507797
 31
0
 12
0
 22
0
 32
0
 70
0
 13
-26.51815171072388
 23
47.29444657965379
 33
0
 14
-64.5181517107239
 24
47.29444657965379
 34
0
 53
0
  0
DIMENSION
  8
1
  6
CONTINUOUS
 62
1
  2
*D14
  3
DMST_2
 10
-0.8268026772950066
 20
-34.83055342034621
 30
0
 11
-4.326802677295007
 21
-38.83055342034621
 31
0
 12
0
 22
0
 32
0
 70
0
 13
-22.39315171072511
 23
-42.83055342034621
 33
0
 14
-33.56610979549299
 24
-34.83055342034621
 34
0
 50
90
 53
0
  0
DIMENSION
  8
1
  6
CONTINUOUS
 62
1
  2
*D15
  3
DMST_2
 10
-41.51815171072388
 20
57.475472843034
 30
0
 11
-34.27784961784411
 21
60.975472843034
 31
0
 12
0
 22
0
 32
0
 70
0
  1
8/9
 13
-49.5181517107239
 23
47.16944657965379
 33
0
 14
-41.51815171072388
 24
47.16944657965379
 34
0
 53
0
  0
DIMENSION
  8
1
  6
CONTINUOUS
 62
1
  2
*D16
  3
DMST_2
 10
-64.5181517107239
 20
-20.14297827838601
 30
0
 11
-45.5181517107239
 21
-16.64297827838601
 31
0
 12
0
 22
0
 32
0
 70
0
 13
-26.51815171072388
 23
-38.70555342034712
 33
0
 14
-64.5181517107239
 24
-38.70555342034621
 34
0
 53
0
  0
DIMENSION
  8
1
  6
CONTINUOUS
 62
1
  2
*D17
  3
DMST_2
 10
80.48184828927612
 20
-109.788372802412
 30
0
 11
71.48184828927612
 21
-106.288372802412
 31
0
 12
0
 22
0
 32
0
 70
0
 13
62.48184828927612
 23
-90.83055342034501
 33
0
 14
80.48184828927612
 24
-90.83055342034501
 34
0
 53
0
  0
DIMENSION
  8
1
  6
CONTINUOUS
 62
1
  2
*D18
  3
DMST_2
 10
-105.518151710724
 20
37.44221660081499
 30
0
 11
-110.5181517107235
 21
40.94221660081499
 31
0
 12
0
 22
0
 32
0
 70
0
 13
-115.518151710723
 23
48.610264031425
 33
0
 14
-105.5181517107239
 24
48.16944657965379
 34
0
 53
0
  0
DIMENSION
  8
1
  6
CONTINUOUS
 62
1
  2
*D19
  3
DMST_1
 10
-102.5181517107239
 20
116.435791167126
 30
0
 11
-91.64878453646649
 21
119.935791167126
 31
0
 12
0
 22
0
 32
0
 70
0
 13
-105.5181517107239
 23
130.1694465796539
 33
0
 14
-102.5181517107239
 24
130.1694465796539
 34
0
 53
0
  0
DIMENSION
  8
1
  6
CONTINUOUS
 62
1
  2
*D20
  3
DMST_1
 10
-0.186766120272011
 20
43.16944657965379
 30
0
 11
-3.936766120272011
 21
32.41944657965379
 31
0
 12
0
 22
0
 32
0
 70
0
 13
-39.918151710724
 23
21.66944657965379
 33
0
 14
-35.61815171072411
 24
43.16944657965379
 34
0
 50
90
 53
0
  0
DIMENSION
  8
1
  6
CONTINUOUS
 62
1
  2
*D21
  3
DMST_2
 10
-80.9909664292021
 20
-158.597679554111
 30
0
 11
-84.92938208004399
 21
-154.2111806276287
 31
0
 12
0
 22
0
 32
0
 70
0
  1
1
 13
-15.51815171072388
 23
-160.097679554111
 33
0
 14
-102.5181517107239
 24
-158.597679554111
 34
0
 50
90
 53
0
  0
DIMENSION
  8
1
  6
CONTINUOUS
 62
1
  2
*D22
  3
DMST_2
 10
-80.8967455217844
 20
-113.597679554111
 30
0
 11
-85.41092508501009
 21
-109.8305534203462
 31
0
 12
0
 22
0
 32
0
 70
0
  1
1
 13
-15.51815171072388
 23
-115.097679554111
 33
0
 14
-102.5181517107239
 24
-113.597679554111
 34
0
 50
90
 53
0
  0
DIMENSION
  8
1
  6
CONTINUOUS
 62
1
  2
*D23
  3
DMST_2
 10
-0.7765600269590038
 20
-115.097679554111
 30
0
 11
-4.276560026959004
 21
-121.597679554111
 31
0
 12
0
 22
0
 32
0
 70
0
 13
-15.51815171072388
 23
-128.097679554111
 33
0
 14
-15.51815171072388
 24
-115.097679554111
 34
0
 50
90
 53
0
  0
DIMENSION
  8
1
  6
CONTINUOUS
 62
1
  2
*D24
  3
DMST_2
 10
14.384623046635
 20
-34.83055342034621
 30
0
 11
10.884623046635
 21
-49.83055342034621
 31
0
 12
0
 22
0
 32
0
 70
0
 13
-58.5181517107239
 23
-64.83055342034621
 33
0
 14
-34.40565171072399
 24
-34.83055342034621
 34
0
 50
90
 53
0
  0
DIMENSION
  8
1
  6
CONTINUOUS
 62
1
  2
*D25
  3
DMST_2
 10
14.363065290854
 20
43.16944657965379
 30
0
 11
10.863065290854
 21
69.16944657965377
 31
0
 12
0
 22
0
 32
0
 70
0
 13
-58.5181517107239
 23
95.16944657965377
 33
0
 14
-35.61815171072411
 24
43.16944657965379
 34
0
 50
90
 53
0
  0
DIMENSION
  8
1
  6
CONTINUOUS
 62
1
  2
*D26
  3
DMST_2
 10
14.384623046635
 20
43.16944657965379
 30
0
 11
10.884623046635
 21
4.169446579653794
 31
0
 12
0
 22
0
 32
0
 70
0
 13
-34.40565171072399
 23
-34.83055342034621
 33
0
 14
-35.61815171072411
 24
43.16944657965379
 34
0
 50
90
 53
0
  0
DIMENSION
  8
1
  6
CONTINUOUS
 62
1
  2
*D27
  3
DMST_2
 10
29.20601221354201
 20
-64.83055342034621
 30
0
 11
25.70601221354201
 21
15.16944657965377
 31
0
 12
0
 22
0
 32
0
 70
0
 13
-58.5181517107239
 23
95.16944657965377
 33
0
 14
-58.5181517107239
 24
-64.83055342034621
 34
0
 50
90
 53
0
  0
DIMENSION
  8
1
  6
CONTINUOUS
 62
1
  2
*D28
  3
DMST_2
 10
-133.5784100833166
 20
4.16944657965499
 30
0
 11
-137.0784100833166
 21
-10.83055342034501
 31
0
 12
0
 22
0
 32
0
 70
0
 13
-117.446354940999
 23
-25.83055342034501
 33
0
 14
-117.446354940999
 24
4.169446579654988
 34
0
 50
90
 53
0
  0
DIMENSION
  8
1
  6
CONTINUOUS
 62
1
  2
*D29
  3
DMST_2
 10
-133.6060469476739
 20
48.1694465796538
 30
0
 11
-137.1060469476739
 21
63.16944657965377
 31
0
 12
0
 22
0
 32
0
 70
0
 13
-113.018151710723
 23
78.16944657965377
 33
0
 14
-113.018151710723
 24
48.16944657965379
 34
0
 50
90
 53
0
  0
DIMENSION
  8
1
  6
CONTINUOUS
 62
1
  2
*D30
  3
DMST_2
 10
-133.5791752739575
 20
48.16944657965379
 30
0
 11
-137.0791752739575
 21
26.16944657965439
 31
0
 12
0
 22
0
 32
0
 70
0
 13
-117.446354940999
 23
4.169446579654988
 33
0
 14
-113.018151710723
 24
48.16944657965379
 34
0
 50
90
 53
0
  0
DIMENSION
  8
1
  6
CONTINUOUS
 62
1
  2
*D31
  3
DMST_2
 10
-105.5181517107239
 20
-81.02313551186201
 30
0
 11
-75.51815171072391
 21
-77.52313551186201
 31
0
 12
0
 22
0
 32
0
 70
0
  1
50/60/70
 13
-45.5181517107239
 23
-53.8805534203461
 33
0
 14
-105.5181517107239
 24
-99.83055342034501
 34
0
 53
0
  0
DIMENSION
  8
1
  6
CONTINUOUS
 62
1
  2
*D32
  3
DMST_2
 10
-15.51815171072388
 20
-81.02313551186201
 30
0
 11
-30.51815171072388
 21
-77.52313551186201
 31
0
 12
0
 22
0
 32
0
 70
0
 13
-45.5181517107239
 23
-53.8805534203461
 33
0
 14
-15.51815171072388
 24
-43.5554271544982
 34
0
 53
0
  0
DIMENSION
  8
1
  6
CONTINUOUS
 62
1
  2
*D33
  3
DMST_2
 10
-118.5181517107239
 20
-38.485461042487
 30
0
 11
-112.4310504608723
 21
-34.985461042487
 31
0
 12
0
 22
0
 32
0
 70
0
 13
-105.5181517107239
 23
-25.83055342034501
 33
0
 14
-118.5181517107239
 24
-25.83055342034501
 34
0
 53
0
  0
DIMENSION
  8
1
  6
CONTINUOUS
 62
1
  2
*D34
  3
DMST_3
 10
-61.36988549123033
 20
-40.79317279532731
 30
0
 11
-79.8376765932608
 21
-48.27774307476201
 31
0
 12
0
 22
0
 32
0
 70
3
 15
-67.66641793021749
 25
-44.8679340453651
 35
0
 40
0
 53
0
  0
DIMENSION
  8
1
  6
CONTINUOUS
 62
1
  2
*D35
  3
DMST_3
 10
-61.75865986835935
 20
45.70867968670078
 30
0
 11
-76.5603520902891
 21
37.18448455442299
 31
0
 12
0
 22
0
 32
0
 70
3
 15
-67.27764355308844
 25
40.63021347260678
 35
0
 40
0
 53
0
  0
DIMENSION
  8
1
  6
CONTINUOUS
 62
1
  2
*D36
  3
DMST_4
 10
-42.7519491445973
 20
24.20136746371688
 30
0
 11
-56.421904226265
 21
16.77286421268698
 31
0
 12
0
 22
0
 32
0
 70
3
 15
-48.28435427685049
 25
19.13752569559071
 35
0
 40
0
 53
0
  0
INSERT
  8
1
  2
*D2
 10
0
 20
0
 30
0
  0
INSERT
  8
1
  2
*D3
 10
0
 20
0
 30
0
  0
INSERT
  8
1
  2
*D4
 10
0
 20
0
 30
0
  0
ENDSEC
  0
EOF
