  0
SECTION
  2
HEADER
  9
$ACADVER
  1
AC1015
  9
$ACADMAINTVER
 70
     6
  9
$DWGCODEPAGE
  3
ANSI_1252
  9
$INSBASE
 10
0.0
 20
0.0
 30
0.0
  9
$EXTMIN
 10
0.0
 20
0.0
 30
0.0
  9
$EXTMAX
 10
420.0
 20
297.0
 30
0.0
  9
$LIMMIN
 10
0.0
 20
0.0
  9
$LIMMAX
 10
420.0
 20
297.0
  9
$ORTHOMODE
 70
     0
  9
$REGENMODE
 70
     1
  9
$FILLMODE
 70
     1
  9
$QTEXTMODE
 70
     0
  9
$MIRRTEXT
 70
     1
  9
$LTSCALE
 40
1.0
  9
$ATTMODE
 70
     1
  9
$TEXTSIZE
 40
3.5
  9
$TRACEWID
 40
1.0
  9
$TEXTSTYLE
  7
Standard
  9
$CLAYER
  8
0
  9
$CELTYPE
  6
ByLayer
  9
$CECOLOR
 62
   256
  9
$CELTSCALE
 40
1.0
  9
$DISPSILH
 70
     0
  9
$DIMSCALE
 40
1.0
  9
$DIMASZ
 40
3.302
  9
$DIMEXO
 40
1.0
  9
$DIMDLI
 40
3.75
  9
$DIMRND
 40
0.0
  9
$DIMDLE
 40
0.0
  9
$DIMEXE
 40
1.0
  9
$DIMTP
 40
0.0
  9
$DIMTM
 40
0.0
  9
$DIMTXT
 40
3.5
  9
$DIMCEN
 40
2.5
  9
$DIMTSZ
 40
0.0
  9
$DIMTOL
 70
     0
  9
$DIMLIM
 70
     0
  9
$DIMTIH
 70
     1
  9
$DIMTOH
 70
     1
  9
$DIMSE1
 70
     0
  9
$DIMSE2
 70
     0
  9
$DIMTAD
 70
     1
  9
$DIMZIN
 70
     1
  9
$DIMBLK
  1

  9
$DIMASO
 70
     1
  9
$DIMSHO
 70
     1
  9
$DIMPOST
  1

  9
$DIMAPOST
  1

  9
$DIMALT
 70
     0
  9
$DIMALTD
 70
     3
  9
$DIMALTF
 40
0.0393700787
  9
$DIMLFAC
 40
1.0
  9
$DIMTOFL
 70
     1
  9
$DIMTVP
 40
0.0
  9
$DIMTIX
 70
     0
  9
$DIMSOXD
 70
     0
  9
$DIMSAH
 70
     0
  9
$DIMBLK1
  1

  9
$DIMBLK2
  1

  9
$DIMSTYLE
  2
ISO-25
  9
$DIMCLRD
 70
     0
  9
$DIMCLRE
 70
     0
  9
$DIMCLRT
 70
     0
  9
$DIMTFAC
 40
1.0
  9
$DIMGAP
 40
1.524
  9
$DIMJUST
 70
     0
  9
$DIMSD1
 70
     0
  9
$DIMSD2
 70
     0
  9
$DIMTOLJ
 70
     0
  9
$DIMTZIN
 70
     1
  9
$DIMALTZ
 70
     0
  9
$DIMALTTZ
 70
     0
  9
$DIMUPT
 70
     0
  9
$DIMDEC
 70
     4
  9
$DIMTDEC
 70
     4
  9
$DIMALTU
 70
     2
  9
$DIMALTTD
 70
     3
  9
$DIMTXSTY
  7
Standard
  9
$DIMAUNIT
 70
     0
  9
$DIMADEC
 70
     0
  9
$DIMALTRND
 40
0.0
  9
$DIMAZIN
 70
     0
  9
$DIMDSEP
 70
    44
  9
$DIMATFIT
 70
     3
  9
$DIMFRAC
 70
     0
  9
$DIMLDRBLK
  1

  9
$DIMLUNIT
 70
     2
  9
$DIMLWD
 70
    -2
  9
$DIMLWE
 70
    -2
  9
$DIMTMOVE
 70
     0
  9
$LUNITS
 70
     2
  9
$LUPREC
 70
     4
  9
$SKETCHINC
 40
1.0
  9
$FILLETRAD
 40
10.0
  9
$AUNITS
 70
     0
  9
$AUPREC
 70
     0
  9
$MENU
  1
.
  9
$ELEVATION
 40
0.0
  9
$PELEVATION
 40
0.0
  9
$THICKNESS
 40
0.0
  9
$LIMCHECK
 70
     0
  9
$CHAMFERA
 40
0.0
  9
$CHAMFERB
 40
0.0
  9
$CHAMFERC
 40
0.0
  9
$CHAMFERD
 40
0.0
  9
$SKPOLY
 70
     0
  9
$TDCREATE
 40
2457245.314074062
  9
$TDUCREATE
 40
2457245.230740729
  9
$TDUPDATE
 40
2457245.314075579
  9
$TDUUPDATE
 40
2457245.230742245
  9
$TDINDWG
 40
0.0000000116
  9
$TDUSRTIMER
 40
0.0000000116
  9
$USRTIMER
 70
     1
  9
$ANGBASE
 50
0.0
  9
$ANGDIR
 70
     0
  9
$PDMODE
 70
     0
  9
$PDSIZE
 40
-1.0
  9
$PLINEWID
 40
0.0
  9
$SPLFRAME
 70
     0
  9
$SPLINETYPE
 70
     6
  9
$SPLINESEGS
 70
     8
  9
$HANDSEED
  5
2E8
  9
$SURFTAB1
 70
     6
  9
$SURFTAB2
 70
     6
  9
$SURFTYPE
 70
     6
  9
$SURFU
 70
     6
  9
$SURFV
 70
     6
  9
$UCSBASE
  2

  9
$UCSNAME
  2

  9
$UCSORG
 10
0.0
 20
0.0
 30
0.0
  9
$UCSXDIR
 10
1.0
 20
0.0
 30
0.0
  9
$UCSYDIR
 10
0.0
 20
1.0
 30
0.0
  9
$UCSORTHOREF
  2

  9
$UCSORTHOVIEW
 70
     0
  9
$UCSORGTOP
 10
0.0
 20
0.0
 30
0.0
  9
$UCSORGBOTTOM
 10
0.0
 20
0.0
 30
0.0
  9
$UCSORGLEFT
 10
0.0
 20
0.0
 30
0.0
  9
$UCSORGRIGHT
 10
0.0
 20
0.0
 30
0.0
  9
$UCSORGFRONT
 10
0.0
 20
0.0
 30
0.0
  9
$UCSORGBACK
 10
0.0
 20
0.0
 30
0.0
  9
$PUCSBASE
  2

  9
$PUCSNAME
  2

  9
$PUCSORG
 10
0.0
 20
0.0
 30
0.0
  9
$PUCSXDIR
 10
1.0
 20
0.0
 30
0.0
  9
$PUCSYDIR
 10
0.0
 20
1.0
 30
0.0
  9
$PUCSORTHOREF
  2

  9
$PUCSORTHOVIEW
 70
     0
  9
$PUCSORGTOP
 10
0.0
 20
0.0
 30
0.0
  9
$PUCSORGBOTTOM
 10
0.0
 20
0.0
 30
0.0
  9
$PUCSORGLEFT
 10
0.0
 20
0.0
 30
0.0
  9
$PUCSORGRIGHT
 10
0.0
 20
0.0
 30
0.0
  9
$PUCSORGFRONT
 10
0.0
 20
0.0
 30
0.0
  9
$PUCSORGBACK
 10
0.0
 20
0.0
 30
0.0
  9
$USERI1
 70
     0
  9
$USERI2
 70
     0
  9
$USERI3
 70
     0
  9
$USERI4
 70
     0
  9
$USERI5
 70
     0
  9
$USERR1
 40
0.0
  9
$USERR2
 40
0.0
  9
$USERR3
 40
0.0
  9
$USERR4
 40
0.0
  9
$USERR5
 40
0.0
  9
$WORLDVIEW
 70
     1
  9
$SHADEDGE
 70
     3
  9
$SHADEDIF
 70
    70
  9
$TILEMODE
 70
     1
  9
$MAXACTVP
 70
    64
  9
$PINSBASE
 10
0.0
 20
0.0
 30
0.0
  9
$PLIMCHECK
 70
     0
  9
$PEXTMIN
 10
1.0000000000E+20
 20
1.0000000000E+20
 30
1.0000000000E+20
  9
$PEXTMAX
 10
-1.0000000000E+20
 20
-1.0000000000E+20
 30
-1.0000000000E+20
  9
$PLIMMIN
 10
0.0
 20
0.0
  9
$PLIMMAX
 10
420.0
 20
297.0
  9
$UNITMODE
 70
     0
  9
$VISRETAIN
 70
     1
  9
$PLINEGEN
 70
     0
  9
$PSLTSCALE
 70
     1
  9
$TREEDEPTH
 70
  3020
  9
$CMLSTYLE
  2
Standard
  9
$CMLJUST
 70
     0
  9
$CMLSCALE
 40
20.0
  9
$PROXYGRAPHICS
 70
     1
  9
$MEASUREMENT
 70
     1
  9
$CELWEIGHT
370
    -1
  9
$ENDCAPS
280
     0
  9
$JOINSTYLE
280
     0
  9
$LWDISPLAY
290
     1
  9
$INSUNITS
 70
     4
  9
$HYPERLINKBASE
  1

  9
$STYLESHEET
  1

  9
$XEDIT
290
     1
  9
$CEPSNTYPE
380
     0
  9
$PSTYLEMODE
290
     1
  9
$FINGERPRINTGUID
  2
{B6EC7A63-7C88-4235-BF1B-272226752CA2}
  9
$VERSIONGUID
  2
{FAEB1C32-E019-11D5-929B-00C0DF256EC4}
  9
$EXTNAMES
290
     1
  9
$PSVPSCALE
 40
0.0
  9
$OLESTARTUP
290
     0
  0
ENDSEC
  0
SECTION
  2
CLASSES
  0
CLASS
  1
ACDBDICTIONARYWDFLT
  2
AcDbDictionaryWithDefault
  3
ObjectDBX Classes
 90
        0
280
     0
281
     0
  0
CLASS
  1
VISUALSTYLE
  2
AcDbVisualStyle
  3
ObjectDBX Classes
 90
     4095
280
     0
281
     0
  0
CLASS
  1
MATERIAL
  2
AcDbMaterial
  3
ObjectDBX Classes
 90
     1153
280
     0
281
     0
  0
CLASS
  1
SCALE
  2
AcDbScale
  3
ObjectDBX Classes
 90
     1153
280
     0
281
     0
  0
CLASS
  1
TABLESTYLE
  2
AcDbTableStyle
  3
ObjectDBX Classes
 90
     4095
280
     0
281
     0
  0
CLASS
  1
MLEADERSTYLE
  2
AcDbMLeaderStyle
  3
ACDB_MLEADERSTYLE_CLASS
 90
     4095
280
     0
281
     0
  0
CLASS
  1
SUN
  2
AcDbSun
  3
SCENEOE
 90
     1153
280
     0
281
     0
  0
CLASS
  1
ACDBPLACEHOLDER
  2
AcDbPlaceHolder
  3
ObjectDBX Classes
 90
        0
280
     0
281
     0
  0
CLASS
  1
LAYOUT
  2
AcDbLayout
  3
ObjectDBX Classes
 90
        0
280
     0
281
     0
  0
ENDSEC
  0
SECTION
  2
TABLES
  0
TABLE
  2
VPORT
  5
8
330
0
100
AcDbSymbolTable
 70
     1
  0
VPORT
  5
29
330
8
100
AcDbSymbolTableRecord
100
AcDbViewportTableRecord
  2
*Active
 70
     0
 10
0.0
 20
0.0
 11
1.0
 21
1.0
 12
210.0
 22
148.5
 13
0.0
 23
0.0
 14
10.0
 24
10.0
 15
10.0
 25
10.0
 16
0.0
 26
0.0
 36
1.0
 17
0.0
 27
0.0
 37
0.0
 40
297.0
 41
1.4141414141
 42
50.0
 43
0.0
 44
0.0
 50
0.0
 51
0.0
 71
     0
 72
  2000
 73
     1
 74
     3
 75
     0
 76
     0
 77
     0
 78
     0
281
     0
 65
     1
110
0.0
120
0.0
130
0.0
111
1.0
121
0.0
131
0.0
112
0.0
122
1.0
132
0.0
 79
     0
146
0.0
  0
ENDTAB
  0
TABLE
  2
LTYPE
  5
5
330
0
100
AcDbSymbolTable
 70
     6
  0
LTYPE
  5
14
330
5
100
AcDbSymbolTableRecord
100
AcDbLinetypeTableRecord
  2
ByBlock
 70
     0
  3

 72
    65
 73
     0
 40
0.0
  0
LTYPE
  5
15
330
5
100
AcDbSymbolTableRecord
100
AcDbLinetypeTableRecord
  2
ByLayer
 70
     0
  3

 72
    65
 73
     0
 40
0.0
  0
LTYPE
  5
16
330
5
100
AcDbSymbolTableRecord
100
AcDbLinetypeTableRecord
  2
Continuous
 70
     0
  3
Solid line
 72
    65
 73
     0
 40
0.0
  0
LTYPE
  5
6E
330
5
100
AcDbSymbolTableRecord
100
AcDbLinetypeTableRecord
  2
HIDDEN
 70
     0
  3
Hidden __ __ __ __ __ __ __ __ __ __ __ __ __ __
 72
    65
 73
     2
 40
1.905
 49
1.27
 74
     0
 49
-0.635
 74
     0
  0
LTYPE
  5
6F
330
5
100
AcDbSymbolTableRecord
100
AcDbLinetypeTableRecord
  2
PHANTOM
 70
     0
  3
Phantom ______  __  __  ______  __  __  ______
 72
    65
 73
     6
 40
12.7
 49
6.35
 74
     0
 49
-1.27
 74
     0
 49
1.27
 74
     0
 49
-1.27
 74
     0
 49
1.27
 74
     0
 49
-1.27
 74
     0
  0
LTYPE
  5
70
330
5
100
AcDbSymbolTableRecord
100
AcDbLinetypeTableRecord
  2
CENTER
 70
     0
  3
Center ____ _ ____ _ ____ _ ____ _ ____ _ ____
 72
    65
 73
     4
 40
10.16
 49
6.35
 74
     0
 49
-1.27
 74
     0
 49
1.27
 74
     0
 49
-1.27
 74
     0
  0
LTYPE
  5
71
330
5
100
AcDbSymbolTableRecord
100
AcDbLinetypeTableRecord
  2
CENTERX2
 70
     0
  3
Center (2x) ________  __  ________  __  _____
 72
    65
 73
     4
 40
20.32
 49
12.7
 74
     0
 49
-2.54
 74
     0
 49
2.54
 74
     0
 49
-2.54
 74
     0
  0
LTYPE
  5
72
330
5
100
AcDbSymbolTableRecord
100
AcDbLinetypeTableRecord
  2
DOT2
 70
     0
  3
Dot (.5x) ........................................
 72
    65
 73
     2
 40
0.635
 49
0.0
 74
     0
 49
-0.635
 74
     0
  0
ENDTAB
  0
TABLE
  2
LAYER
  5
2
330
0
100
AcDbSymbolTable
 70
     4
  0
LAYER
  5
10
330
2
100
AcDbSymbolTableRecord
100
AcDbLayerTableRecord
  2
0
 70
     0
 62
     7
  6
Continuous
370
    -3
390
F
  0
LAYER
  5
73
330
2
100
AcDbSymbolTableRecord
100
AcDbLayerTableRecord
  2
SLD-0
 70
     0
 62
   179
  6
Continuous
370
    -3
390
F
  0
LAYER
  5
74
330
2
100
AcDbSymbolTableRecord
100
AcDbLayerTableRecord
  2
DEFAULT
 70
     0
 62
   179
  6
Continuous
370
    -3
390
F
  0
LAYER
  5
75
330
2
100
AcDbSymbolTableRecord
100
AcDbLayerTableRecord
  2
21867
 70
     0
 62
   179
  6
Continuous
370
    -3
390
F
  0
ENDTAB
  0
TABLE
  2
STYLE
  5
3
330
0
100
AcDbSymbolTable
 70
     4
  0
STYLE
  5
11
330
3
100
AcDbSymbolTableRecord
100
AcDbTextStyleTableRecord
  2
Standard
 70
     0
 40
0.0
 41
1.0
 50
0.0
 71
     0
 42
3.5
  3
txt
  4

  0
STYLE
  5
132
330
3
100
AcDbSymbolTableRecord
100
AcDbTextStyleTableRecord
  2
SLDTEXTSTYLE0
 70
     0
 40
0.0
 41
0.7
 50
0.0
 71
     0
 42
3.5
  3
TXT
  4

  0
STYLE
  5
137
330
3
100
AcDbSymbolTableRecord
100
AcDbTextStyleTableRecord
  2
SLDTEXTSTYLE1
 70
     0
 40
0.0
 41
0.6875
 50
0.0
 71
     0
 42
3.5
  3
TXT
  4

  0
STYLE
  5
192
330
3
100
AcDbSymbolTableRecord
100
AcDbTextStyleTableRecord
  2
SLDTEXTSTYLE2
 70
     0
 40
0.0
 41
0.75
 50
0.0
 71
     0
 42
3.5
  3
TXT
  4

  0
ENDTAB
  0
TABLE
  2
VIEW
  5
6
330
0
100
AcDbSymbolTable
 70
     0
  0
ENDTAB
  0
TABLE
  2
UCS
  5
7
330
0
100
AcDbSymbolTable
 70
     0
  0
ENDTAB
  0
TABLE
  2
APPID
  5
9
330
0
100
AcDbSymbolTable
 70
     1
  0
APPID
  5
12
330
9
100
AcDbSymbolTableRecord
100
AcDbRegAppTableRecord
  2
ACAD
 70
     0
  0
ENDTAB
  0
TABLE
  2
DIMSTYLE
  5
A
330
0
100
AcDbSymbolTable
 70
     9
100
AcDbDimStyleTable
  0
DIMSTYLE
105
27
330
A
100
AcDbSymbolTableRecord
100
AcDbDimStyleTableRecord
  2
ISO-25
 70
     0
 41
2.5
 42
0.625
 43
3.75
 44
1.25
 73
     0
 74
     0
 77
     1
 78
     8
140
2.5
141
2.5
143
0.0393700787
147
0.625
171
     3
172
     1
178
     0
271
     2
272
     2
274
     3
278
    44
283
     0
284
     8
340
11
  0
DIMSTYLE
105
193
102
{ACAD_REACTORS
330
191
330
19E
330
1B7
330
1BF
330
1C7
330
1CF
330
1EF
330
200
330
210
330
240
330
25D
330
280
330
290
102
}
330
A
100
AcDbSymbolTableRecord
100
AcDbDimStyleTableRecord
  2
SLDDIMSTYLE0
 70
     0
 41
3.302
 44
0.0
 45
0.000000001
 73
     0
 74
     0
 77
     1
 78
    12
 79
     3
140
3.5
147
0.875
173
     1
178
     0
271
     0
272
     2
276
     2
284
    12
340
192
341
194
343
194
344
194
  0
DIMSTYLE
105
1A7
102
{ACAD_REACTORS
330
1A6
330
1AF
330
1D7
330
1DF
330
1E7
330
208
330
230
330
288
102
}
330
A
100
AcDbSymbolTableRecord
100
AcDbDimStyleTableRecord
  2
SLDDIMSTYLE1
 70
     0
 41
3.302
 44
0.0
 45
0.000000001
 73
     0
 74
     0
 77
     1
 78
    12
 79
     3
140
3.5
147
0.875
173
     1
178
     0
271
     1
272
     2
276
     2
284
    12
340
192
341
194
343
194
344
194
  0
DIMSTYLE
105
1F8
102
{ACAD_REACTORS
330
1F7
330
218
330
220
330
228
330
238
330
2A2
330
2AB
330
2C7
102
}
330
A
100
AcDbSymbolTableRecord
100
AcDbDimStyleTableRecord
  2
SLDDIMSTYLE2
 70
     0
 41
3.302
 44
0.0
 45
0.000000001
 73
     0
 74
     0
 77
     1
 78
    12
 79
     3
140
3.5
147
0.875
173
     1
178
     0
271
     2
272
     2
276
     2
284
    12
340
192
341
194
343
194
344
194
  0
DIMSTYLE
105
24A
102
{ACAD_REACTORS
330
249
330
270
102
}
330
A
100
AcDbSymbolTableRecord
100
AcDbDimStyleTableRecord
  2
SLDDIMSTYLE3
 70
     0
 41
3.302
 44
0.0
 45
0.000000001
 73
     0
 74
     0
 77
     1
 78
    12
 79
     3
140
3.5
141
0.0
147
0.875
173
     1
178
     0
271
     0
272
     2
276
     2
284
    12
340
192
341
194
343
194
344
194
  0
DIMSTYLE
105
253
102
{ACAD_REACTORS
330
252
330
266
330
298
102
}
330
A
100
AcDbSymbolTableRecord
100
AcDbDimStyleTableRecord
  2
SLDDIMSTYLE4
 70
     0
 41
3.302
 44
0.0
 45
0.000000001
 73
     0
 74
     0
 77
     1
 78
     4
 79
     1
140
3.5
147
0.875
173
     1
178
     0
271
     3
272
     2
276
     2
284
    12
340
192
341
194
343
194
344
194
  0
DIMSTYLE
105
278
102
{ACAD_REACTORS
330
277
102
}
330
A
100
AcDbSymbolTableRecord
100
AcDbDimStyleTableRecord
  2
SLDDIMSTYLE5
 70
     0
 41
3.302
 44
0.0
 45
0.000000001
 73
     0
 74
     0
 77
     1
 78
     4
 79
     1
140
3.5
141
0.0
147
0.875
173
     1
178
     0
271
     3
272
     2
276
     2
284
    12
340
192
341
194
343
194
344
194
  0
DIMSTYLE
105
2B3
102
{ACAD_REACTORS
330
2B2
102
}
330
A
100
AcDbSymbolTableRecord
100
AcDbDimStyleTableRecord
  2
SLDDIMSTYLE6
 70
     0
 41
3.302
 44
0.0
 45
0.000000001
 73
     0
 74
     0
 77
     1
 78
    12
 79
     3
140
3.5
141
0.0
147
0.875
172
     1
173
     1
178
     0
271
     0
272
     2
276
     2
284
    12
340
192
341
194
343
194
344
194
  0
DIMSTYLE
105
2BD
102
{ACAD_REACTORS
330
2BC
102
}
330
A
100
AcDbSymbolTableRecord
100
AcDbDimStyleTableRecord
  2
SLDDIMSTYLE7
 70
     0
  3
<>
 41
3.302
 44
0.0
 45
0.000000001
 73
     0
 74
     0
 77
     1
 78
    12
 79
     3
140
3.5
141
0.0
147
0.875
172
     1
173
     1
178
     0
271
     0
272
     2
276
     2
284
    12
340
192
341
194
343
194
344
194
  0
ENDTAB
  0
TABLE
  2
BLOCK_RECORD
  5
1
330
0
100
AcDbSymbolTable
 70
    51
  0
BLOCK_RECORD
  5
1F
330
1
100
AcDbSymbolTableRecord
100
AcDbBlockTableRecord
  2
*Model_Space
340
22
  0
BLOCK_RECORD
  5
1B
330
1
100
AcDbSymbolTableRecord
100
AcDbBlockTableRecord
  2
*Paper_Space
340
1E
  0
BLOCK_RECORD
  5
23
330
1
100
AcDbSymbolTableRecord
100
AcDbBlockTableRecord
  2
*Paper_Space0
340
26
  0
BLOCK_RECORD
  5
76
330
1
100
AcDbSymbolTableRecord
100
AcDbBlockTableRecord
  2
SE
340
0
102
{BLKREFS
331
18F
102
}
  0
BLOCK_RECORD
  5
BB
330
1
100
AcDbSymbolTableRecord
100
AcDbBlockTableRecord
  2
SE1
340
0
102
{BLKREFS
331
190
102
}
  0
BLOCK_RECORD
  5
105
330
1
100
AcDbSymbolTableRecord
100
AcDbBlockTableRecord
  2
SE2
340
0
102
{BLKREFS
331
18E
102
}
  0
BLOCK_RECORD
  5
12F
330
1
100
AcDbSymbolTableRecord
100
AcDbBlockTableRecord
  2
SEANNOT_GROUP
340
0
102
{BLKREFS
331
18A
102
}
  0
BLOCK_RECORD
  5
134
330
1
100
AcDbSymbolTableRecord
100
AcDbBlockTableRecord
  2
SEANNOT_GROUP1
340
0
102
{BLKREFS
331
18B
102
}
  0
BLOCK_RECORD
  5
139
330
1
100
AcDbSymbolTableRecord
100
AcDbBlockTableRecord
  2
SE3
340
0
102
{BLKREFS
331
18C
102
}
  0
BLOCK_RECORD
  5
13E
330
1
100
AcDbSymbolTableRecord
100
AcDbBlockTableRecord
  2
SE4
340
0
102
{BLKREFS
331
163
102
}
  0
BLOCK_RECORD
  5
145
330
1
100
AcDbSymbolTableRecord
100
AcDbBlockTableRecord
  2
SEANNOT_GROUP2
340
0
102
{BLKREFS
331
164
102
}
  0
BLOCK_RECORD
  5
14A
330
1
100
AcDbSymbolTableRecord
100
AcDbBlockTableRecord
  2
SEANNOT_GROUP3
340
0
102
{BLKREFS
331
165
102
}
  0
BLOCK_RECORD
  5
14F
330
1
100
AcDbSymbolTableRecord
100
AcDbBlockTableRecord
  2
SEANNOT_GROUP4
340
0
102
{BLKREFS
331
166
102
}
  0
BLOCK_RECORD
  5
153
330
1
100
AcDbSymbolTableRecord
100
AcDbBlockTableRecord
  2
SEANNOT_GROUP5
340
0
102
{BLKREFS
331
167
102
}
  0
BLOCK_RECORD
  5
15C
330
1
100
AcDbSymbolTableRecord
100
AcDbBlockTableRecord
  2
SE5
340
0
102
{BLKREFS
331
18D
102
}
  0
BLOCK_RECORD
  5
194
330
1
100
AcDbSymbolTableRecord
100
AcDbBlockTableRecord
  2
_NONE
340
0
  0
BLOCK_RECORD
  5
197
330
1
100
AcDbSymbolTableRecord
100
AcDbBlockTableRecord
  2
_D
340
0
  0
BLOCK_RECORD
  5
19F
330
1
100
AcDbSymbolTableRecord
100
AcDbBlockTableRecord
  2
_D_1
340
0
  0
BLOCK_RECORD
  5
1A8
330
1
100
AcDbSymbolTableRecord
100
AcDbBlockTableRecord
  2
_D_2
340
0
  0
BLOCK_RECORD
  5
1B0
330
1
100
AcDbSymbolTableRecord
100
AcDbBlockTableRecord
  2
_D_3
340
0
  0
BLOCK_RECORD
  5
1B8
330
1
100
AcDbSymbolTableRecord
100
AcDbBlockTableRecord
  2
_D_4
340
0
  0
BLOCK_RECORD
  5
1C0
330
1
100
AcDbSymbolTableRecord
100
AcDbBlockTableRecord
  2
_D_5
340
0
  0
BLOCK_RECORD
  5
1C8
330
1
100
AcDbSymbolTableRecord
100
AcDbBlockTableRecord
  2
_D_6
340
0
  0
BLOCK_RECORD
  5
1D0
330
1
100
AcDbSymbolTableRecord
100
AcDbBlockTableRecord
  2
_D_7
340
0
  0
BLOCK_RECORD
  5
1D8
330
1
100
AcDbSymbolTableRecord
100
AcDbBlockTableRecord
  2
_D_8
340
0
  0
BLOCK_RECORD
  5
1E0
330
1
100
AcDbSymbolTableRecord
100
AcDbBlockTableRecord
  2
_D_9
340
0
  0
BLOCK_RECORD
  5
1E8
330
1
100
AcDbSymbolTableRecord
100
AcDbBlockTableRecord
  2
_D_10
340
0
  0
BLOCK_RECORD
  5
1F0
330
1
100
AcDbSymbolTableRecord
100
AcDbBlockTableRecord
  2
_D_11
340
0
  0
BLOCK_RECORD
  5
1F9
330
1
100
AcDbSymbolTableRecord
100
AcDbBlockTableRecord
  2
_D_12
340
0
  0
BLOCK_RECORD
  5
201
330
1
100
AcDbSymbolTableRecord
100
AcDbBlockTableRecord
  2
_D_13
340
0
  0
BLOCK_RECORD
  5
209
330
1
100
AcDbSymbolTableRecord
100
AcDbBlockTableRecord
  2
_D_14
340
0
  0
BLOCK_RECORD
  5
211
330
1
100
AcDbSymbolTableRecord
100
AcDbBlockTableRecord
  2
_D_15
340
0
  0
BLOCK_RECORD
  5
219
330
1
100
AcDbSymbolTableRecord
100
AcDbBlockTableRecord
  2
_D_16
340
0
  0
BLOCK_RECORD
  5
221
330
1
100
AcDbSymbolTableRecord
100
AcDbBlockTableRecord
  2
_D_17
340
0
  0
BLOCK_RECORD
  5
229
330
1
100
AcDbSymbolTableRecord
100
AcDbBlockTableRecord
  2
_D_18
340
0
  0
BLOCK_RECORD
  5
231
330
1
100
AcDbSymbolTableRecord
100
AcDbBlockTableRecord
  2
_D_19
340
0
  0
BLOCK_RECORD
  5
239
330
1
100
AcDbSymbolTableRecord
100
AcDbBlockTableRecord
  2
_D_20
340
0
  0
BLOCK_RECORD
  5
241
330
1
100
AcDbSymbolTableRecord
100
AcDbBlockTableRecord
  2
_D_21
340
0
  0
BLOCK_RECORD
  5
24B
330
1
100
AcDbSymbolTableRecord
100
AcDbBlockTableRecord
  2
_D_22
340
0
  0
BLOCK_RECORD
  5
254
330
1
100
AcDbSymbolTableRecord
100
AcDbBlockTableRecord
  2
_D_23
340
0
  0
BLOCK_RECORD
  5
25E
330
1
100
AcDbSymbolTableRecord
100
AcDbBlockTableRecord
  2
_D_24
340
0
  0
BLOCK_RECORD
  5
267
330
1
100
AcDbSymbolTableRecord
100
AcDbBlockTableRecord
  2
_D_25
340
0
  0
BLOCK_RECORD
  5
271
330
1
100
AcDbSymbolTableRecord
100
AcDbBlockTableRecord
  2
_D_26
340
0
  0
BLOCK_RECORD
  5
279
330
1
100
AcDbSymbolTableRecord
100
AcDbBlockTableRecord
  2
_D_27
340
0
  0
BLOCK_RECORD
  5
281
330
1
100
AcDbSymbolTableRecord
100
AcDbBlockTableRecord
  2
_D_28
340
0
  0
BLOCK_RECORD
  5
289
330
1
100
AcDbSymbolTableRecord
100
AcDbBlockTableRecord
  2
_D_29
340
0
  0
BLOCK_RECORD
  5
291
330
1
100
AcDbSymbolTableRecord
100
AcDbBlockTableRecord
  2
_D_30
340
0
  0
BLOCK_RECORD
  5
299
330
1
100
AcDbSymbolTableRecord
100
AcDbBlockTableRecord
  2
_D_31
340
0
  0
BLOCK_RECORD
  5
2A3
330
1
100
AcDbSymbolTableRecord
100
AcDbBlockTableRecord
  2
_D_32
340
0
  0
BLOCK_RECORD
  5
2AC
330
1
100
AcDbSymbolTableRecord
100
AcDbBlockTableRecord
  2
_D_33
340
0
  0
BLOCK_RECORD
  5
2B4
330
1
100
AcDbSymbolTableRecord
100
AcDbBlockTableRecord
  2
_D_34
340
0
  0
BLOCK_RECORD
  5
2BE
330
1
100
AcDbSymbolTableRecord
100
AcDbBlockTableRecord
  2
_D_35
340
0
  0
BLOCK_RECORD
  5
2C8
330
1
100
AcDbSymbolTableRecord
100
AcDbBlockTableRecord
  2
_D_36
340
0
  0
ENDTAB
  0
ENDSEC
  0
SECTION
  2
BLOCKS
  0
BLOCK
  5
20
330
1F
100
AcDbEntity
  8
0
100
AcDbBlockBegin
  2
*Model_Space
 70
     0
 10
0.0
 20
0.0
 30
0.0
  3
*Model_Space
  1

  0
ENDBLK
  5
21
330
1F
100
AcDbEntity
  8
0
100
AcDbBlockEnd
  0
BLOCK
  5
1C
330
1B
100
AcDbEntity
 67
     1
  8
0
100
AcDbBlockBegin
  2
*Paper_Space
 70
     0
 10
0.0
 20
0.0
 30
0.0
  3
*Paper_Space
  1

  0
ENDBLK
  5
1D
330
1B
100
AcDbEntity
 67
     1
  8
0
100
AcDbBlockEnd
  0
BLOCK
  5
24
330
23
100
AcDbEntity
  8
0
100
AcDbBlockBegin
  2
*Paper_Space0
 70
     0
 10
0.0
 20
0.0
 30
0.0
  3
*Paper_Space0
  1

  0
ENDBLK
  5
25
330
23
100
AcDbEntity
  8
0
100
AcDbBlockEnd
  0
BLOCK
  5
77
330
76
100
AcDbEntity
  8
0
100
AcDbBlockBegin
  2
SE
 70
     0
 10
0.0
 20
0.0
 30
0.0
  3
SE
  1

  0
ARC
  5
79
330
76
100
AcDbEntity
  8
21867
  6
Continuous
 62
   179
100
AcDbCircle
 10
227.9983793911
 20
216.7651055248
 30
0.0
 40
2.0
100
AcDbArc
 50
270.0
 51
0.0
  0
ARC
  5
7A
330
76
100
AcDbEntity
  8
21867
  6
Continuous
 62
   179
100
AcDbCircle
 10
186.9983793911
 20
216.7651055248
 30
0.0
 40
2.0
100
AcDbArc
 50
180.0
 51
270.0
  0
ARC
  5
7B
330
76
100
AcDbEntity
  8
21867
  6
Continuous
 62
   179
100
AcDbCircle
 10
186.9983793911
 20
225.2651055248
 30
0.0
 40
2.0
100
AcDbArc
 50
90.0
 51
180.0
  0
ARC
  5
7C
330
76
100
AcDbEntity
  8
21867
  6
Continuous
 62
   179
100
AcDbCircle
 10
207.4983793911
 20
279.9283405248
 30
0.0
 40
53.51323500000279
100
AcDbArc
 50
259.774300412
 51
280.2256995879
  0
ARC
  5
7D
330
76
100
AcDbEntity
  8
21867
  6
Continuous
 62
   179
100
AcDbCircle
 10
227.9983793911
 20
225.2651055248
 30
0.0
 40
2.0
100
AcDbArc
 50
0.0
 51
90.0
  0
ARC
  5
7E
330
76
100
AcDbEntity
  8
21867
  6
Continuous
 62
   179
100
AcDbCircle
 10
141.4983793911
 20
216.7651055248
 30
0.0
 40
2.0
100
AcDbArc
 50
270.0
 51
0.0
  0
ARC
  5
7F
330
76
100
AcDbEntity
  8
21867
  6
Continuous
 62
   179
100
AcDbCircle
 10
100.4983793911
 20
216.7651055248
 30
0.0
 40
2.0
100
AcDbArc
 50
180.0
 51
270.0
  0
ARC
  5
80
330
76
100
AcDbEntity
  8
21867
  6
Continuous
 62
   179
100
AcDbCircle
 10
100.4983793911
 20
225.2651055248
 30
0.0
 40
2.0
100
AcDbArc
 50
90.0
 51
180.0
  0
ARC
  5
81
330
76
100
AcDbEntity
  8
21867
  6
Continuous
 62
   179
100
AcDbCircle
 10
120.9983793911
 20
279.9283405248
 30
0.0
 40
53.51323500000279
100
AcDbArc
 50
259.774300412
 51
280.2256995879
  0
ARC
  5
82
330
76
100
AcDbEntity
  8
21867
  6
Continuous
 62
   179
100
AcDbCircle
 10
141.4983793911
 20
225.2651055248
 30
0.0
 40
2.0
100
AcDbArc
 50
0.0
 51
90.0
  0
ARC
  5
83
330
76
100
AcDbEntity
  8
21867
  6
HIDDEN
 62
   179
100
AcDbCircle
 10
56.0811491381
 20
229.4425283461
 30
0.0
 40
0.4705414510619523
100
AcDbArc
 50
88.8901667657
 51
114.771467434
  0
ARC
  5
84
330
76
100
AcDbEntity
  8
21867
  6
HIDDEN
 62
   179
100
AcDbCircle
 10
272.4155664223
 20
229.4425547652
 30
0.0
 40
0.4705150362460644
100
AcDbArc
 50
65.2276306973
 51
91.1098913099
  0
ARC
  5
85
330
76
100
AcDbEntity
  8
21867
  6
Continuous
 62
   179
100
AcDbCircle
 10
58.1426924022
 20
231.5434559915
 30
0.0
 40
2.292847301068645
100
AcDbArc
 50
170.0992344669
 51
180.700356032
  0
ARC
  5
86
330
76
100
AcDbEntity
  8
21867
  6
Continuous
 62
   179
100
AcDbCircle
 10
270.3407723337
 20
231.5423962038
 30
0.0
 40
2.306077641054556
100
AcDbArc
 50
359.3301790529
 51
9.8699347359
  0
CIRCLE
  5
87
330
76
100
AcDbEntity
  8
21867
  6
Continuous
 62
   179
100
AcDbCircle
 10
62.7483793911
 20
221.9351055248
 30
0.0
 40
4.500000000000007
  0
CIRCLE
  5
88
330
76
100
AcDbEntity
  8
21867
  6
Continuous
 62
   179
100
AcDbCircle
 10
62.7483793911
 20
221.9351055248
 30
0.0
 40
2.999999999999993
  0
CIRCLE
  5
89
330
76
100
AcDbEntity
  8
21867
  6
Continuous
 62
   179
100
AcDbCircle
 10
77.7483793911
 20
219.1351055248
 30
0.0
 40
4.500000000000014
  0
CIRCLE
  5
8A
330
76
100
AcDbEntity
  8
21867
  6
Continuous
 62
   179
100
AcDbCircle
 10
77.7483793911
 20
219.1351055248
 30
0.0
 40
2.799999999999997
  0
CIRCLE
  5
8B
330
76
100
AcDbEntity
  8
21867
  6
Continuous
 62
   179
100
AcDbCircle
 10
164.2483793911
 20
219.1351055248
 30
0.0
 40
4.500000000000028
  0
CIRCLE
  5
8C
330
76
100
AcDbEntity
  8
21867
  6
Continuous
 62
   179
100
AcDbCircle
 10
164.2483793911
 20
219.1351055248
 30
0.0
 40
2.800000000000011
  0
CIRCLE
  5
8D
330
76
100
AcDbEntity
  8
21867
  6
Continuous
 62
   179
100
AcDbCircle
 10
250.7483793911
 20
219.1351055248
 30
0.0
 40
4.5
  0
CIRCLE
  5
8E
330
76
100
AcDbEntity
  8
21867
  6
Continuous
 62
   179
100
AcDbCircle
 10
250.7483793911
 20
219.1351055248
 30
0.0
 40
2.80000000000004
  0
CIRCLE
  5
8F
330
76
100
AcDbEntity
  8
21867
  6
Continuous
 62
   179
100
AcDbCircle
 10
265.7483793911
 20
221.9351055248
 30
0.0
 40
4.5
  0
CIRCLE
  5
90
330
76
100
AcDbEntity
  8
21867
  6
Continuous
 62
   179
100
AcDbCircle
 10
265.7483793911
 20
221.9351055248
 30
0.0
 40
3.0
  0
LINE
  5
91
330
76
100
AcDbEntity
  8
21867
  6
Continuous
 62
   179
100
AcDbLine
 10
56.0902630709
 20
232.4129815248
 30
0.0
 11
272.4064525243
 21
232.4129815248
 31
0.0
  0
LINE
  5
92
330
76
100
AcDbEntity
  8
21867
  6
HIDDEN
 62
   179
100
AcDbLine
 10
56.0902630709
 20
229.9129815248
 30
0.0
 11
272.4064525243
 21
229.9129815248
 31
0.0
  0
LINE
  5
93
330
76
100
AcDbEntity
  8
21867
  6
HIDDEN
 62
   179
100
AcDbLine
 10
56.0902630709
 20
232.4129815248
 30
0.0
 11
56.0902630709
 21
229.9129815248
 31
0.0
  0
LINE
  5
94
330
76
100
AcDbEntity
  8
21867
  6
HIDDEN
 62
   179
100
AcDbLine
 10
272.4064525243
 20
232.4129815248
 30
0.0
 11
272.4064525243
 21
229.9129815248
 31
0.0
  0
LINE
  5
95
330
76
100
AcDbEntity
  8
21867
  6
Continuous
 62
   179
100
AcDbLine
 10
55.8500173911
 20
229.6629815248
 30
0.0
 11
55.8500173911
 21
228.0851055248
 31
0.0
  0
LINE
  5
96
330
76
100
AcDbEntity
  8
21867
  6
Continuous
 62
   179
100
AcDbLine
 10
55.8500173911
 20
228.0851055248
 30
0.0
 11
50.7483793911
 21
228.0851055248
 31
0.0
  0
LINE
  5
97
330
76
100
AcDbEntity
  8
21867
  6
Continuous
 62
   179
100
AcDbLine
 10
50.7483793911
 20
228.0851055248
 30
0.0
 11
50.7483793911
 21
214.1651054843
 31
0.0
  0
LINE
  5
98
330
76
100
AcDbEntity
  8
21867
  6
Continuous
 62
   179
100
AcDbLine
 10
277.7483313911
 20
228.0851055248
 30
0.0
 11
272.6466923911
 21
228.0851055248
 31
0.0
  0
LINE
  5
99
330
76
100
AcDbEntity
  8
21867
  6
Continuous
 62
   179
100
AcDbLine
 10
272.6466923911
 20
228.0851055248
 30
0.0
 11
272.6466923911
 21
229.6629815248
 31
0.0
  0
LINE
  5
9A
330
76
100
AcDbEntity
  8
21867
  6
Continuous
 62
   179
100
AcDbLine
 10
227.9983793911
 20
214.7651055248
 30
0.0
 11
186.9983793911
 21
214.7651055248
 31
0.0
  0
LINE
  5
9B
330
76
100
AcDbEntity
  8
21867
  6
Continuous
 62
   179
100
AcDbLine
 10
184.9983793911
 20
216.7651055248
 30
0.0
 11
184.9983793911
 21
225.2651055248
 31
0.0
  0
LINE
  5
9C
330
76
100
AcDbEntity
  8
21867
  6
Continuous
 62
   179
100
AcDbLine
 10
186.9983793911
 20
227.2651055248
 30
0.0
 11
197.9983794174
 21
227.2651055248
 31
0.0
  0
LINE
  5
9D
330
76
100
AcDbEntity
  8
21867
  6
Continuous
 62
   179
100
AcDbLine
 10
216.9983793647
 20
227.2651055248
 30
0.0
 11
227.9983793911
 21
227.2651055248
 31
0.0
  0
LINE
  5
9E
330
76
100
AcDbEntity
  8
21867
  6
Continuous
 62
   179
100
AcDbLine
 10
229.9983793911
 20
225.2651055248
 30
0.0
 11
229.9983793911
 21
216.7651055248
 31
0.0
  0
LINE
  5
9F
330
76
100
AcDbEntity
  8
21867
  6
Continuous
 62
   179
100
AcDbLine
 10
141.4983793911
 20
214.7651055248
 30
0.0
 11
100.4983793911
 21
214.7651055248
 31
0.0
  0
LINE
  5
A0
330
76
100
AcDbEntity
  8
21867
  6
Continuous
 62
   179
100
AcDbLine
 10
98.4983793911
 20
216.7651055248
 30
0.0
 11
98.4983793911
 21
225.2651055248
 31
0.0
  0
LINE
  5
A1
330
76
100
AcDbEntity
  8
21867
  6
Continuous
 62
   179
100
AcDbLine
 10
100.4983793911
 20
227.2651055248
 30
0.0
 11
111.4983794174
 21
227.2651055248
 31
0.0
  0
LINE
  5
A2
330
76
100
AcDbEntity
  8
21867
  6
Continuous
 62
   179
100
AcDbLine
 10
130.4983793647
 20
227.2651055248
 30
0.0
 11
141.4983793911
 21
227.2651055248
 31
0.0
  0
LINE
  5
A3
330
76
100
AcDbEntity
  8
21867
  6
Continuous
 62
   179
100
AcDbLine
 10
143.4983793911
 20
225.2651055248
 30
0.0
 11
143.4983793911
 21
216.7651055248
 31
0.0
  0
LINE
  5
A4
330
76
100
AcDbEntity
  8
21867
  6
Continuous
 62
   179
100
AcDbLine
 10
55.8500173911
 20
229.6629815248
 30
0.0
 11
55.8500173911
 21
231.5154300398
 31
0.0
  0
LINE
  5
A5
330
76
100
AcDbEntity
  8
21867
  6
Continuous
 62
   179
100
AcDbLine
 10
272.6466923911
 20
231.5154374306
 30
0.0
 11
272.6466923911
 21
229.6629815248
 31
0.0
  0
LINE
  5
A6
330
76
100
AcDbEntity
  8
21867
  6
Continuous
 62
   179
100
AcDbLine
 10
277.7483313911
 20
214.1651054843
 30
0.0
 11
277.7483313911
 21
228.0851055248
 31
0.0
  0
LINE
  5
A7
330
76
100
AcDbEntity
  8
21867
  6
Continuous
 62
   179
100
AcDbLine
 10
287.7483313911
 20
213.9151054843
 30
0.0
 11
278.7483313911
 21
213.9151054843
 31
0.0
  0
LINE
  5
A8
330
76
100
AcDbEntity
  8
21867
  6
Continuous
 62
   179
100
AcDbLine
 10
278.7483313911
 20
213.9151054843
 30
0.0
 11
278.7483313911
 21
211.4151054843
 31
0.0
  0
LINE
  5
A9
330
76
100
AcDbEntity
  8
21867
  6
Continuous
 62
   179
100
AcDbLine
 10
287.7483313911
 20
213.9151054843
 30
0.0
 11
287.7483313911
 21
211.4151054843
 31
0.0
  0
LINE
  5
AA
330
76
100
AcDbEntity
  8
21867
  6
Continuous
 62
   179
100
AcDbLine
 10
49.7483793911
 20
213.9151054843
 30
0.0
 11
40.7483793911
 21
213.9151054843
 31
0.0
  0
LINE
  5
AB
330
76
100
AcDbEntity
  8
21867
  6
Continuous
 62
   179
100
AcDbLine
 10
40.7483793911
 20
213.9151054843
 30
0.0
 11
40.7483793911
 21
211.4151054843
 31
0.0
  0
LINE
  5
AC
330
76
100
AcDbEntity
  8
21867
  6
Continuous
 62
   179
100
AcDbLine
 10
49.7483793911
 20
213.9151054843
 30
0.0
 11
49.7483793911
 21
211.4151054843
 31
0.0
  0
LINE
  5
AD
330
76
100
AcDbEntity
  8
21867
  6
Continuous
 62
   179
100
AcDbLine
 10
50.7483793911
 20
213.9151054843
 30
0.0
 11
49.7483793911
 21
213.9151054843
 31
0.0
  0
LINE
  5
AE
330
76
100
AcDbEntity
  8
21867
  6
Continuous
 62
   179
100
AcDbLine
 10
278.7483313911
 20
213.9151054843
 30
0.0
 11
277.7483313911
 21
213.9151054843
 31
0.0
  0
LINE
  5
AF
330
76
100
AcDbEntity
  8
21867
  6
Continuous
 62
   179
100
AcDbLine
 10
277.7483313911
 20
211.4151054843
 30
0.0
 11
50.7483793911
 21
211.4151054843
 31
0.0
  0
LINE
  5
B0
330
76
100
AcDbEntity
  8
21867
  6
Continuous
 62
   179
100
AcDbLine
 10
50.7483793911
 20
211.4151054843
 30
0.0
 11
49.7483793911
 21
211.4151054843
 31
0.0
  0
LINE
  5
B1
330
76
100
AcDbEntity
  8
21867
  6
Continuous
 62
   179
100
AcDbLine
 10
49.7483793911
 20
211.4151054843
 30
0.0
 11
40.7483793911
 21
211.4151054843
 31
0.0
  0
LINE
  5
B2
330
76
100
AcDbEntity
  8
21867
  6
Continuous
 62
   179
100
AcDbLine
 10
287.7483313911
 20
211.4151054843
 30
0.0
 11
278.7483313911
 21
211.4151054843
 31
0.0
  0
LINE
  5
B3
330
76
100
AcDbEntity
  8
21867
  6
Continuous
 62
   179
100
AcDbLine
 10
278.7483313911
 20
211.4151054843
 30
0.0
 11
277.7483313911
 21
211.4151054843
 31
0.0
  0
LINE
  5
B4
330
76
100
AcDbEntity
  8
21867
  6
Continuous
 62
   179
100
AcDbLine
 10
277.7483313911
 20
211.4151054843
 30
0.0
 11
277.7483313911
 21
214.1651054843
 31
0.0
  0
LINE
  5
B5
330
76
100
AcDbEntity
  8
21867
  6
Continuous
 62
   179
100
AcDbLine
 10
50.7483793911
 20
214.1651054843
 30
0.0
 11
50.7483793911
 21
211.4151054843
 31
0.0
  0
LINE
  5
B6
330
76
100
AcDbEntity
  8
21867
  6
HIDDEN
 62
   179
100
AcDbLine
 10
277.7483313911
 20
213.9151054843
 30
0.0
 11
50.7483793911
 21
213.9151054843
 31
0.0
  0
SPLINE
  5
B7
330
76
100
AcDbEntity
  8
21867
  6
HIDDEN
 62
   179
100
AcDbSpline
210
0.0
220
0.0
230
1.0
 70
     8
 71
     3
 72
     8
 73
     4
 74
     0
 42
0.000000001
 43
0.00000001
 40
0.0
 40
0.0
 40
0.0
 40
0.0
 40
1.0
 40
1.0
 40
1.0
 40
1.0
 10
55.88399228474825
 20
229.869773512643
 30
0.0
 10
55.86145071113246
 20
229.8590127928462
 30
0.0
 10
55.85001639106121
 20
229.8460372742722
 30
0.0
 10
55.85001639106121
 20
229.8313859352915
 30
0.0
  0
SPLINE
  5
B8
330
76
100
AcDbEntity
  8
21867
  6
HIDDEN
 62
   179
100
AcDbSpline
210
0.0
220
0.0
230
1.0
 70
     8
 71
     3
 72
     8
 73
     4
 74
     0
 42
0.000000001
 43
0.00000001
 40
0.0
 40
0.0
 40
0.0
 40
0.0
 40
1.0
 40
1.0
 40
1.0
 40
1.0
 10
272.6466923910612
 20
229.8313866071813
 30
0.0
 10
272.6466923910612
 20
229.8460373588772
 30
0.0
 10
272.6352589009037
 20
229.8590124130296
 30
0.0
 10
272.6127189325247
 20
229.8697728442249
 30
0.0
  0
SPLINE
  5
B9
330
76
100
AcDbEntity
  8
21867
  6
Continuous
 62
   179
100
AcDbSpline
210
0.0
220
0.0
230
1.0
 70
     8
 71
     3
 72
    16
 73
    12
 74
     0
 42
0.000000001
 43
0.00000001
 40
0.0
 40
0.0
 40
0.0
 40
0.0
 40
0.1009740558668833
 40
0.2017487329538654
 40
0.3023179183546834
 40
0.4026755256983414
 40
0.5028154960043856
 40
0.6276649397417918
 40
0.7521532732149857
 40
0.8762688235382029
 40
1.0
 40
1.0
 40
1.0
 40
1.0
 10
272.6127186609748
 20
231.9376859360429
 30
0.0
 10
272.6067367521829
 20
231.967991240589
 30
0.0
 10
272.5947847462044
 20
232.0285420102047
 30
0.0
 10
272.5761062370055
 20
232.1084237828444
 30
0.0
 10
272.5569013384088
 20
232.1798662844691
 30
0.0
 10
272.5371166903122
 20
232.2419240886546
 30
0.0
 10
272.5150792393185
 20
232.2989952698933
 30
0.0
 10
272.4906067186097
 20
232.3480567222756
 30
0.0
 10
272.4634817217226
 20
232.3853475075283
 30
0.0
 10
272.435549165511
 20
232.4086672605651
 30
0.0
 10
272.4161413718176
 20
232.4115449243575
 30
0.0
 10
272.4064525242894
 20
232.4129815248367
 30
0.0
  0
SPLINE
  5
BA
330
76
100
AcDbEntity
  8
21867
  6
Continuous
 62
   179
100
AcDbSpline
210
0.0
220
0.0
230
1.0
 70
     8
 71
     3
 72
    16
 73
    12
 74
     0
 42
0.000000001
 43
0.00000001
 40
0.0
 40
0.0
 40
0.0
 40
0.0
 40
0.0989619091763308
 40
0.1981713764161663
 40
0.2976224765079376
 40
0.3973092524994833
 40
0.4972257165722097
 40
0.6224247674770412
 40
0.7479614088252651
 40
0.8738237926155182
 40
1.0
 40
1.0
 40
1.0
 40
1.0
 10
56.09026307091894
 20
232.4129815248367
 30
0.0
 10
56.08249938302028
 20
232.412062875111
 30
0.0
 10
56.06695258597738
 20
232.4102232776121
 30
0.0
 10
56.04438664464953
 20
232.3953172290576
 30
0.0
 10
56.02233669079971
 20
232.3714724479772
 30
0.0
 10
56.00086042491578
 20
232.3378219223636
 30
0.0
 10
55.97819780352913
 20
232.2910161417476
 30
0.0
 10
55.95452862861102
 20
232.2281652858408
 30
0.0
 10
55.93008151907153
 20
232.1459892282321
 30
0.0
 10
55.90645557122311
 20
232.050464023584
 30
0.0
 10
55.89148634314156
 20
231.9753147608318
 30
0.0
 10
55.88399240970065
 20
231.93769334374
 30
0.0
  0
ENDBLK
  5
78
330
76
100
AcDbEntity
  8
0
100
AcDbBlockEnd
  0
BLOCK
  5
BC
330
BB
100
AcDbEntity
  8
0
100
AcDbBlockBegin
  2
SE1
 70
     0
 10
0.0
 20
0.0
 30
0.0
  3
SE1
  1

  0
ARC
  5
BE
330
BB
100
AcDbEntity
  8
21867
  6
Continuous
 62
   179
100
AcDbCircle
 10
63.6071853911
 20
102.659872445
 30
0.0
 40
7.994824000000008
100
AcDbArc
 50
89.9999995735
 51
160.0891435422
  0
ARC
  5
BF
330
BB
100
AcDbEntity
  8
21867
  6
Continuous
 62
   179
100
AcDbCircle
 10
264.8895943911
 20
102.659962445
 30
0.0
 40
7.99473300000004
100
AcDbArc
 50
19.9104066707
 51
89.9999995736
  0
ARC
  5
C0
330
BB
100
AcDbEntity
  8
21867
  6
Continuous
 62
   179
100
AcDbCircle
 10
58.5678157445
 20
101.5232638042
 30
0.0
 40
4.586122807340051
100
AcDbArc
 50
122.6991718548
 51
125.8174961707
  0
ARC
  5
C1
330
BB
100
AcDbEntity
  8
21867
  6
Continuous
 62
   179
100
AcDbCircle
 10
269.9290418632
 20
101.5235819829
 30
0.0
 40
4.58577833521387
100
AcDbArc
 50
54.1816533491
 51
57.3001736597
  0
ARC
  5
C2
330
BB
100
AcDbEntity
  8
21867
  6
Continuous
 62
   179
100
AcDbCircle
 10
182.4432088925
 20
92.5885216297
 30
0.0
 40
90.86843739384396
100
AcDbArc
 50
7.1109228498
 51
8.0939973635
  0
ARC
  5
C3
330
BB
100
AcDbEntity
  8
21867
  6
Continuous
 62
   179
100
AcDbCircle
 10
145.2951097305
 20
92.6894061041
 30
0.0
 40
90.1033912397022
100
AcDbArc
 50
171.9016144278
 51
172.8930297052
  0
ARC
  5
C4
330
BB
100
AcDbEntity
  8
21867
  6
Continuous
 62
   179
100
AcDbCircle
 10
59.7108850684
 20
103.3255284504
 30
0.0
 40
3.860946874927366
100
AcDbArc
 50
172.3845443684
 51
179.6353398067
  0
ARC
  5
C5
330
BB
100
AcDbEntity
  8
21867
  6
Continuous
 62
   179
100
AcDbCircle
 10
268.7982341075
 20
103.3264002656
 30
0.0
 40
3.848531307087492
100
AcDbArc
 50
0.3529572363
 51
7.6269107594
  0
ARC
  5
C6
330
BB
100
AcDbEntity
  8
21867
  6
Continuous
 62
   179
100
AcDbCircle
 10
264.7483313911
 20
102.8125714045
 30
0.0
 40
23.0
100
AcDbArc
 50
0.0
 51
90.0
  0
ARC
  5
C7
330
BB
100
AcDbEntity
  8
21867
  6
Continuous
 62
   179
100
AcDbCircle
 10
63.7483793911
 20
102.8125714045
 30
0.0
 40
23.0
100
AcDbArc
 50
90.0
 51
180.0
  0
LINE
  5
C8
330
BB
100
AcDbEntity
  8
21867
  6
Continuous
 62
   179
100
AcDbLine
 10
264.8895944506
 20
110.654694445
 30
0.0
 11
63.6071854506
 21
110.654696445
 31
0.0
  0
LINE
  5
C9
330
BB
100
AcDbEntity
  8
21867
  6
HIDDEN
 62
   179
100
AcDbLine
 10
143.4983793911
 20
105.1325714045
 30
0.0
 11
143.4983793911
 21
102.6325714045
 31
0.0
  0
LINE
  5
CA
330
BB
100
AcDbEntity
  8
21867
  6
HIDDEN
 62
   179
100
AcDbLine
 10
130.4983793647
 20
105.1325714045
 30
0.0
 11
130.4983793647
 21
102.6325714045
 31
0.0
  0
LINE
  5
CB
330
BB
100
AcDbEntity
  8
21867
  6
HIDDEN
 62
   179
100
AcDbLine
 10
111.4983794174
 20
105.1325714045
 30
0.0
 11
111.4983794174
 21
102.6325714045
 31
0.0
  0
LINE
  5
CC
330
BB
100
AcDbEntity
  8
21867
  6
HIDDEN
 62
   179
100
AcDbLine
 10
98.4983793911
 20
105.1325714045
 30
0.0
 11
98.4983793911
 21
102.6325714045
 31
0.0
  0
LINE
  5
CD
330
BB
100
AcDbEntity
  8
21867
  6
HIDDEN
 62
   179
100
AcDbLine
 10
229.9983793911
 20
105.1325714045
 30
0.0
 11
229.9983793911
 21
102.6325714045
 31
0.0
  0
LINE
  5
CE
330
BB
100
AcDbEntity
  8
21867
  6
HIDDEN
 62
   179
100
AcDbLine
 10
216.9983793647
 20
105.1325714045
 30
0.0
 11
216.9983793647
 21
102.6325714045
 31
0.0
  0
LINE
  5
CF
330
BB
100
AcDbEntity
  8
21867
  6
HIDDEN
 62
   179
100
AcDbLine
 10
197.9983794174
 20
105.1325714045
 30
0.0
 11
197.9983794174
 21
102.6325714045
 31
0.0
  0
LINE
  5
D0
330
BB
100
AcDbEntity
  8
21867
  6
HIDDEN
 62
   179
100
AcDbLine
 10
184.9983793911
 20
105.1325714045
 30
0.0
 11
184.9983793911
 21
102.6325714045
 31
0.0
  0
LINE
  5
D1
330
BB
100
AcDbEntity
  8
21867
  6
Continuous
 62
   179
100
AcDbLine
 10
277.7483313911
 20
105.1325714045
 30
0.0
 11
272.6466923911
 21
105.1325714045
 31
0.0
  0
LINE
  5
D2
330
BB
100
AcDbEntity
  8
21867
  6
Continuous
 62
   179
100
AcDbLine
 10
277.7483313911
 20
105.1325714045
 30
0.0
 11
277.7483313911
 21
102.6325714045
 31
0.0
  0
LINE
  5
D3
330
BB
100
AcDbEntity
  8
21867
  6
Continuous
 62
   179
100
AcDbLine
 10
55.8500173911
 20
105.1325714045
 30
0.0
 11
50.7483793911
 21
105.1325714045
 31
0.0
  0
LINE
  5
D4
330
BB
100
AcDbEntity
  8
21867
  6
Continuous
 62
   179
100
AcDbLine
 10
50.7483793911
 20
105.1325714045
 30
0.0
 11
50.7483793911
 21
102.6325714045
 31
0.0
  0
LINE
  5
D5
330
BB
100
AcDbEntity
  8
21867
  6
Continuous
 62
   179
100
AcDbLine
 10
55.8500173911
 20
102.6325714045
 30
0.0
 11
50.7483793911
 21
102.6325714045
 31
0.0
  0
LINE
  5
D6
330
BB
100
AcDbEntity
  8
21867
  6
Continuous
 62
   179
100
AcDbLine
 10
277.7483313911
 20
102.6325714045
 30
0.0
 11
272.6466923911
 21
102.6325714045
 31
0.0
  0
LINE
  5
D7
330
BB
100
AcDbEntity
  8
21867
  6
Continuous
 62
   179
100
AcDbLine
 10
55.8500173911
 20
102.6325714045
 30
0.0
 11
55.8500173911
 21
103.3501013557
 31
0.0
  0
LINE
  5
D8
330
BB
100
AcDbEntity
  8
21867
  6
HIDDEN
 62
   179
100
AcDbLine
 10
55.8500173911
 20
105.1325714045
 30
0.0
 11
272.6466923911
 21
105.1325714045
 31
0.0
  0
LINE
  5
D9
330
BB
100
AcDbEntity
  8
21867
  6
Continuous
 62
   179
100
AcDbLine
 10
272.6466923911
 20
105.1978020124
 30
0.0
 11
272.6466923911
 21
103.3501080918
 31
0.0
  0
LINE
  5
DA
330
BB
100
AcDbEntity
  8
21867
  6
Continuous
 62
   179
100
AcDbLine
 10
272.6466923911
 20
103.3501080918
 30
0.0
 11
272.6466923911
 21
102.6325714045
 31
0.0
  0
LINE
  5
DB
330
BB
100
AcDbEntity
  8
21867
  6
Continuous
 62
   179
100
AcDbLine
 10
55.8500163911
 20
105.1978014
 30
0.0
 11
55.8500173911
 21
103.3501013557
 31
0.0
  0
LINE
  5
DC
330
BB
100
AcDbEntity
  8
21867
  6
Continuous
 62
   179
100
AcDbLine
 10
55.8500173911
 20
102.6325714045
 30
0.0
 11
272.6466923911
 21
102.6325714045
 31
0.0
  0
LINE
  5
DD
330
BB
100
AcDbEntity
  8
21867
  6
Continuous
 62
   179
100
AcDbLine
 10
278.7483313911
 20
102.6358144045
 30
0.0
 11
278.7483313911
 21
105.8548334045
 31
0.0
  0
LINE
  5
DE
330
BB
100
AcDbEntity
  8
21867
  6
Continuous
 62
   179
100
AcDbLine
 10
287.7483313911
 20
102.6358144045
 30
0.0
 11
278.7483313911
 21
102.6358144045
 31
0.0
  0
LINE
  5
DF
330
BB
100
AcDbEntity
  8
21867
  6
Continuous
 62
   179
100
AcDbLine
 10
287.7483313911
 20
102.8125714045
 30
0.0
 11
287.7483313911
 21
102.6358144045
 31
0.0
  0
LINE
  5
E0
330
BB
100
AcDbEntity
  8
21867
  6
Continuous
 62
   179
100
AcDbLine
 10
63.7483793911
 20
125.8125714045
 30
0.0
 11
264.7483313911
 21
125.8125714045
 31
0.0
  0
LINE
  5
E1
330
BB
100
AcDbEntity
  8
21867
  6
Continuous
 62
   179
100
AcDbLine
 10
40.7483793911
 20
102.6358144045
 30
0.0
 11
40.7483793911
 21
102.8125714045
 31
0.0
  0
LINE
  5
E2
330
BB
100
AcDbEntity
  8
21867
  6
Continuous
 62
   179
100
AcDbLine
 10
49.7483793911
 20
102.6358144045
 30
0.0
 11
40.7483793911
 21
102.6358144045
 31
0.0
  0
LINE
  5
E3
330
BB
100
AcDbEntity
  8
21867
  6
Continuous
 62
   179
100
AcDbLine
 10
49.7483793911
 20
105.8548334045
 30
0.0
 11
49.7483793911
 21
102.6358144045
 31
0.0
  0
LINE
  5
E4
330
BB
100
AcDbEntity
  8
21867
  6
Continuous
 62
   179
100
AcDbLine
 10
50.7483793911
 20
105.8548334045
 30
0.0
 11
49.7483793911
 21
105.8548334045
 31
0.0
  0
LINE
  5
E5
330
BB
100
AcDbEntity
  8
21867
  6
Continuous
 62
   179
100
AcDbLine
 10
278.7483313911
 20
105.8548334045
 30
0.0
 11
277.7483313911
 21
105.8548334045
 31
0.0
  0
LINE
  5
E6
330
BB
100
AcDbEntity
  8
21867
  6
Continuous
 62
   179
100
AcDbLine
 10
277.7483313911
 20
105.8548334045
 30
0.0
 11
277.7483313911
 21
105.3825714045
 31
0.0
  0
LINE
  5
E7
330
BB
100
AcDbEntity
  8
21867
  6
Continuous
 62
   179
100
AcDbLine
 10
277.7483313911
 20
105.3825714045
 30
0.0
 11
277.7483313911
 21
105.1325714045
 31
0.0
  0
LINE
  5
E8
330
BB
100
AcDbEntity
  8
21867
  6
Continuous
 62
   179
100
AcDbLine
 10
50.7483793911
 20
105.1325714045
 30
0.0
 11
50.7483793911
 21
105.3825714045
 31
0.0
  0
LINE
  5
E9
330
BB
100
AcDbEntity
  8
21867
  6
Continuous
 62
   179
100
AcDbLine
 10
50.7483793911
 20
105.3825714045
 30
0.0
 11
50.7483793911
 21
105.8548334045
 31
0.0
  0
LINE
  5
EA
330
BB
100
AcDbEntity
  8
21867
  6
HIDDEN
 62
   179
100
AcDbLine
 10
65.7483793911
 20
104.1325714045
 30
0.0
 11
59.7483793911
 21
104.1325714045
 31
0.0
  0
LINE
  5
EB
330
BB
100
AcDbEntity
  8
21867
  6
HIDDEN
 62
   179
100
AcDbLine
 10
80.5483793911
 20
104.3325714045
 30
0.0
 11
74.9483793911
 21
104.3325714045
 31
0.0
  0
LINE
  5
EC
330
BB
100
AcDbEntity
  8
21867
  6
HIDDEN
 62
   179
100
AcDbLine
 10
167.0483793911
 20
104.3325714045
 30
0.0
 11
161.4483793911
 21
104.3325714045
 31
0.0
  0
LINE
  5
ED
330
BB
100
AcDbEntity
  8
21867
  6
HIDDEN
 62
   179
100
AcDbLine
 10
247.9483793911
 20
104.3325714045
 30
0.0
 11
253.5483793911
 21
104.3325714045
 31
0.0
  0
LINE
  5
EE
330
BB
100
AcDbEntity
  8
21867
  6
HIDDEN
 62
   179
100
AcDbLine
 10
262.7483793911
 20
104.1325714045
 30
0.0
 11
268.7483793911
 21
104.1325714045
 31
0.0
  0
LINE
  5
EF
330
BB
100
AcDbEntity
  8
21867
  6
HIDDEN
 62
   179
100
AcDbLine
 10
65.7483793911
 20
104.1325714045
 30
0.0
 11
65.7483793911
 21
105.1325714045
 31
0.0
  0
LINE
  5
F0
330
BB
100
AcDbEntity
  8
21867
  6
HIDDEN
 62
   179
100
AcDbLine
 10
59.7483793911
 20
105.1325714045
 30
0.0
 11
59.7483793911
 21
104.1325714045
 31
0.0
  0
LINE
  5
F1
330
BB
100
AcDbEntity
  8
21867
  6
HIDDEN
 62
   179
100
AcDbLine
 10
80.5483793911
 20
104.3325714045
 30
0.0
 11
80.5483793911
 21
105.1325714045
 31
0.0
  0
LINE
  5
F2
330
BB
100
AcDbEntity
  8
21867
  6
HIDDEN
 62
   179
100
AcDbLine
 10
74.9483793911
 20
105.1325714045
 30
0.0
 11
74.9483793911
 21
104.3325714045
 31
0.0
  0
LINE
  5
F3
330
BB
100
AcDbEntity
  8
21867
  6
HIDDEN
 62
   179
100
AcDbLine
 10
167.0483793911
 20
104.3325714045
 30
0.0
 11
167.0483793911
 21
105.1325714045
 31
0.0
  0
LINE
  5
F4
330
BB
100
AcDbEntity
  8
21867
  6
HIDDEN
 62
   179
100
AcDbLine
 10
161.4483793911
 20
105.1325714045
 30
0.0
 11
161.4483793911
 21
104.3325714045
 31
0.0
  0
LINE
  5
F5
330
BB
100
AcDbEntity
  8
21867
  6
HIDDEN
 62
   179
100
AcDbLine
 10
253.5483793911
 20
104.3325714045
 30
0.0
 11
253.5483793911
 21
105.1325714045
 31
0.0
  0
LINE
  5
F6
330
BB
100
AcDbEntity
  8
21867
  6
HIDDEN
 62
   179
100
AcDbLine
 10
247.9483793911
 20
105.1325714045
 30
0.0
 11
247.9483793911
 21
104.3325714045
 31
0.0
  0
LINE
  5
F7
330
BB
100
AcDbEntity
  8
21867
  6
HIDDEN
 62
   179
100
AcDbLine
 10
268.7483793911
 20
104.1325714045
 30
0.0
 11
268.7483793911
 21
105.1325714045
 31
0.0
  0
LINE
  5
F8
330
BB
100
AcDbEntity
  8
21867
  6
HIDDEN
 62
   179
100
AcDbLine
 10
262.7483793911
 20
105.1325714045
 30
0.0
 11
262.7483793911
 21
104.1325714045
 31
0.0
  0
LINE
  5
F9
330
BB
100
AcDbEntity
  8
21867
  6
HIDDEN
 62
   179
100
AcDbLine
 10
67.2483793911
 20
102.6325714045
 30
0.0
 11
65.7483793911
 21
104.1325714045
 31
0.0
  0
LINE
  5
FA
330
BB
100
AcDbEntity
  8
21867
  6
HIDDEN
 62
   179
100
AcDbLine
 10
59.7483793911
 20
104.1325714045
 30
0.0
 11
58.2483793911
 21
102.6325714045
 31
0.0
  0
LINE
  5
FB
330
BB
100
AcDbEntity
  8
21867
  6
HIDDEN
 62
   179
100
AcDbLine
 10
82.2483793911
 20
102.6325714045
 30
0.0
 11
80.5483793911
 21
104.3325714045
 31
0.0
  0
LINE
  5
FC
330
BB
100
AcDbEntity
  8
21867
  6
HIDDEN
 62
   179
100
AcDbLine
 10
74.9483793911
 20
104.3325714045
 30
0.0
 11
73.2483793911
 21
102.6325714045
 31
0.0
  0
LINE
  5
FD
330
BB
100
AcDbEntity
  8
21867
  6
HIDDEN
 62
   179
100
AcDbLine
 10
168.7483793911
 20
102.6325714045
 30
0.0
 11
167.0483793911
 21
104.3325714045
 31
0.0
  0
LINE
  5
FE
330
BB
100
AcDbEntity
  8
21867
  6
HIDDEN
 62
   179
100
AcDbLine
 10
161.4483793911
 20
104.3325714045
 30
0.0
 11
159.7483793911
 21
102.6325714045
 31
0.0
  0
LINE
  5
FF
330
BB
100
AcDbEntity
  8
21867
  6
HIDDEN
 62
   179
100
AcDbLine
 10
255.2483793911
 20
102.6325714045
 30
0.0
 11
253.5483793911
 21
104.3325714045
 31
0.0
  0
LINE
  5
100
330
BB
100
AcDbEntity
  8
21867
  6
HIDDEN
 62
   179
100
AcDbLine
 10
247.9483793911
 20
104.3325714045
 30
0.0
 11
246.2483793911
 21
102.6325714045
 31
0.0
  0
LINE
  5
101
330
BB
100
AcDbEntity
  8
21867
  6
HIDDEN
 62
   179
100
AcDbLine
 10
270.2483793911
 20
102.6325714045
 30
0.0
 11
268.7483793911
 21
104.1325714045
 31
0.0
  0
LINE
  5
102
330
BB
100
AcDbEntity
  8
21867
  6
HIDDEN
 62
   179
100
AcDbLine
 10
262.7483793911
 20
104.1325714045
 30
0.0
 11
261.2483793911
 21
102.6325714045
 31
0.0
  0
SPLINE
  5
103
330
BB
100
AcDbEntity
  8
21867
  6
Continuous
 62
   179
100
AcDbSpline
210
0.0
220
0.0
230
1.0
 70
     8
 71
     3
 72
     8
 73
     4
 74
     0
 42
0.000000001
 43
0.00000001
 40
0.0
 40
0.0
 40
0.0
 40
0.0
 40
1.0
 40
1.0
 40
1.0
 40
1.0
 10
55.88399228474825
 20
105.2420827081841
 30
0.0
 10
55.86145071113246
 20
105.2262434942452
 30
0.0
 10
55.85001639106121
 20
105.211155029091
 30
0.0
 10
55.85001639106121
 20
105.197801400016
 30
0.0
  0
SPLINE
  5
104
330
BB
100
AcDbEntity
  8
21867
  6
Continuous
 62
   179
100
AcDbSpline
210
0.0
220
0.0
230
1.0
 70
     8
 71
     3
 72
     8
 73
     4
 74
     0
 42
0.000000001
 43
0.00000001
 40
0.0
 40
0.0
 40
0.0
 40
0.0
 40
1.0
 40
1.0
 40
1.0
 40
1.0
 10
272.6466923910612
 20
105.1978020123969
 30
0.0
 10
272.6466923910612
 20
105.2111552037362
 30
0.0
 10
272.6352589009037
 20
105.2262430983064
 30
0.0
 10
272.6127189325247
 20
105.2420817243128
 30
0.0
  0
ENDBLK
  5
BD
330
BB
100
AcDbEntity
  8
0
100
AcDbBlockEnd
  0
BLOCK
  5
106
330
105
100
AcDbEntity
  8
0
100
AcDbBlockBegin
  2
SE2
 70
     0
 10
0.0
 20
0.0
 30
0.0
  3
SE2
  1

  0
ARC
  5
108
330
105
100
AcDbEntity
  8
21867
  6
Continuous
 62
   179
100
AcDbCircle
 10
347.8843363074
 20
229.6629815248
 30
0.0
 40
2.750000000000014
100
AcDbArc
 50
0.0
 51
42.3468939415
  0
ARC
  5
109
330
105
100
AcDbEntity
  8
21867
  6
Continuous
 62
   179
100
AcDbCircle
 10
347.8843363074
 20
229.6629815248
 30
0.0
 40
0.2500000000000107
100
AcDbArc
 50
55.8089077589
 51
90.0
  0
ARC
  5
10A
330
105
100
AcDbEntity
  8
21867
  6
Continuous
 62
   179
100
AcDbCircle
 10
347.8835280987
 20
229.6620492301
 30
0.0
 40
0.2512253827043167
100
AcDbArc
 50
42.379876012
 51
55.7759256753
  0
ARC
  5
10B
330
105
100
AcDbEntity
  8
21867
  6
Continuous
 62
   179
100
AcDbCircle
 10
347.8843363074
 20
229.6629815248
 30
0.0
 40
2.75
100
AcDbArc
 50
55.8089060176
 51
90.0
  0
ARC
  5
10C
330
105
100
AcDbEntity
  8
21867
  6
Continuous
 62
   179
100
AcDbCircle
 10
347.8843363074
 20
229.6629815248
 30
0.0
 40
2.750000000000014
100
AcDbArc
 50
42.3468939415
 51
55.8089060176
  0
ARC
  5
10D
330
105
100
AcDbEntity
  8
21867
  6
Continuous
 62
   179
100
AcDbCircle
 10
347.8843363074
 20
229.6629815248
 30
0.0
 40
0.250000000022669
100
AcDbArc
 50
0.0
 51
42.3468939563
  0
ARC
  5
10E
330
105
100
AcDbEntity
  8
21867
  6
Continuous
 62
   179
100
AcDbCircle
 10
347.8843363074
 20
214.1651054843
 30
0.0
 40
0.25
100
AcDbArc
 50
270.0
 51
0.0
  0
ARC
  5
10F
330
105
100
AcDbEntity
  8
21867
  6
Continuous
 62
   179
100
AcDbCircle
 10
347.8843363074
 20
214.1651054843
 30
0.0
 40
2.750000000000023
100
AcDbArc
 50
354.7840914295
 51
0.0
  0
ARC
  5
110
330
105
100
AcDbEntity
  8
21867
  6
HIDDEN
 62
   179
100
AcDbCircle
 10
347.8843363074
 20
214.1651054843
 30
0.0
 40
2.750000000000023
100
AcDbArc
 50
270.0
 51
354.7840914295
  0
LINE
  5
111
330
105
100
AcDbEntity
  8
21867
  6
Continuous
 62
   179
100
AcDbLine
 10
342.6122112669
 20
229.9129815248
 30
0.0
 11
347.8843363074
 21
229.9129815248
 31
0.0
  0
LINE
  5
112
330
105
100
AcDbEntity
  8
21867
  6
Continuous
 62
   179
100
AcDbLine
 10
342.6122112669
 20
232.4129815248
 30
0.0
 11
347.8843363074
 21
232.4129815248
 31
0.0
  0
LINE
  5
113
330
105
100
AcDbEntity
  8
21867
  6
Continuous
 62
   179
100
AcDbLine
 10
342.6122112669
 20
229.9129815248
 30
0.0
 11
342.6122112669
 21
232.4129815248
 31
0.0
  0
LINE
  5
114
330
105
100
AcDbEntity
  8
21867
  6
HIDDEN
 62
   179
100
AcDbLine
 10
342.6122112669
 20
229.9129815248
 30
0.0
 11
342.6122112669
 21
232.4129815248
 31
0.0
  0
LINE
  5
115
330
105
100
AcDbEntity
  8
21867
  6
Continuous
 62
   179
100
AcDbLine
 10
347.8843363074
 20
232.4129815248
 30
0.0
 11
347.8843363074
 21
229.9129815248
 31
0.0
  0
LINE
  5
116
330
105
100
AcDbEntity
  8
21867
  6
HIDDEN
 62
   179
100
AcDbLine
 10
348.1343363074
 20
227.2651055248
 30
0.0
 11
350.6343363074
 21
227.2651055248
 31
0.0
  0
LINE
  5
117
330
105
100
AcDbEntity
  8
21867
  6
HIDDEN
 62
   179
100
AcDbLine
 10
348.1343363074
 20
214.7651055248
 30
0.0
 11
350.6343363074
 21
214.7651055248
 31
0.0
  0
LINE
  5
118
330
105
100
AcDbEntity
  8
21867
  6
Continuous
 62
   179
100
AcDbLine
 10
348.1343363074
 20
228.0851055248
 30
0.0
 11
348.1343363074
 21
214.1651054843
 31
0.0
  0
LINE
  5
119
330
105
100
AcDbEntity
  8
21867
  6
Continuous
 62
   179
100
AcDbLine
 10
348.1343363074
 20
228.0851055248
 30
0.0
 11
350.6343363074
 21
228.0851055248
 31
0.0
  0
LINE
  5
11A
330
105
100
AcDbEntity
  8
21867
  6
Continuous
 62
   179
100
AcDbLine
 10
350.6343363074
 20
229.6629815248
 30
0.0
 11
350.6343363074
 21
228.0851055248
 31
0.0
  0
LINE
  5
11B
330
105
100
AcDbEntity
  8
21867
  6
Continuous
 62
   179
100
AcDbLine
 10
350.6343363074
 20
228.0851055248
 30
0.0
 11
350.6343363074
 21
214.1651054843
 31
0.0
  0
LINE
  5
11C
330
105
100
AcDbEntity
  8
21867
  6
Continuous
 62
   179
100
AcDbLine
 10
348.1343363074
 20
229.6629815248
 30
0.0
 11
348.1343363074
 21
228.0851055248
 31
0.0
  0
LINE
  5
11D
330
105
100
AcDbEntity
  8
21867
  6
Continuous
 62
   179
100
AcDbLine
 10
350.4543363074
 20
213.9151054843
 30
0.0
 11
327.4543363074
 21
213.9151054843
 31
0.0
  0
LINE
  5
11E
330
105
100
AcDbEntity
  8
21867
  6
Continuous
 62
   179
100
AcDbLine
 10
327.4543363074
 20
213.9151054843
 30
0.0
 11
327.4543363074
 21
211.4151054843
 31
0.0
  0
LINE
  5
11F
330
105
100
AcDbEntity
  8
21867
  6
Continuous
 62
   179
100
AcDbLine
 10
350.6310933074
 20
213.9151054843
 30
0.0
 11
350.4543363074
 21
213.9151054843
 31
0.0
  0
LINE
  5
120
330
105
100
AcDbEntity
  8
21867
  6
Continuous
 62
   179
100
AcDbLine
 10
350.6310933074
 20
213.9151054843
 30
0.0
 11
350.6310933074
 21
211.4151054843
 31
0.0
  0
LINE
  5
121
330
105
100
AcDbEntity
  8
21867
  6
HIDDEN
 62
   179
100
AcDbLine
 10
347.4120743074
 20
213.9151054843
 30
0.0
 11
347.4120743074
 21
211.4151054843
 31
0.0
  0
LINE
  5
122
330
105
100
AcDbEntity
  8
21867
  6
Continuous
 62
   179
100
AcDbLine
 10
350.6310933074
 20
211.4151054843
 30
0.0
 11
350.4543363074
 21
211.4151054843
 31
0.0
  0
LINE
  5
123
330
105
100
AcDbEntity
  8
21867
  6
Continuous
 62
   179
100
AcDbLine
 10
350.4543363074
 20
211.4151054843
 30
0.0
 11
327.4543363074
 21
211.4151054843
 31
0.0
  0
LINE
  5
124
330
105
100
AcDbEntity
  8
21867
  6
HIDDEN
 62
   179
100
AcDbLine
 10
349.1343363074
 20
218.9351055248
 30
0.0
 11
349.1343363074
 21
224.9351055248
 31
0.0
  0
LINE
  5
125
330
105
100
AcDbEntity
  8
21867
  6
HIDDEN
 62
   179
100
AcDbLine
 10
348.9343363074
 20
216.3351055248
 30
0.0
 11
348.9343363074
 21
221.9351055248
 31
0.0
  0
LINE
  5
126
330
105
100
AcDbEntity
  8
21867
  6
HIDDEN
 62
   179
100
AcDbLine
 10
349.1343363074
 20
224.9351055248
 30
0.0
 11
348.1343363074
 21
224.9351055248
 31
0.0
  0
LINE
  5
127
330
105
100
AcDbEntity
  8
21867
  6
HIDDEN
 62
   179
100
AcDbLine
 10
348.1343363074
 20
218.9351055248
 30
0.0
 11
349.1343363074
 21
218.9351055248
 31
0.0
  0
LINE
  5
128
330
105
100
AcDbEntity
  8
21867
  6
HIDDEN
 62
   179
100
AcDbLine
 10
348.9343363074
 20
221.9351055248
 30
0.0
 11
348.1343363074
 21
221.9351055248
 31
0.0
  0
LINE
  5
129
330
105
100
AcDbEntity
  8
21867
  6
HIDDEN
 62
   179
100
AcDbLine
 10
348.1343363074
 20
216.3351055248
 30
0.0
 11
348.9343363074
 21
216.3351055248
 31
0.0
  0
LINE
  5
12A
330
105
100
AcDbEntity
  8
21867
  6
HIDDEN
 62
   179
100
AcDbLine
 10
348.1343363074
 20
226.4151055248
 30
0.0
 11
350.6343363074
 21
226.4151055248
 31
0.0
  0
LINE
  5
12B
330
105
100
AcDbEntity
  8
21867
  6
HIDDEN
 62
   179
100
AcDbLine
 10
350.6343363074
 20
226.4351055248
 30
0.0
 11
349.1343363074
 21
224.9351055248
 31
0.0
  0
LINE
  5
12C
330
105
100
AcDbEntity
  8
21867
  6
HIDDEN
 62
   179
100
AcDbLine
 10
349.1343363074
 20
218.9351055248
 30
0.0
 11
350.6343363074
 21
217.4351055248
 31
0.0
  0
LINE
  5
12D
330
105
100
AcDbEntity
  8
21867
  6
HIDDEN
 62
   179
100
AcDbLine
 10
350.6343363074
 20
223.6351055248
 30
0.0
 11
348.9343363074
 21
221.9351055248
 31
0.0
  0
LINE
  5
12E
330
105
100
AcDbEntity
  8
21867
  6
HIDDEN
 62
   179
100
AcDbLine
 10
348.9343363074
 20
216.3351055248
 30
0.0
 11
350.6343363074
 21
214.6351055248
 31
0.0
  0
ENDBLK
  5
107
330
105
100
AcDbEntity
  8
0
100
AcDbBlockEnd
  0
BLOCK
  5
130
330
12F
100
AcDbEntity
  8
0
100
AcDbBlockBegin
  2
SEANNOT_GROUP
 70
     0
 10
0.0
 20
0.0
 30
0.0
  3
SEANNOT_GROUP
  1

  0
MTEXT
  5
133
330
12F
100
AcDbEntity
  8
DEFAULT
100
AcDbMText
 10
395.5232187414
 20
11.1994602211
 30
0.0
 40
2.5
 41
0.0
 71
     1
 72
     1
  1
Bl. 1
  7
SLDTEXTSTYLE0
 73
     1
 44
1.0
  0
ENDBLK
  5
131
330
12F
100
AcDbEntity
  8
0
100
AcDbBlockEnd
  0
BLOCK
  5
135
330
134
100
AcDbEntity
  8
0
100
AcDbBlockBegin
  2
SEANNOT_GROUP1
 70
     0
 10
0.0
 20
0.0
 30
0.0
  3
SEANNOT_GROUP1
  1

  0
MTEXT
  5
138
330
134
100
AcDbEntity
  8
DEFAULT
100
AcDbMText
 10
407.3068136535
 20
11.1994602211
 30
0.0
 40
2.5
 41
0.0
 71
     1
 72
     1
  1
v. 1
  7
SLDTEXTSTYLE1
 73
     1
 44
1.0
  0
ENDBLK
  5
136
330
134
100
AcDbEntity
  8
0
100
AcDbBlockEnd
  0
BLOCK
  5
13A
330
139
100
AcDbEntity
  8
0
100
AcDbBlockBegin
  2
SE3
 70
     0
 10
0.0
 20
0.0
 30
0.0
  3
SE3
  1

  0
CIRCLE
  5
13C
330
139
100
AcDbEntity
  8
DEFAULT
  6
Continuous
 62
   179
100
AcDbCircle
 10
342.4888451984
 20
47.0299807542
 30
0.0
 40
4.145000000000039
  0
CIRCLE
  5
13D
330
139
100
AcDbEntity
  8
DEFAULT
  6
Continuous
 62
   179
100
AcDbCircle
 10
342.4847416859
 20
47.0299807542
 30
0.0
 40
5.49951347679746
  0
INSERT
  5
163
330
139
100
AcDbEntity
  8
0
  6
Continuous
 62
     7
100
AcDbBlockReference
  2
SE4
 10
0.0
 20
0.0
 30
0.0
  0
INSERT
  5
164
330
139
100
AcDbEntity
  8
0
  6
Continuous
 62
     7
100
AcDbBlockReference
  2
SEANNOT_GROUP2
 10
0.0
 20
0.0
 30
0.0
  0
INSERT
  5
165
330
139
100
AcDbEntity
  8
0
  6
Continuous
 62
     7
100
AcDbBlockReference
  2
SEANNOT_GROUP3
 10
0.0
 20
0.0
 30
0.0
  0
INSERT
  5
166
330
139
100
AcDbEntity
  8
0
  6
Continuous
 62
     7
100
AcDbBlockReference
  2
SEANNOT_GROUP4
 10
0.0
 20
0.0
 30
0.0
  0
INSERT
  5
167
330
139
100
AcDbEntity
  8
0
  6
Continuous
 62
     7
100
AcDbBlockReference
  2
SEANNOT_GROUP5
 10
0.0
 20
0.0
 30
0.0
  0
ENDBLK
  5
13B
330
139
100
AcDbEntity
  8
0
100
AcDbBlockEnd
  0
BLOCK
  5
13F
330
13E
100
AcDbEntity
  8
0
100
AcDbBlockBegin
  2
SE4
 70
     0
 10
0.0
 20
0.0
 30
0.0
  3
SE4
  1

  0
LINE
  5
141
330
13E
100
AcDbEntity
  8
DEFAULT
  6
Continuous
 62
   179
100
AcDbLine
 10
334.1965847734
 20
51.1917761018
 30
0.0
 11
334.1965847734
 21
42.8817761018
 31
0.0
  0
LINE
  5
142
330
13E
100
AcDbEntity
  8
DEFAULT
  6
Continuous
 62
   179
100
AcDbLine
 10
323.582232805
 20
49.7991253655
 30
0.0
 11
323.582232805
 21
44.2991253655
 31
0.0
  0
LINE
  5
143
330
13E
100
AcDbEntity
  8
DEFAULT
  6
Continuous
 62
   179
100
AcDbLine
 10
323.5620874055
 20
49.7803680792
 30
0.0
 11
334.188414753
 21
51.1944285811
 31
0.0
  0
LINE
  5
144
330
13E
100
AcDbEntity
  8
DEFAULT
  6
Continuous
 62
   179
100
AcDbLine
 10
323.5569566135
 20
44.3097120276
 30
0.0
 11
334.1853969356
 21
42.911621787
 31
0.0
  0
ENDBLK
  5
140
330
13E
100
AcDbEntity
  8
0
100
AcDbBlockEnd
  0
BLOCK
  5
146
330
145
100
AcDbEntity
  8
0
100
AcDbBlockBegin
  2
SEANNOT_GROUP2
 70
     0
 10
0.0
 20
0.0
 30
0.0
  3
SEANNOT_GROUP2
  1

  0
LINE
  5
148
330
145
100
AcDbEntity
  8
DEFAULT
  6
CENTER
 62
   179
100
AcDbLine
 10
344.2388452524
 20
47.0299807542
 30
0.0
 11
340.7388451444
 21
47.0299807542
 31
0.0
  0
LINE
  5
149
330
145
100
AcDbEntity
  8
DEFAULT
  6
CENTER
 62
   179
100
AcDbLine
 10
342.4888451984
 20
48.7799808083
 30
0.0
 11
342.4888451984
 21
45.2799807002
 31
0.0
  0
ENDBLK
  5
147
330
145
100
AcDbEntity
  8
0
100
AcDbBlockEnd
  0
BLOCK
  5
14B
330
14A
100
AcDbEntity
  8
0
100
AcDbBlockBegin
  2
SEANNOT_GROUP3
 70
     0
 10
0.0
 20
0.0
 30
0.0
  3
SEANNOT_GROUP3
  1

  0
LINE
  5
14D
330
14A
100
AcDbEntity
  8
DEFAULT
  6
CENTER
 62
   179
100
AcDbLine
 10
344.23474174
 20
47.0299807542
 30
0.0
 11
340.7347416319
 21
47.0299807542
 31
0.0
  0
LINE
  5
14E
330
14A
100
AcDbEntity
  8
DEFAULT
  6
CENTER
 62
   179
100
AcDbLine
 10
342.4847416859
 20
48.7799808083
 30
0.0
 11
342.4847416859
 21
45.2799807002
 31
0.0
  0
ENDBLK
  5
14C
330
14A
100
AcDbEntity
  8
0
100
AcDbBlockEnd
  0
BLOCK
  5
150
330
14F
100
AcDbEntity
  8
0
100
AcDbBlockBegin
  2
SEANNOT_GROUP4
 70
     0
 10
0.0
 20
0.0
 30
0.0
  3
SEANNOT_GROUP4
  1

  0
LINE
  5
152
330
14F
100
AcDbEntity
  8
DEFAULT
  6
CENTER
 62
   179
100
AcDbLine
 10
321.8322337021
 20
47.0508973938
 30
0.0
 11
344.2388443012
 21
47.0282087259
 31
0.0
  0
ENDBLK
  5
151
330
14F
100
AcDbEntity
  8
0
100
AcDbBlockEnd
  0
BLOCK
  5
154
330
153
100
AcDbEntity
  8
0
100
AcDbBlockBegin
  2
SEANNOT_GROUP5
 70
     0
 10
0.0
 20
0.0
 30
0.0
  3
SEANNOT_GROUP5
  1

  0
LINE
  5
156
330
153
100
AcDbEntity
  8
DEFAULT
  6
CENTER
 62
   179
100
AcDbLine
 10
344.2388452524
 20
47.0299807542
 30
0.0
 11
340.7388451444
 21
47.0299807542
 31
0.0
  0
LINE
  5
157
330
153
100
AcDbEntity
  8
DEFAULT
  6
CENTER
 62
   179
100
AcDbLine
 10
342.4888451984
 20
48.7799808083
 30
0.0
 11
342.4888451984
 21
45.2799807002
 31
0.0
  0
LINE
  5
158
330
153
100
AcDbEntity
  8
DEFAULT
  6
CENTER
 62
   179
100
AcDbLine
 10
345.9888453064
 20
47.0299807542
 30
0.0
 11
348.3838451984
 21
47.0299807542
 31
0.0
  0
LINE
  5
159
330
153
100
AcDbEntity
  8
DEFAULT
  6
CENTER
 62
   179
100
AcDbLine
 10
342.4888451984
 20
50.5299808623
 30
0.0
 11
342.4888451984
 21
52.9249807542
 31
0.0
  0
LINE
  5
15A
330
153
100
AcDbEntity
  8
DEFAULT
  6
CENTER
 62
   179
100
AcDbLine
 10
338.9888450904
 20
47.0299807542
 30
0.0
 11
336.5938451984
 21
47.0299807542
 31
0.0
  0
LINE
  5
15B
330
153
100
AcDbEntity
  8
DEFAULT
  6
CENTER
 62
   179
100
AcDbLine
 10
342.4888451984
 20
43.5299806462
 30
0.0
 11
342.4888451984
 21
41.1349807542
 31
0.0
  0
ENDBLK
  5
155
330
153
100
AcDbEntity
  8
0
100
AcDbBlockEnd
  0
BLOCK
  5
15D
330
15C
100
AcDbEntity
  8
0
100
AcDbBlockBegin
  2
SE5
 70
     0
 10
0.0
 20
0.0
 30
0.0
  3
SE5
  1

  0
LINE
  5
15F
330
15C
100
AcDbEntity
  8
DEFAULT
  6
Continuous
 62
   179
100
AcDbLine
 10
316.015473564
 20
4.9946163692
 30
0.0
 11
354.846584586
 21
4.9946163692
 31
0.0
  0
LINE
  5
160
330
15C
100
AcDbEntity
  8
SLD-0
  6
Continuous
 62
   179
100
AcDbLine
 10
354.846584586
 20
4.9946163692
 30
0.0
 11
354.846584586
 21
15.724936515
 31
0.0
  0
LINE
  5
161
330
15C
100
AcDbEntity
  8
SLD-0
  6
Continuous
 62
   179
100
AcDbLine
 10
354.846584586
 20
15.724936515
 30
0.0
 11
316.015473564
 21
15.724936515
 31
0.0
  0
LINE
  5
162
330
15C
100
AcDbEntity
  8
SLD-0
  6
Continuous
 62
   179
100
AcDbLine
 10
316.015473564
 20
15.724936515
 30
0.0
 11
316.015473564
 21
4.9946163692
 31
0.0
  0
ENDBLK
  5
15E
330
15C
100
AcDbEntity
  8
0
100
AcDbBlockEnd
  0
BLOCK
  5
195
330
194
100
AcDbEntity
  8
0
100
AcDbBlockBegin
  2
_NONE
 70
     0
 10
0.0
 20
0.0
 30
0.0
  3
_NONE
  1

  0
ENDBLK
  5
196
330
194
100
AcDbEntity
  8
0
100
AcDbBlockEnd
  0
BLOCK
  5
198
330
197
100
AcDbEntity
  8
0
100
AcDbBlockBegin
  2
_D
 70
     0
 10
0.0
 20
0.0
 30
0.0
  3
_D
  1

  0
LINE
  5
19A
330
197
100
AcDbEntity
  8
DEFAULT
 62
   179
100
AcDbLine
 10
40.7483793911
 20
213.9151054843
 30
0.0
 11
40.7483793911
 21
188.4499241541
 31
0.0
  0
LINE
  5
19B
330
197
100
AcDbEntity
  8
DEFAULT
 62
   179
100
AcDbLine
 10
62.7483793911
 20
221.9351055248
 30
0.0
 11
62.7483793911
 21
188.4499241541
 31
0.0
  0
LINE
  5
19C
330
197
100
AcDbEntity
  8
DEFAULT
 62
   179
100
AcDbLine
 10
40.7483793911
 20
190.1999242081
 30
0.0
 11
62.7483792719
 21
190.1999242081
 31
0.0
  0
MTEXT
  5
19D
330
197
100
AcDbEntity
  8
DEFAULT
 62
   179
100
AcDbMText
 10
49.6006520587
 20
194.6159579977
 30
0.0
 40
3.5
 41
0.0
 71
     1
 72
     1
  1
22
  7
SLDTEXTSTYLE2
 73
     1
 44
1.0
  0
ENDBLK
  5
199
330
197
100
AcDbEntity
  8
0
100
AcDbBlockEnd
  0
BLOCK
  5
1A0
330
19F
100
AcDbEntity
  8
0
100
AcDbBlockBegin
  2
_D_1
 70
     0
 10
0.0
 20
0.0
 30
0.0
  3
_D_1
  1

  0
LINE
  5
1A2
330
19F
100
AcDbEntity
  8
DEFAULT
 62
   179
100
AcDbLine
 10
62.7483793911
 20
221.9351055248
 30
0.0
 11
62.7483793911
 21
188.4499236623
 31
0.0
  0
LINE
  5
1A3
330
19F
100
AcDbEntity
  8
DEFAULT
 62
   179
100
AcDbLine
 10
77.7483793911
 20
219.1351055248
 30
0.0
 11
77.7483793911
 21
188.4499236623
 31
0.0
  0
LINE
  5
1A4
330
19F
100
AcDbEntity
  8
DEFAULT
 62
   179
100
AcDbLine
 10
62.7483793911
 20
190.1999237164
 30
0.0
 11
77.7483790558
 21
190.1999237164
 31
0.0
  0
MTEXT
  5
1A5
330
19F
100
AcDbEntity
  8
DEFAULT
 62
   179
100
AcDbMText
 10
68.5381519507
 20
194.615957506
 30
0.0
 40
3.5
 41
0.0
 71
     1
 72
     1
  1
15
  7
SLDTEXTSTYLE2
 73
     1
 44
1.0
  0
ENDBLK
  5
1A1
330
19F
100
AcDbEntity
  8
0
100
AcDbBlockEnd
  0
BLOCK
  5
1A9
330
1A8
100
AcDbEntity
  8
0
100
AcDbBlockBegin
  2
_D_2
 70
     0
 10
0.0
 20
0.0
 30
0.0
  3
_D_2
  1

  0
LINE
  5
1AB
330
1A8
100
AcDbEntity
  8
DEFAULT
 62
   179
100
AcDbLine
 10
77.7483793911
 20
219.1351055248
 30
0.0
 11
77.7483793911
 21
188.4499244938
 31
0.0
  0
LINE
  5
1AC
330
1A8
100
AcDbEntity
  8
DEFAULT
 62
   179
100
AcDbLine
 10
164.2483793911
 20
219.1351055248
 30
0.0
 11
164.2483793911
 21
188.4499244938
 31
0.0
  0
LINE
  5
1AD
330
1A8
100
AcDbEntity
  8
DEFAULT
 62
   179
100
AcDbLine
 10
77.7483793911
 20
190.1999245478
 30
0.0
 11
164.2483758744
 21
190.1999245478
 31
0.0
  0
MTEXT
  5
1AE
330
1A8
100
AcDbEntity
  8
DEFAULT
 62
   179
100
AcDbMText
 10
117.4983776327
 20
194.6159583374
 30
0.0
 40
3.5
 41
0.0
 71
     1
 72
     1
  1
86,5
  7
SLDTEXTSTYLE2
 73
     1
 44
1.0
  0
ENDBLK
  5
1AA
330
1A8
100
AcDbEntity
  8
0
100
AcDbBlockEnd
  0
BLOCK
  5
1B1
330
1B0
100
AcDbEntity
  8
0
100
AcDbBlockBegin
  2
_D_3
 70
     0
 10
0.0
 20
0.0
 30
0.0
  3
_D_3
  1

  0
LINE
  5
1B3
330
1B0
100
AcDbEntity
  8
DEFAULT
 62
   179
100
AcDbLine
 10
164.2483793911
 20
219.1351055248
 30
0.0
 11
164.2483793911
 21
188.4499244938
 31
0.0
  0
LINE
  5
1B4
330
1B0
100
AcDbEntity
  8
DEFAULT
 62
   179
100
AcDbLine
 10
250.7483793911
 20
219.1351055248
 30
0.0
 11
250.7483793911
 21
188.4499244938
 31
0.0
  0
LINE
  5
1B5
330
1B0
100
AcDbEntity
  8
DEFAULT
 62
   179
100
AcDbLine
 10
164.2483793911
 20
190.1999245478
 30
0.0
 11
250.7483758744
 21
190.1999245478
 31
0.0
  0
MTEXT
  5
1B6
330
1B0
100
AcDbEntity
  8
DEFAULT
 62
   179
100
AcDbMText
 10
203.9983776327
 20
194.6159583374
 30
0.0
 40
3.5
 41
0.0
 71
     1
 72
     1
  1
86,5
  7
SLDTEXTSTYLE2
 73
     1
 44
1.0
  0
ENDBLK
  5
1B2
330
1B0
100
AcDbEntity
  8
0
100
AcDbBlockEnd
  0
BLOCK
  5
1B9
330
1B8
100
AcDbEntity
  8
0
100
AcDbBlockBegin
  2
_D_4
 70
     0
 10
0.0
 20
0.0
 30
0.0
  3
_D_4
  1

  0
LINE
  5
1BB
330
1B8
100
AcDbEntity
  8
DEFAULT
 62
   179
100
AcDbLine
 10
250.7483793911
 20
219.1351055248
 30
0.0
 11
250.7483793911
 21
188.4499244938
 31
0.0
  0
LINE
  5
1BC
330
1B8
100
AcDbEntity
  8
DEFAULT
 62
   179
100
AcDbLine
 10
265.7483793911
 20
221.9351055248
 30
0.0
 11
265.7483793911
 21
188.4499244938
 31
0.0
  0
LINE
  5
1BD
330
1B8
100
AcDbEntity
  8
DEFAULT
 62
   179
100
AcDbLine
 10
250.7483793911
 20
190.1999245478
 30
0.0
 11
265.7483790558
 21
190.1999245478
 31
0.0
  0
MTEXT
  5
1BE
330
1B8
100
AcDbEntity
  8
DEFAULT
 62
   179
100
AcDbMText
 10
256.5381519507
 20
194.6159583374
 30
0.0
 40
3.5
 41
0.0
 71
     1
 72
     1
  1
15
  7
SLDTEXTSTYLE2
 73
     1
 44
1.0
  0
ENDBLK
  5
1BA
330
1B8
100
AcDbEntity
  8
0
100
AcDbBlockEnd
  0
BLOCK
  5
1C1
330
1C0
100
AcDbEntity
  8
0
100
AcDbBlockBegin
  2
_D_5
 70
     0
 10
0.0
 20
0.0
 30
0.0
  3
_D_5
  1

  0
LINE
  5
1C3
330
1C0
100
AcDbEntity
  8
DEFAULT
 62
   179
100
AcDbLine
 10
265.7483793911
 20
221.9351055248
 30
0.0
 11
265.7483793911
 21
188.4499236623
 31
0.0
  0
LINE
  5
1C4
330
1C0
100
AcDbEntity
  8
DEFAULT
 62
   179
100
AcDbLine
 10
287.7483313911
 20
213.9151054843
 30
0.0
 11
287.7483313911
 21
188.4499236623
 31
0.0
  0
LINE
  5
1C5
330
1C0
100
AcDbEntity
  8
DEFAULT
 62
   179
100
AcDbLine
 10
265.7483793911
 20
190.1999237164
 30
0.0
 11
287.7483308431
 21
190.1999237164
 31
0.0
  0
MTEXT
  5
1C6
330
1C0
100
AcDbEntity
  8
DEFAULT
 62
   179
100
AcDbMText
 10
274.6006278443
 20
194.615957506
 30
0.0
 40
3.5
 41
0.0
 71
     1
 72
     1
  1
22
  7
SLDTEXTSTYLE2
 73
     1
 44
1.0
  0
ENDBLK
  5
1C2
330
1C0
100
AcDbEntity
  8
0
100
AcDbBlockEnd
  0
BLOCK
  5
1C9
330
1C8
100
AcDbEntity
  8
0
100
AcDbBlockBegin
  2
_D_6
 70
     0
 10
0.0
 20
0.0
 30
0.0
  3
_D_6
  1

  0
LINE
  5
1CB
330
1C8
100
AcDbEntity
  8
DEFAULT
 62
   179
100
AcDbLine
 10
40.7483793911
 20
211.4151055402
 30
0.0
 11
40.7483793911
 21
172.8076406698
 31
0.0
  0
LINE
  5
1CC
330
1C8
100
AcDbEntity
  8
DEFAULT
 62
   179
100
AcDbLine
 10
287.7483313911
 20
213.9151054843
 30
0.0
 11
287.7483313911
 21
172.8076406698
 31
0.0
  0
LINE
  5
1CD
330
1C8
100
AcDbEntity
  8
DEFAULT
 62
   179
100
AcDbLine
 10
40.7483793911
 20
174.5576407238
 30
0.0
 11
287.7483286079
 21
174.5576407238
 31
0.0
  0
MTEXT
  5
1CE
330
1C8
100
AcDbEntity
  8
DEFAULT
 62
   179
100
AcDbMText
 10
161.0267630904
 20
178.9736745134
 30
0.0
 40
3.5
 41
0.0
 71
     1
 72
     1
  1
247
  7
SLDTEXTSTYLE2
 73
     1
 44
1.0
  0
ENDBLK
  5
1CA
330
1C8
100
AcDbEntity
  8
0
100
AcDbBlockEnd
  0
BLOCK
  5
1D1
330
1D0
100
AcDbEntity
  8
0
100
AcDbBlockBegin
  2
_D_7
 70
     0
 10
0.0
 20
0.0
 30
0.0
  3
_D_7
  1

  0
LINE
  5
1D3
330
1D0
100
AcDbEntity
  8
DEFAULT
 62
   179
100
AcDbLine
 10
40.7483793911
 20
213.9151054843
 30
0.0
 11
40.7483793911
 21
246.9208946395
 31
0.0
  0
LINE
  5
1D4
330
1D0
100
AcDbEntity
  8
DEFAULT
 62
   179
100
AcDbLine
 10
50.7483793911
 20
228.0851055248
 30
0.0
 11
50.7483793911
 21
246.9208946395
 31
0.0
  0
LINE
  5
1D5
330
1D0
100
AcDbEntity
  8
DEFAULT
 62
   179
100
AcDbLine
 10
33.748379175
 20
245.1708945854
 30
0.0
 11
57.7483803149
 21
245.1708945854
 31
0.0
  0
MTEXT
  5
1D6
330
1D0
100
AcDbEntity
  8
DEFAULT
 62
   179
100
AcDbMText
 10
43.9983792793
 20
249.586928375
 30
0.0
 40
3.5
 41
0.0
 71
     1
 72
     1
  1
10
  7
SLDTEXTSTYLE2
 73
     1
 44
1.0
  0
ENDBLK
  5
1D2
330
1D0
100
AcDbEntity
  8
0
100
AcDbBlockEnd
  0
BLOCK
  5
1D9
330
1D8
100
AcDbEntity
  8
0
100
AcDbBlockBegin
  2
_D_8
 70
     0
 10
0.0
 20
0.0
 30
0.0
  3
_D_8
  1

  0
LINE
  5
1DB
330
1D8
100
AcDbEntity
  8
DEFAULT
 62
   179
100
AcDbLine
 10
50.7483793911
 20
228.0851055248
 30
0.0
 11
50.7483793911
 21
246.9208943504
 31
0.0
  0
LINE
  5
1DC
330
1D8
100
AcDbEntity
  8
DEFAULT
 62
   179
100
AcDbLine
 10
55.8500173911
 20
229.6629815248
 30
0.0
 11
55.8500173911
 21
246.9208943504
 31
0.0
  0
LINE
  5
1DD
330
1D8
100
AcDbEntity
  8
DEFAULT
 62
   179
100
AcDbLine
 10
43.748379175
 20
245.1708942963
 30
0.0
 11
67.0817377534
 21
245.1708942963
 31
0.0
  0
MTEXT
  5
1DE
330
1D8
100
AcDbEntity
  8
DEFAULT
 62
   179
100
AcDbMText
 10
61.799920338
 20
249.5869280859
 30
0.0
 40
3.5
 41
0.0
 71
     1
 72
     1
  1
5,1
  7
SLDTEXTSTYLE2
 73
     1
 44
1.0
  0
ENDBLK
  5
1DA
330
1D8
100
AcDbEntity
  8
0
100
AcDbBlockEnd
  0
BLOCK
  5
1E1
330
1E0
100
AcDbEntity
  8
0
100
AcDbBlockBegin
  2
_D_9
 70
     0
 10
0.0
 20
0.0
 30
0.0
  3
_D_9
  1

  0
LINE
  5
1E3
330
1E0
100
AcDbEntity
  8
DEFAULT
 62
   179
100
AcDbLine
 10
55.8500173911
 20
229.6629815248
 30
0.0
 11
55.8500173911
 21
246.9208947735
 31
0.0
  0
LINE
  5
1E4
330
1E0
100
AcDbEntity
  8
DEFAULT
 62
   179
100
AcDbLine
 10
272.6466923911
 20
228.0851055248
 30
0.0
 11
272.6466923911
 21
246.9208947735
 31
0.0
  0
LINE
  5
1E5
330
1E0
100
AcDbEntity
  8
DEFAULT
 62
   179
100
AcDbLine
 10
55.8500173911
 20
245.1708947194
 30
0.0
 11
272.646698676
 21
245.1708947194
 31
0.0
  0
MTEXT
  5
1E6
330
1E0
100
AcDbEntity
  8
DEFAULT
 62
   179
100
AcDbMText
 10
159.9529034881
 20
249.586928509
 30
0.0
 40
3.5
 41
0.0
 71
     1
 72
     1
  1
216,8
  7
SLDTEXTSTYLE2
 73
     1
 44
1.0
  0
ENDBLK
  5
1E2
330
1E0
100
AcDbEntity
  8
0
100
AcDbBlockEnd
  0
BLOCK
  5
1E9
330
1E8
100
AcDbEntity
  8
0
100
AcDbBlockBegin
  2
_D_10
 70
     0
 10
0.0
 20
0.0
 30
0.0
  3
_D_10
  1

  0
LINE
  5
1EB
330
1E8
100
AcDbEntity
  8
DEFAULT
 62
   179
100
AcDbLine
 10
272.6466923911
 20
228.0851055248
 30
0.0
 11
272.6466923911
 21
246.9208943504
 31
0.0
  0
LINE
  5
1EC
330
1E8
100
AcDbEntity
  8
DEFAULT
 62
   179
100
AcDbLine
 10
277.7483313911
 20
228.0851055248
 30
0.0
 11
277.7483313911
 21
246.9208943504
 31
0.0
  0
LINE
  5
1ED
330
1E8
100
AcDbEntity
  8
DEFAULT
 62
   179
100
AcDbLine
 10
258.8934654328
 20
245.1708942963
 30
0.0
 11
284.7483314532
 21
245.1708942963
 31
0.0
  0
MTEXT
  5
1EE
330
1E8
100
AcDbEntity
  8
DEFAULT
 62
   179
100
AcDbMText
 10
260.1184655977
 20
249.5869280859
 30
0.0
 40
3.5
 41
0.0
 71
     1
 72
     1
  1
5,1
  7
SLDTEXTSTYLE2
 73
     1
 44
1.0
  0
ENDBLK
  5
1EA
330
1E8
100
AcDbEntity
  8
0
100
AcDbBlockEnd
  0
BLOCK
  5
1F1
330
1F0
100
AcDbEntity
  8
0
100
AcDbBlockBegin
  2
_D_11
 70
     0
 10
0.0
 20
0.0
 30
0.0
  3
_D_11
  1

  0
LINE
  5
1F3
330
1F0
100
AcDbEntity
  8
DEFAULT
 62
   179
100
AcDbLine
 10
277.7483313911
 20
228.0851055248
 30
0.0
 11
277.7483313911
 21
246.9208943504
 31
0.0
  0
LINE
  5
1F4
330
1F0
100
AcDbEntity
  8
DEFAULT
 62
   179
100
AcDbLine
 10
287.7483313911
 20
213.9151054843
 30
0.0
 11
287.7483313911
 21
246.9208943504
 31
0.0
  0
LINE
  5
1F5
330
1F0
100
AcDbEntity
  8
DEFAULT
 62
   179
100
AcDbLine
 10
270.748331175
 20
245.1708942963
 30
0.0
 11
294.7483323149
 21
245.1708942963
 31
0.0
  0
MTEXT
  5
1F6
330
1F0
100
AcDbEntity
  8
DEFAULT
 62
   179
100
AcDbMText
 10
280.9983312793
 20
249.5869280859
 30
0.0
 40
3.5
 41
0.0
 71
     1
 72
     1
  1
10
  7
SLDTEXTSTYLE2
 73
     1
 44
1.0
  0
ENDBLK
  5
1F2
330
1F0
100
AcDbEntity
  8
0
100
AcDbBlockEnd
  0
BLOCK
  5
1FA
330
1F9
100
AcDbEntity
  8
0
100
AcDbBlockBegin
  2
_D_12
 70
     0
 10
0.0
 20
0.0
 30
0.0
  3
_D_12
  1

  0
LINE
  5
1FC
330
1F9
100
AcDbEntity
  8
DEFAULT
 62
   179
100
AcDbLine
 10
50.7483793911
 20
228.0851055248
 30
0.0
 11
50.7483793911
 21
256.2898802417
 31
0.0
  0
LINE
  5
1FD
330
1F9
100
AcDbEntity
  8
DEFAULT
 62
   179
100
AcDbLine
 10
98.4983793911
 20
221.0151055248
 30
0.0
 11
98.4983793911
 21
256.2898802417
 31
0.0
  0
LINE
  5
1FE
330
1F9
100
AcDbEntity
  8
DEFAULT
 62
   179
100
AcDbLine
 10
50.7483793911
 20
254.5398801877
 30
0.0
 11
98.4983793017
 21
254.5398801877
 31
0.0
  0
MTEXT
  5
1FF
330
1F9
100
AcDbEntity
  8
DEFAULT
 62
   179
100
AcDbMText
 10
70.04951571
 20
258.9559139773
 30
0.0
 40
3.5
 41
0.0
 71
     1
 72
     1
  1
47,75
  7
SLDTEXTSTYLE2
 73
     1
 44
1.0
  0
ENDBLK
  5
1FB
330
1F9
100
AcDbEntity
  8
0
100
AcDbBlockEnd
  0
BLOCK
  5
202
330
201
100
AcDbEntity
  8
0
100
AcDbBlockBegin
  2
_D_13
 70
     0
 10
0.0
 20
0.0
 30
0.0
  3
_D_13
  1

  0
LINE
  5
204
330
201
100
AcDbEntity
  8
DEFAULT
 62
   179
100
AcDbLine
 10
98.4983793911
 20
221.0151055248
 30
0.0
 11
98.4983793911
 21
256.2898795938
 31
0.0
  0
LINE
  5
205
330
201
100
AcDbEntity
  8
DEFAULT
 62
   179
100
AcDbLine
 10
143.4983793911
 20
221.0151055248
 30
0.0
 11
143.4983793911
 21
256.2898795938
 31
0.0
  0
LINE
  5
206
330
201
100
AcDbEntity
  8
DEFAULT
 62
   179
100
AcDbLine
 10
98.4983793911
 20
254.5398795398
 30
0.0
 11
143.4983811792
 21
254.5398795398
 31
0.0
  0
MTEXT
  5
207
330
201
100
AcDbEntity
  8
DEFAULT
 62
   179
100
AcDbMText
 10
118.9699711942
 20
258.9559133294
 30
0.0
 40
3.5
 41
0.0
 71
     1
 72
     1
  1
45
  7
SLDTEXTSTYLE2
 73
     1
 44
1.0
  0
ENDBLK
  5
203
330
201
100
AcDbEntity
  8
0
100
AcDbBlockEnd
  0
BLOCK
  5
20A
330
209
100
AcDbEntity
  8
0
100
AcDbBlockBegin
  2
_D_14
 70
     0
 10
0.0
 20
0.0
 30
0.0
  3
_D_14
  1

  0
LINE
  5
20C
330
209
100
AcDbEntity
  8
DEFAULT
 62
   179
100
AcDbLine
 10
143.4983793911
 20
221.0151055248
 30
0.0
 11
143.4983793911
 21
256.2898795938
 31
0.0
  0
LINE
  5
20D
330
209
100
AcDbEntity
  8
DEFAULT
 62
   179
100
AcDbLine
 10
184.9983793911
 20
221.0151055248
 30
0.0
 11
184.9983793911
 21
256.2898795938
 31
0.0
  0
LINE
  5
20E
330
209
100
AcDbEntity
  8
DEFAULT
 62
   179
100
AcDbLine
 10
143.4983793911
 20
254.5398795398
 30
0.0
 11
184.9983778115
 21
254.5398795398
 31
0.0
  0
MTEXT
  5
20F
330
209
100
AcDbEntity
  8
DEFAULT
 62
   179
100
AcDbMText
 10
161.1858786013
 20
258.9559133294
 30
0.0
 40
3.5
 41
0.0
 71
     1
 72
     1
  1
41,5
  7
SLDTEXTSTYLE2
 73
     1
 44
1.0
  0
ENDBLK
  5
20B
330
209
100
AcDbEntity
  8
0
100
AcDbBlockEnd
  0
BLOCK
  5
212
330
211
100
AcDbEntity
  8
0
100
AcDbBlockBegin
  2
_D_15
 70
     0
 10
0.0
 20
0.0
 30
0.0
  3
_D_15
  1

  0
LINE
  5
214
330
211
100
AcDbEntity
  8
DEFAULT
 62
   179
100
AcDbLine
 10
184.9983793911
 20
221.0151055248
 30
0.0
 11
184.9983793911
 21
256.2898795938
 31
0.0
  0
LINE
  5
215
330
211
100
AcDbEntity
  8
DEFAULT
 62
   179
100
AcDbLine
 10
229.9983793911
 20
221.0151055248
 30
0.0
 11
229.9983793911
 21
256.2898795938
 31
0.0
  0
LINE
  5
216
330
211
100
AcDbEntity
  8
DEFAULT
 62
   179
100
AcDbLine
 10
184.9983793911
 20
254.5398795398
 30
0.0
 11
229.9983811792
 21
254.5398795398
 31
0.0
  0
MTEXT
  5
217
330
211
100
AcDbEntity
  8
DEFAULT
 62
   179
100
AcDbMText
 10
205.4699711942
 20
258.9559133294
 30
0.0
 40
3.5
 41
0.0
 71
     1
 72
     1
  1
45
  7
SLDTEXTSTYLE2
 73
     1
 44
1.0
  0
ENDBLK
  5
213
330
211
100
AcDbEntity
  8
0
100
AcDbBlockEnd
  0
BLOCK
  5
21A
330
219
100
AcDbEntity
  8
0
100
AcDbBlockBegin
  2
_D_16
 70
     0
 10
0.0
 20
0.0
 30
0.0
  3
_D_16
  1

  0
LINE
  5
21C
330
219
100
AcDbEntity
  8
DEFAULT
 62
   179
100
AcDbLine
 10
229.9983793911
 20
221.0151055248
 30
0.0
 11
229.9983793911
 21
256.2898795938
 31
0.0
  0
LINE
  5
21D
330
219
100
AcDbEntity
  8
DEFAULT
 62
   179
100
AcDbLine
 10
277.7483313911
 20
221.1251055046
 30
0.0
 11
277.7483313911
 21
256.2898795938
 31
0.0
  0
LINE
  5
21E
330
219
100
AcDbEntity
  8
DEFAULT
 62
   179
100
AcDbLine
 10
229.9983793911
 20
254.5398795398
 30
0.0
 11
277.7483308729
 21
254.5398795398
 31
0.0
  0
MTEXT
  5
21F
330
219
100
AcDbEntity
  8
DEFAULT
 62
   179
100
AcDbMText
 10
249.2994914956
 20
258.9559133294
 30
0.0
 40
3.5
 41
0.0
 71
     1
 72
     1
  1
47,75
  7
SLDTEXTSTYLE2
 73
     1
 44
1.0
  0
ENDBLK
  5
21B
330
219
100
AcDbEntity
  8
0
100
AcDbBlockEnd
  0
BLOCK
  5
222
330
221
100
AcDbEntity
  8
0
100
AcDbBlockBegin
  2
_D_17
 70
     0
 10
0.0
 20
0.0
 30
0.0
  3
_D_17
  1

  0
LINE
  5
224
330
221
100
AcDbEntity
  8
DEFAULT
 62
   179
100
AcDbLine
 10
283.2483313911
 20
211.4151054843
 30
0.0
 11
301.681360456
 21
211.4151054843
 31
0.0
  0
LINE
  5
225
330
221
100
AcDbEntity
  8
DEFAULT
 62
   179
100
AcDbLine
 10
250.7483793911
 20
219.1351055248
 30
0.0
 11
301.681360456
 21
219.1351055248
 31
0.0
  0
LINE
  5
226
330
221
100
AcDbEntity
  8
DEFAULT
 62
   179
100
AcDbLine
 10
299.931360402
 20
200.2854952439
 30
0.0
 11
299.931360402
 21
226.1351058109
 31
0.0
  0
MTEXT
  5
227
330
221
100
AcDbEntity
  8
DEFAULT
 62
   179
100
AcDbMText
 10
295.5153266124
 20
201.5104950518
 30
0.0
 40
3.5
 41
0.0
 71
     1
 72
     1
  1
7,72
  7
SLDTEXTSTYLE2
 11
6.123233995736766E-17
 21
1.0
 31
0.0
 73
     1
 44
1.0
  0
ENDBLK
  5
223
330
221
100
AcDbEntity
  8
0
100
AcDbBlockEnd
  0
BLOCK
  5
22A
330
229
100
AcDbEntity
  8
0
100
AcDbBlockBegin
  2
_D_18
 70
     0
 10
0.0
 20
0.0
 30
0.0
  3
_D_18
  1

  0
LINE
  5
22C
330
229
100
AcDbEntity
  8
DEFAULT
 62
   179
100
AcDbLine
 10
50.7483793911
 20
211.4151054843
 30
0.0
 11
105.7101205945
 21
211.4151054843
 31
0.0
  0
LINE
  5
22D
330
229
100
AcDbEntity
  8
DEFAULT
 62
   179
100
AcDbLine
 10
100.4983793911
 20
214.7651055248
 30
0.0
 11
105.7101205945
 21
214.7651055248
 31
0.0
  0
LINE
  5
22E
330
229
100
AcDbEntity
  8
DEFAULT
 62
   179
100
AcDbLine
 10
103.9601205405
 20
201.2400403469
 30
0.0
 11
103.9601205405
 21
221.7651055976
 31
0.0
  0
MTEXT
  5
22F
330
229
100
AcDbEntity
  8
DEFAULT
 62
   179
100
AcDbMText
 10
99.5440867509
 20
202.4650405064
 30
0.0
 40
3.5
 41
0.0
 71
     1
 72
     1
  1
3,35
  7
SLDTEXTSTYLE2
 11
6.123233995736766E-17
 21
1.0
 31
0.0
 73
     1
 44
1.0
  0
ENDBLK
  5
22B
330
229
100
AcDbEntity
  8
0
100
AcDbBlockEnd
  0
BLOCK
  5
232
330
231
100
AcDbEntity
  8
0
100
AcDbBlockBegin
  2
_D_19
 70
     0
 10
0.0
 20
0.0
 30
0.0
  3
_D_19
  1

  0
LINE
  5
234
330
231
100
AcDbEntity
  8
DEFAULT
 62
   179
100
AcDbLine
 10
100.4983793911
 20
214.7651055248
 30
0.0
 11
105.7101205889
 21
214.7651055248
 31
0.0
  0
LINE
  5
235
330
231
100
AcDbEntity
  8
DEFAULT
 62
   179
100
AcDbLine
 10
105.9983794042
 20
227.2651055248
 30
0.0
 11
102.2101204809
 21
227.2651055248
 31
0.0
  0
LINE
  5
236
330
231
100
AcDbEntity
  8
DEFAULT
 62
   179
100
AcDbLine
 10
103.9601205349
 20
214.7651055248
 30
0.0
 11
103.9601205349
 21
227.2651057111
 31
0.0
  0
MTEXT
  5
237
330
231
100
AcDbEntity
  8
DEFAULT
 62
   179
100
AcDbMText
 10
99.5440867453
 20
217.9128328907
 30
0.0
 40
3.5
 41
0.0
 71
     1
 72
     1
  1
12,5
  7
SLDTEXTSTYLE2
 11
6.123233995736766E-17
 21
1.0
 31
0.0
 73
     1
 44
1.0
  0
ENDBLK
  5
233
330
231
100
AcDbEntity
  8
0
100
AcDbBlockEnd
  0
BLOCK
  5
23A
330
239
100
AcDbEntity
  8
0
100
AcDbBlockBegin
  2
_D_20
 70
     0
 10
0.0
 20
0.0
 30
0.0
  3
_D_20
  1

  0
LINE
  5
23C
330
239
100
AcDbEntity
  8
DEFAULT
 62
   179
100
AcDbLine
 10
105.9983794042
 20
227.2651055248
 30
0.0
 11
102.2101205238
 21
227.2651055248
 31
0.0
  0
LINE
  5
23D
330
239
100
AcDbEntity
  8
DEFAULT
 62
   179
100
AcDbLine
 10
56.0902630709
 20
232.4129815248
 30
0.0
 11
105.7101206319
 21
232.4129815248
 31
0.0
  0
LINE
  5
23E
330
239
100
AcDbEntity
  8
DEFAULT
 62
   179
100
AcDbLine
 10
103.9601205779
 20
220.2651053088
 30
0.0
 11
103.9601205779
 21
243.2611295374
 31
0.0
  0
MTEXT
  5
23F
330
239
100
AcDbEntity
  8
DEFAULT
 62
   179
100
AcDbMText
 10
99.5440867883
 20
235.9906739296
 30
0.0
 40
3.5
 41
0.0
 71
     1
 72
     1
  1
5,15
  7
SLDTEXTSTYLE2
 11
6.123233995736766E-17
 21
1.0
 31
0.0
 73
     1
 44
1.0
  0
ENDBLK
  5
23B
330
239
100
AcDbEntity
  8
0
100
AcDbBlockEnd
  0
BLOCK
  5
242
330
241
100
AcDbEntity
  8
0
100
AcDbBlockBegin
  2
_D_21
 70
     0
 10
0.0
 20
0.0
 30
0.0
  3
_D_21
  1

  0
LINE
  5
244
330
241
100
AcDbEntity
  8
DEFAULT
 62
   179
100
AcDbLine
 10
120.9983793911
 20
226.4151055248
 30
0.0
 11
124.3037763875
 21
226.4151055248
 31
0.0
  0
LINE
  5
245
330
241
100
AcDbEntity
  8
DEFAULT
 62
   179
100
AcDbLine
 10
122.5537763335
 20
219.4151053088
 30
0.0
 11
122.5537763335
 21
244.0796274574
 31
0.0
  0
MTEXT
  5
246
330
241
100
AcDbEntity
  8
DEFAULT
 62
   179
100
AcDbMText
 10
118.1377425439
 20
235.6955363618
 30
0.0
 40
3.5
 41
0.0
 71
     1
 72
     1
  1
6
  7
SLDTEXTSTYLE2
 11
6.123233995736766E-17
 21
1.0
 31
0.0
 73
     1
 44
1.0
  0
MTEXT
  5
247
330
241
100
AcDbEntity
  8
DEFAULT
 62
   179
100
AcDbMText
 10
117.1082594387
 20
239.5932636345
 30
0.0
 40
1.75
 41
0.0
 71
     1
 72
     1
  1
+0.3
  7
SLDTEXTSTYLE2
 11
6.123233995736766E-17
 21
1.0
 31
0.0
 73
     1
 44
1.0
  0
MTEXT
  5
248
330
241
100
AcDbEntity
  8
DEFAULT
 62
   179
100
AcDbMText
 10
119.9082594387
 20
240.5875818164
 30
0.0
 40
1.75
 41
0.0
 71
     1
 72
     1
  1
0
  7
SLDTEXTSTYLE2
 11
6.123233995736766E-17
 21
1.0
 31
0.0
 73
     1
 44
1.0
  0
ENDBLK
  5
243
330
241
100
AcDbEntity
  8
0
100
AcDbBlockEnd
  0
BLOCK
  5
24C
330
24B
100
AcDbEntity
  8
0
100
AcDbBlockBegin
  2
_D_22
 70
     0
 10
0.0
 20
0.0
 30
0.0
  3
_D_22
  1

  0
LINE
  5
24E
330
24B
100
AcDbEntity
  8
DEFAULT
 62
   179
100
AcDbLine
 10
141.4983793911
 20
216.7651055248
 30
0.0
 11
154.6396998101
 21
194.8686368175
 31
0.0
  0
MTEXT
  5
24F
330
24B
100
AcDbEntity
  8
DEFAULT
 62
   179
100
AcDbMText
 10
155.0859673958
 20
202.7066273894
 30
0.0
 40
3.5
 41
0.0
 71
     1
 72
     1
  1
R
  7
SLDTEXTSTYLE2
 11
0.5145947768512583
 21
-0.8574335050821164
 31
0.0
 73
     1
 44
1.0
  0
MTEXT
  5
250
330
24B
100
AcDbEntity
  8
DEFAULT
 62
   179
100
AcDbMText
 10
156.6905674727
 20
200.0329938236
 30
0.0
 40
3.5
 41
0.0
 71
     1
 72
     1
  1
2
  7
SLDTEXTSTYLE2
 11
0.5145947768512583
 21
-0.8574335050821164
 31
0.0
 73
     1
 44
1.0
  0
MTEXT
  5
251
330
24B
100
AcDbEntity
  8
DEFAULT
 62
   179
100
AcDbMText
 10
151.7621529508
 20
208.2448683472
 30
0.0
 40
3.5
 41
0.0
 71
     1
 72
     1
  1
8x
  7
SLDTEXTSTYLE2
 11
0.5145947768512583
 21
-0.8574335050821164
 31
0.0
 73
     1
 44
1.0
  0
ENDBLK
  5
24D
330
24B
100
AcDbEntity
  8
0
100
AcDbBlockEnd
  0
BLOCK
  5
255
330
254
100
AcDbEntity
  8
0
100
AcDbBlockBegin
  2
_D_23
 70
     0
 10
0.0
 20
0.0
 30
0.0
  3
_D_23
  1

  0
LINE
  5
257
330
254
100
AcDbEntity
  8
DEFAULT
 62
   179
100
AcDbLine
 10
332.8397910948
 20
198.9808178631
 30
0.0
 11
345.2488820039
 21
198.9808178631
 31
0.0
  0
LINE
  5
258
330
254
100
AcDbEntity
  8
DEFAULT
 62
   179
100
AcDbLine
 10
327.4543363074
 20
211.4151054843
 30
0.0
 11
327.4543363074
 21
196.7137723545
 31
0.0
  0
LINE
  5
259
330
254
100
AcDbEntity
  8
DEFAULT
 62
   179
100
AcDbLine
 10
350.6343363074
 20
214.1651054843
 30
0.0
 11
350.6343363074
 21
196.7137723545
 31
0.0
  0
LINE
  5
25A
330
254
100
AcDbEntity
  8
DEFAULT
 62
   179
100
AcDbLine
 10
327.4543363074
 20
198.4637724085
 30
0.0
 11
350.6343367914
 21
198.4637724085
 31
0.0
  0
MTEXT
  5
25B
330
254
100
AcDbEntity
  8
DEFAULT
 62
   179
100
AcDbMText
 10
332.8397910948
 20
203.3173061981
 30
0.0
 40
3.5
 41
0.0
 71
     1
 72
     1
  1
23
  7
SLDTEXTSTYLE2
 73
     1
 44
1.0
  0
MTEXT
  5
25C
330
254
100
AcDbEntity
  8
DEFAULT
 62
   179
100
AcDbMText
 10
338.5670638221
 20
203.3173061981
 30
0.0
 40
3.5
 41
0.0
 71
     1
 72
     1
  1
±0.3
  7
SLDTEXTSTYLE2
 73
     1
 44
1.0
  0
ENDBLK
  5
256
330
254
100
AcDbEntity
  8
0
100
AcDbBlockEnd
  0
BLOCK
  5
25F
330
25E
100
AcDbEntity
  8
0
100
AcDbBlockBegin
  2
_D_24
 70
     0
 10
0.0
 20
0.0
 30
0.0
  3
_D_24
  1

  0
LINE
  5
261
330
25E
100
AcDbEntity
  8
DEFAULT
 62
   179
100
AcDbLine
 10
338.9543363074
 20
211.4151054843
 30
0.0
 11
366.316454084
 21
211.4151054843
 31
0.0
  0
LINE
  5
262
330
25E
100
AcDbEntity
  8
DEFAULT
 62
   179
100
AcDbLine
 10
347.8843361608
 20
232.4129815248
 30
0.0
 11
366.316454084
 21
232.4129815248
 31
0.0
  0
LINE
  5
263
330
25E
100
AcDbEntity
  8
DEFAULT
 62
   179
100
AcDbLine
 10
364.56645403
 20
211.4151054843
 30
0.0
 11
364.56645403
 21
232.4129817857
 31
0.0
  0
MTEXT
  5
264
330
25E
100
AcDbEntity
  8
DEFAULT
 62
   179
100
AcDbMText
 10
360.1504202404
 20
215.8288163623
 30
0.0
 40
3.5
 41
0.0
 71
     1
 72
     1
  1
21
  7
SLDTEXTSTYLE2
 11
6.123233995736766E-17
 21
1.0
 31
0.0
 73
     1
 44
1.0
  0
MTEXT
  5
265
330
25E
100
AcDbEntity
  8
DEFAULT
 62
   179
100
AcDbMText
 10
360.1504202404
 20
221.1583618168
 30
0.0
 40
3.5
 41
0.0
 71
     1
 72
     1
  1
±0.5
  7
SLDTEXTSTYLE2
 11
6.123233995736766E-17
 21
1.0
 31
0.0
 73
     1
 44
1.0
  0
ENDBLK
  5
260
330
25E
100
AcDbEntity
  8
0
100
AcDbBlockEnd
  0
BLOCK
  5
268
330
267
100
AcDbEntity
  8
0
100
AcDbBlockBegin
  2
_D_25
 70
     0
 10
0.0
 20
0.0
 30
0.0
  3
_D_25
  1

  0
LINE
  5
26A
330
267
100
AcDbEntity
  8
DEFAULT
 62
   179
100
AcDbLine
 10
341.2937282519
 20
242.6611543384
 30
0.0
 11
351.9528191609
 21
242.6611543384
 31
0.0
  0
LINE
  5
26B
330
267
100
AcDbEntity
  8
DEFAULT
 62
   179
100
AcDbLine
 10
342.6122112669
 20
229.9129815248
 30
0.0
 11
342.6122112669
 21
243.8941089378
 31
0.0
  0
LINE
  5
26C
330
267
100
AcDbEntity
  8
DEFAULT
 62
   179
100
AcDbLine
 10
350.6343363074
 20
221.1251055046
 30
0.0
 11
350.6343363074
 21
243.8941089378
 31
0.0
  0
LINE
  5
26D
330
267
100
AcDbEntity
  8
DEFAULT
 62
   179
100
AcDbLine
 10
335.6122110508
 20
242.1441088838
 30
0.0
 11
357.634336362
 21
242.1441088838
 31
0.0
  0
MTEXT
  5
26E
330
267
100
AcDbEntity
  8
DEFAULT
 62
   179
100
AcDbMText
 10
341.2937282519
 20
246.9976426734
 30
0.0
 40
3.5
 41
0.0
 71
     1
 72
     1
  1
8
  7
SLDTEXTSTYLE2
 73
     1
 44
1.0
  0
MTEXT
  5
26F
330
267
100
AcDbEntity
  8
DEFAULT
 62
   179
100
AcDbMText
 10
345.2710009791
 20
246.9976426734
 30
0.0
 40
3.5
 41
0.0
 71
     1
 72
     1
  1
±0.3
  7
SLDTEXTSTYLE2
 73
     1
 44
1.0
  0
ENDBLK
  5
269
330
267
100
AcDbEntity
  8
0
100
AcDbBlockEnd
  0
BLOCK
  5
272
330
271
100
AcDbEntity
  8
0
100
AcDbBlockBegin
  2
_D_26
 70
     0
 10
0.0
 20
0.0
 30
0.0
  3
_D_26
  1

  0
LINE
  5
274
330
271
100
AcDbEntity
  8
DEFAULT
 62
   179
100
AcDbLine
 10
63.7483793911
 20
102.8125714045
 30
0.0
 11
36.8059904289
 21
135.5956055615
 31
0.0
  0
MTEXT
  5
275
330
271
100
AcDbEntity
  8
DEFAULT
 62
   179
100
AcDbMText
 10
40.9954773595
 20
137.4530725913
 30
0.0
 40
3.5
 41
0.0
 71
     1
 72
     1
  1
R
  7
SLDTEXTSTYLE2
 11
0.6349289198771383
 21
-0.7725705577509736
 31
0.0
 73
     1
 44
1.0
  0
MTEXT
  5
276
330
271
100
AcDbEntity
  8
DEFAULT
 62
   179
100
AcDbMText
 10
42.9753011733
 20
135.0440571248
 30
0.0
 40
3.5
 41
0.0
 71
     1
 72
     1
  1
23
  7
SLDTEXTSTYLE2
 11
0.6349289198771383
 21
-0.7725705577509736
 31
0.0
 73
     1
 44
1.0
  0
ENDBLK
  5
273
330
271
100
AcDbEntity
  8
0
100
AcDbBlockEnd
  0
BLOCK
  5
27A
330
279
100
AcDbEntity
  8
0
100
AcDbBlockBegin
  2
_D_27
 70
     0
 10
0.0
 20
0.0
 30
0.0
  3
_D_27
  1

  0
LINE
  5
27C
330
279
100
AcDbEntity
  8
DEFAULT
 62
   179
100
AcDbLine
 10
287.7420508483
 20
126.2059611304
 30
0.0
 11
291.5249255683
 21
129.982698234
 31
0.0
  0
LINE
  5
27D
330
279
100
AcDbEntity
  8
DEFAULT
 62
   179
100
AcDbLine
 10
264.8895943911
 20
102.659962445
 30
0.0
 11
292.7571453441
 21
130.4822990169
 31
0.0
  0
MTEXT
  5
27E
330
279
100
AcDbEntity
  8
DEFAULT
 62
   179
100
AcDbMText
 10
284.6781811146
 20
129.274809992
 30
0.0
 40
3.5
 41
0.0
 71
     1
 72
     1
  1
R
  7
SLDTEXTSTYLE2
 11
0.7076806449102863
 21
0.7065324513561718
 31
0.0
 73
     1
 44
1.0
  0
MTEXT
  5
27F
330
279
100
AcDbEntity
  8
DEFAULT
 62
   179
100
AcDbMText
 10
286.8848580346
 20
131.4779066358
 30
0.0
 40
3.5
 41
0.0
 71
     1
 72
     1
  1
8
  7
SLDTEXTSTYLE2
 11
0.7076806449102863
 21
0.7065324513561718
 31
0.0
 73
     1
 44
1.0
  0
ENDBLK
  5
27B
330
279
100
AcDbEntity
  8
0
100
AcDbBlockEnd
  0
BLOCK
  5
282
330
281
100
AcDbEntity
  8
0
100
AcDbBlockBegin
  2
_D_28
 70
     0
 10
0.0
 20
0.0
 30
0.0
  3
_D_28
  1

  0
LINE
  5
284
330
281
100
AcDbEntity
  8
DEFAULT
 62
   179
100
AcDbLine
 10
40.7483793911
 20
102.8125714045
 30
0.0
 11
40.7483793911
 21
81.9053181447
 31
0.0
  0
LINE
  5
285
330
281
100
AcDbEntity
  8
DEFAULT
 62
   179
100
AcDbLine
 10
49.7483793911
 20
102.6358144045
 30
0.0
 11
49.7483793911
 21
81.9053181447
 31
0.0
  0
LINE
  5
286
330
281
100
AcDbEntity
  8
DEFAULT
 62
   179
100
AcDbLine
 10
33.748379175
 20
83.6553181987
 30
0.0
 11
56.748380151
 21
83.6553181987
 31
0.0
  0
MTEXT
  5
287
330
281
100
AcDbEntity
  8
DEFAULT
 62
   179
100
AcDbMText
 10
44.174515561
 20
88.0713519883
 30
0.0
 40
3.5
 41
0.0
 71
     1
 72
     1
  1
9
  7
SLDTEXTSTYLE2
 73
     1
 44
1.0
  0
ENDBLK
  5
283
330
281
100
AcDbEntity
  8
0
100
AcDbBlockEnd
  0
BLOCK
  5
28A
330
289
100
AcDbEntity
  8
0
100
AcDbBlockBegin
  2
_D_29
 70
     0
 10
0.0
 20
0.0
 30
0.0
  3
_D_29
  1

  0
LINE
  5
28C
330
289
100
AcDbEntity
  8
DEFAULT
 62
   179
100
AcDbLine
 10
55.8500173911
 20
102.6325714045
 30
0.0
 11
55.8500173911
 21
89.5788913328
 31
0.0
  0
LINE
  5
28D
330
289
100
AcDbEntity
  8
DEFAULT
 62
   179
100
AcDbLine
 10
272.6466923911
 20
102.6325714045
 30
0.0
 11
272.6466923911
 21
89.5788913328
 31
0.0
  0
LINE
  5
28E
330
289
100
AcDbEntity
  8
DEFAULT
 62
   179
100
AcDbLine
 10
55.8500173911
 20
91.3288913869
 30
0.0
 11
272.646698676
 21
91.3288913869
 31
0.0
  0
MTEXT
  5
28F
330
289
100
AcDbEntity
  8
DEFAULT
 62
   179
100
AcDbMText
 10
159.9529034881
 20
95.7449251765
 30
0.0
 40
3.5
 41
0.0
 71
     1
 72
     1
  1
216,8
  7
SLDTEXTSTYLE2
 73
     1
 44
1.0
  0
ENDBLK
  5
28B
330
289
100
AcDbEntity
  8
0
100
AcDbBlockEnd
  0
BLOCK
  5
292
330
291
100
AcDbEntity
  8
0
100
AcDbBlockBegin
  2
_D_30
 70
     0
 10
0.0
 20
0.0
 30
0.0
  3
_D_30
  1

  0
LINE
  5
294
330
291
100
AcDbEntity
  8
DEFAULT
 62
   179
100
AcDbLine
 10
287.7483313911
 20
102.6358144045
 30
0.0
 11
287.7483313911
 21
82.2004567053
 31
0.0
  0
LINE
  5
295
330
291
100
AcDbEntity
  8
DEFAULT
 62
   179
100
AcDbLine
 10
278.7483313911
 20
102.6358144045
 30
0.0
 11
278.7483313911
 21
82.2004567053
 31
0.0
  0
LINE
  5
296
330
291
100
AcDbEntity
  8
DEFAULT
 62
   179
100
AcDbLine
 10
294.7483316071
 20
83.9504567593
 30
0.0
 11
271.7483306311
 21
83.9504567593
 31
0.0
  0
MTEXT
  5
297
330
291
100
AcDbEntity
  8
DEFAULT
 62
   179
100
AcDbMText
 10
282.1744679484
 20
88.3664905489
 30
0.0
 40
3.5
 41
0.0
 71
     1
 72
     1
  1
9
  7
SLDTEXTSTYLE2
 73
     1
 44
1.0
  0
ENDBLK
  5
293
330
291
100
AcDbEntity
  8
0
100
AcDbBlockEnd
  0
BLOCK
  5
29A
330
299
100
AcDbEntity
  8
0
100
AcDbBlockBegin
  2
_D_31
 70
     0
 10
0.0
 20
0.0
 30
0.0
  3
_D_31
  1

  0
LINE
  5
29C
330
299
100
AcDbEntity
  8
DEFAULT
 62
   179
100
AcDbLine
 10
308.2684385274
 20
85.6426865536
 30
0.0
 11
308.2684385274
 21
96.3017774627
 31
0.0
  0
LINE
  5
29D
330
299
100
AcDbEntity
  8
DEFAULT
 62
   179
100
AcDbLine
 10
272.6466923911
 20
102.6325714045
 30
0.0
 11
310.535484036
 21
102.6325714045
 31
0.0
  0
LINE
  5
29E
330
299
100
AcDbEntity
  8
DEFAULT
 62
   179
100
AcDbLine
 10
264.8895944506
 20
110.654694445
 30
0.0
 11
310.535484036
 21
110.654694445
 31
0.0
  0
LINE
  5
29F
330
299
100
AcDbEntity
  8
DEFAULT
 62
   179
100
AcDbLine
 10
308.785483982
 20
84.417686259
 30
0.0
 11
308.785483982
 21
117.6546946369
 31
0.0
  0
MTEXT
  5
2A0
330
299
100
AcDbEntity
  8
DEFAULT
 62
   179
100
AcDbMText
 10
303.9319501924
 20
85.6426865536
 30
0.0
 40
3.5
 41
0.0
 71
     1
 72
     1
  1
8
  7
SLDTEXTSTYLE2
 11
6.123233995736766E-17
 21
1.0
 31
0.0
 73
     1
 44
1.0
  0
MTEXT
  5
2A1
330
299
100
AcDbEntity
  8
DEFAULT
 62
   179
100
AcDbMText
 10
303.9319501924
 20
89.6199592809
 30
0.0
 40
3.5
 41
0.0
 71
     1
 72
     1
  1
±0.3
  7
SLDTEXTSTYLE2
 11
6.123233995736766E-17
 21
1.0
 31
0.0
 73
     1
 44
1.0
  0
ENDBLK
  5
29B
330
299
100
AcDbEntity
  8
0
100
AcDbBlockEnd
  0
BLOCK
  5
2A4
330
2A3
100
AcDbEntity
  8
0
100
AcDbBlockBegin
  2
_D_32
 70
     0
 10
0.0
 20
0.0
 30
0.0
  3
_D_32
  1

  0
LINE
  5
2A6
330
2A3
100
AcDbEntity
  8
DEFAULT
 62
   179
100
AcDbLine
 10
272.6466923911
 20
102.6325714045
 30
0.0
 11
322.9312533937
 21
102.6325714045
 31
0.0
  0
LINE
  5
2A7
330
2A3
100
AcDbEntity
  8
DEFAULT
 62
   179
100
AcDbLine
 10
264.7483313911
 20
125.8125714045
 30
0.0
 11
322.9312533937
 21
125.8125714045
 31
0.0
  0
LINE
  5
2A8
330
2A3
100
AcDbEntity
  8
DEFAULT
 62
   179
100
AcDbLine
 10
321.1812533397
 20
102.6325714045
 30
0.0
 11
321.1812533397
 21
125.8125718884
 31
0.0
  0
MTEXT
  5
2A9
330
2A3
100
AcDbEntity
  8
DEFAULT
 62
   179
100
AcDbMText
 10
316.7652195501
 20
105.8702989192
 30
0.0
 40
3.5
 41
0.0
 71
     1
 72
     1
  1
23,18
  7
SLDTEXTSTYLE2
 11
6.123233995736766E-17
 21
1.0
 31
0.0
 73
     1
 44
1.0
  0
MTEXT
  5
2AA
330
2A3
100
AcDbEntity
  8
DEFAULT
 62
   179
100
AcDbMText
 10
316.7652195501
 20
115.8930261919
 30
0.0
 40
3.5
 41
0.0
 71
     1
 72
     1
  1
±0.3
  7
SLDTEXTSTYLE2
 11
6.123233995736766E-17
 21
1.0
 31
0.0
 73
     1
 44
1.0
  0
ENDBLK
  5
2A5
330
2A3
100
AcDbEntity
  8
0
100
AcDbBlockEnd
  0
BLOCK
  5
2AD
330
2AC
100
AcDbEntity
  8
0
100
AcDbBlockBegin
  2
_D_33
 70
     0
 10
0.0
 20
0.0
 30
0.0
  3
_D_33
  1

  0
LINE
  5
2AF
330
2AC
100
AcDbEntity
  8
DEFAULT
 62
   179
100
AcDbLine
 10
207.4983793911
 20
226.4151055248
 30
0.0
 11
210.7790381316
 21
226.4151055248
 31
0.0
  0
LINE
  5
2B0
330
2AC
100
AcDbEntity
  8
DEFAULT
 62
   179
100
AcDbLine
 10
209.0290380776
 20
214.7651055248
 30
0.0
 11
209.0290380776
 21
226.4151052924
 31
0.0
  0
MTEXT
  5
2B1
330
2AC
100
AcDbEntity
  8
DEFAULT
 62
   179
100
AcDbMText
 10
204.613004288
 20
216.7719235904
 30
0.0
 40
3.5
 41
0.0
 71
     1
 72
     1
  1
11,65
  7
SLDTEXTSTYLE2
 11
6.123233995736766E-17
 21
1.0
 31
0.0
 73
     1
 44
1.0
  0
ENDBLK
  5
2AE
330
2AC
100
AcDbEntity
  8
0
100
AcDbBlockEnd
  0
BLOCK
  5
2B5
330
2B4
100
AcDbEntity
  8
0
100
AcDbBlockBegin
  2
_D_34
 70
     0
 10
0.0
 20
0.0
 30
0.0
  3
_D_34
  1

  0
LINE
  5
2B7
330
2B4
100
AcDbEntity
  8
DEFAULT
 62
   179
100
AcDbLine
 10
73.1088452867
 20
216.9440383649
 30
0.0
 11
58.6942844658
 21
223.8881316
 31
0.0
  0
LINE
  5
2B8
330
2B4
100
AcDbEntity
  8
DEFAULT
 62
   179
100
AcDbLine
 10
58.6942841168
 20
223.8881317681
 30
0.0
 11
19.0014326055
 21
243.0098285775
 31
0.0
  0
MTEXT
  5
2B9
330
2B4
100
AcDbEntity
  8
DEFAULT
 62
   179
100
AcDbMText
 10
31.1368892989
 20
242.0654222219
 30
0.0
 40
3.5
 41
0.0
 71
     1
 72
     1
  1
9
  7
SLDTEXTSTYLE2
 11
0.9009100609556218
 21
-0.434005831837474
 31
0.0
 73
     1
 44
1.0
  0
MTEXT
  5
2BA
330
2B4
100
AcDbEntity
  8
DEFAULT
 62
   179
100
AcDbMText
 10
22.0216304405
 20
246.4566213823
 30
0.0
 40
3.5
 41
0.0
 71
     1
 72
     1
  1
5x
  7
SLDTEXTSTYLE2
 11
0.9009100609556218
 21
-0.434005831837474
 31
0.0
 73
     1
 44
1.0
  0
MTEXT
  5
2BB
330
2B4
100
AcDbEntity
  8
DEFAULT
 62
   179
100
AcDbMText
 10
26.6797449602
 20
244.2126139564
 30
0.0
 40
3.5
 41
0.0
 71
     1
 72
     1
  1
O
  7
SLDTEXTSTYLE2
 11
0.9009100609556218
 21
-0.434005831837474
 31
0.0
 73
     1
 44
1.0
  0
ENDBLK
  5
2B6
330
2B4
100
AcDbEntity
  8
0
100
AcDbBlockEnd
  0
BLOCK
  5
2BF
330
2BE
100
AcDbEntity
  8
0
100
AcDbBlockBegin
  2
_D_35
 70
     0
 10
0.0
 20
0.0
 30
0.0
  3
_D_35
  1

  0
LINE
  5
2C1
330
2BE
100
AcDbEntity
  8
DEFAULT
 62
   179
100
AcDbLine
 10
22.0716438327
 20
228.3625880009
 30
0.0
 11
26.0863789998
 21
227.7797713072
 31
0.0
  0
LINE
  5
2C2
330
2BE
100
AcDbEntity
  8
DEFAULT
 62
   179
100
AcDbLine
 10
72.644645563
 20
220.4984705063
 30
0.0
 11
59.779499552
 21
222.3660960286
 31
0.0
  0
LINE
  5
2C3
330
2BE
100
AcDbEntity
  8
DEFAULT
 62
   179
100
AcDbLine
 10
59.7794996036
 20
222.3660960211
 30
0.0
 11
10.7721943778
 21
229.4804570969
 31
0.0
  0
MTEXT
  5
2C4
330
2BE
100
AcDbEntity
  8
DEFAULT
 62
   179
100
AcDbMText
 10
22.6946389192
 20
232.6540921897
 30
0.0
 40
3.5
 41
0.0
 71
     1
 72
     1
  1
5,1
  7
SLDTEXTSTYLE2
 11
0.9896265958067366
 21
-0.1436634987460977
 31
0.0
 73
     1
 44
1.0
  0
MTEXT
  5
2C5
330
2BE
100
AcDbEntity
  8
DEFAULT
 62
   179
100
AcDbMText
 10
12.6189080668
 20
233.674694052
 30
0.0
 40
3.5
 41
0.0
 71
     1
 72
     1
  1
5x
  7
SLDTEXTSTYLE2
 11
0.9896265958067366
 21
-0.1436634987460977
 31
0.0
 73
     1
 44
1.0
  0
MTEXT
  5
2C6
330
2BE
100
AcDbEntity
  8
DEFAULT
 62
   179
100
AcDbMText
 10
17.7357273974
 20
232.9318884619
 30
0.0
 40
3.5
 41
0.0
 71
     1
 72
     1
  1
O
  7
SLDTEXTSTYLE2
 11
0.9896265958067366
 21
-0.1436634987460977
 31
0.0
 73
     1
 44
1.0
  0
ENDBLK
  5
2C0
330
2BE
100
AcDbEntity
  8
0
100
AcDbBlockEnd
  0
BLOCK
  5
2C9
330
2C8
100
AcDbEntity
  8
0
100
AcDbBlockBegin
  2
_D_36
 70
     0
 10
0.0
 20
0.0
 30
0.0
  3
_D_36
  1

  0
LINE
  5
2CB
330
2C8
100
AcDbEntity
  8
DEFAULT
 62
   179
100
AcDbLine
 10
277.7483313911
 20
211.4151054843
 30
0.0
 11
314.3722714957
 21
211.4151054843
 31
0.0
  0
LINE
  5
2CC
330
2C8
100
AcDbEntity
  8
DEFAULT
 62
   179
100
AcDbLine
 10
265.7483793911
 20
221.9351055248
 30
0.0
 11
314.3722714957
 21
221.9351055248
 31
0.0
  0
LINE
  5
2CD
330
2C8
100
AcDbEntity
  8
DEFAULT
 62
   179
100
AcDbLine
 10
312.6222714417
 20
211.4151054843
 30
0.0
 11
312.6222714417
 21
221.935105495
 31
0.0
  0
MTEXT
  5
2CE
330
2C8
100
AcDbEntity
  8
DEFAULT
 62
   179
100
AcDbMText
 10
308.2062376521
 20
212.5387418533
 30
0.0
 40
3.5
 41
0.0
 71
     1
 72
     1
  1
10,52
  7
SLDTEXTSTYLE2
 11
6.123233995736766E-17
 21
1.0
 31
0.0
 73
     1
 44
1.0
  0
ENDBLK
  5
2CA
330
2C8
100
AcDbEntity
  8
0
100
AcDbBlockEnd
  0
ENDSEC
  0
SECTION
  2
ENTITIES
  0
LINE
  5
168
330
1F
100
AcDbEntity
  8
DEFAULT
  6
Continuous
 62
   179
100
AcDbLine
 10
0.0
 20
0.0
 30
0.0
 11
0.0
 21
297.0
 31
0.0
  0
LINE
  5
169
330
1F
100
AcDbEntity
  8
DEFAULT
  6
Continuous
 62
   179
100
AcDbLine
 10
0.0
 20
297.0
 30
0.0
 11
420.0
 21
297.0
 31
0.0
  0
LINE
  5
16A
330
1F
100
AcDbEntity
  8
DEFAULT
  6
Continuous
 62
   179
100
AcDbLine
 10
420.0
 20
297.0
 30
0.0
 11
420.0
 21
0.0
 31
0.0
  0
LINE
  5
16B
330
1F
100
AcDbEntity
  8
DEFAULT
  6
Continuous
 62
   179
100
AcDbLine
 10
420.0
 20
0.0
 30
0.0
 11
0.0
 21
0.0
 31
0.0
  0
LINE
  5
16C
330
1F
100
AcDbEntity
  8
DEFAULT
  6
Continuous
 62
   179
100
AcDbLine
 10
414.9932136422
 20
292.0180761853
 30
0.0
 11
414.9932136422
 21
5.0180761853
 31
0.0
  0
LINE
  5
16D
330
1F
100
AcDbEntity
  8
DEFAULT
  6
Continuous
 62
   179
100
AcDbLine
 10
5.1672086428
 20
292.6111163853
 30
0.0
 11
5.1672086428
 21
5.6111163853
 31
0.0
  0
LINE
  5
16E
330
1F
100
AcDbEntity
  8
DEFAULT
  6
Continuous
 62
   179
100
AcDbLine
 10
5.1672086428
 20
292.6111163853
 30
0.0
 11
414.9932136422
 21
292.0180761853
 31
0.0
  0
LINE
  5
16F
330
1F
100
AcDbEntity
  8
DEFAULT
  6
Continuous
 62
   179
100
AcDbLine
 10
5.1672086428
 20
5.6111163853
 30
0.0
 11
414.9932136422
 21
5.0180761853
 31
0.0
  0
LINE
  5
170
330
1F
100
AcDbEntity
  8
DEFAULT
  6
Continuous
 62
   179
100
AcDbLine
 10
340.2663987621
 20
40.6979089275
 30
0.0
 11
340.2663987621
 21
21.7195246748
 31
0.0
  0
LINE
  5
171
330
1F
100
AcDbEntity
  8
DEFAULT
  6
Continuous
 62
   179
100
AcDbLine
 10
324.8899915396
 20
16.0764359623
 30
0.0
 11
324.8899915396
 21
40.6979089275
 31
0.0
  0
LINE
  5
172
330
1F
100
AcDbEntity
  8
DEFAULT
  6
Continuous
 62
   179
100
AcDbLine
 10
393.1030546509
 20
14.7439038105
 30
0.0
 11
393.1030546509
 21
5.0180761853
 31
0.0
  0
LINE
  5
173
330
1F
100
AcDbEntity
  8
DEFAULT
  6
Continuous
 62
   179
100
AcDbLine
 10
404.0712672044
 20
24.4934260804
 30
0.0
 11
404.0712672044
 21
5.0180761853
 31
0.0
  0
LINE
  5
174
330
1F
100
AcDbEntity
  8
DEFAULT
  6
Continuous
 62
   179
100
AcDbLine
 10
355.5636592571
 20
14.7439038105
 30
0.0
 11
415.1219278103
 21
14.7439038105
 31
0.0
  0
LINE
  5
175
330
1F
100
AcDbEntity
  8
DEFAULT
  6
Continuous
 62
   179
100
AcDbLine
 10
355.3605442098
 20
24.4934260804
 30
0.0
 11
414.918812763
 21
24.4934260804
 31
0.0
  0
LINE
  5
176
330
1F
100
AcDbEntity
  8
DEFAULT
  6
Continuous
 62
   179
100
AcDbLine
 10
355.3605442098
 20
33.8367182556
 30
0.0
 11
414.918812763
 21
33.8367182556
 31
0.0
  0
LINE
  5
177
330
1F
100
AcDbEntity
  8
DEFAULT
  6
Continuous
 62
   179
100
AcDbLine
 10
315.3605442098
 20
21.7195246748
 30
0.0
 11
355.3605442098
 21
21.7195246748
 31
0.0
  0
LINE
  5
178
330
1F
100
AcDbEntity
  8
DEFAULT
  6
Continuous
 62
   179
100
AcDbLine
 10
315.3605442098
 20
27.9516850629
 30
0.0
 11
355.3605442098
 21
27.9516850629
 31
0.0
  0
LINE
  5
179
330
1F
100
AcDbEntity
  8
DEFAULT
  6
Continuous
 62
   179
100
AcDbLine
 10
315.3605442098
 20
34.1838454511
 30
0.0
 11
355.3605442098
 21
34.1838454511
 31
0.0
  0
LINE
  5
17A
330
1F
100
AcDbEntity
  8
DEFAULT
  6
Continuous
 62
   179
100
AcDbLine
 10
285.0825323503
 20
31.1962226409
 30
0.0
 11
315.3605442098
 21
31.1962226409
 31
0.0
  0
LINE
  5
17B
330
1F
100
AcDbEntity
  8
DEFAULT
  6
Continuous
 62
   179
100
AcDbLine
 10
285.1832473679
 20
10.3361495487
 30
0.0
 11
315.3605442098
 21
10.3361495487
 31
0.0
  0
LINE
  5
17C
330
1F
100
AcDbEntity
  8
DEFAULT
  6
Continuous
 62
   179
100
AcDbLine
 10
305.8173308375
 20
31.1962226409
 30
0.0
 11
305.8173308375
 21
5.0180761853
 31
0.0
  0
LINE
  5
17D
330
1F
100
AcDbEntity
  8
DEFAULT
  6
Continuous
 62
   179
100
AcDbLine
 10
293.3058469053
 20
31.1962226409
 30
0.0
 11
293.3058469053
 21
5.0180761853
 31
0.0
  0
LINE
  5
17E
330
1F
100
AcDbEntity
  8
DEFAULT
  6
Continuous
 62
   179
100
AcDbLine
 10
284.8031799165
 20
20.788004464
 30
0.0
 11
315.1705104841
 21
20.788004464
 31
0.0
  0
LINE
  5
17F
330
1F
100
AcDbEntity
  8
DEFAULT
  6
Continuous
 62
   179
100
AcDbLine
 10
284.9932136422
 20
15.6570938692
 30
0.0
 11
315.0638239201
 21
15.6570938692
 31
0.0
  0
LINE
  5
180
330
1F
100
AcDbEntity
  8
DEFAULT
  6
Continuous
 62
   179
100
AcDbLine
 10
284.8031799165
 20
26.1089487845
 30
0.0
 11
315.1705104841
 21
26.1089487845
 31
0.0
  0
LINE
  5
181
330
1F
100
AcDbEntity
  8
DEFAULT
  6
Continuous
 62
   179
100
AcDbLine
 10
355.3605442098
 20
43.5862405254
 30
0.0
 11
414.918812763
 21
43.5862405254
 31
0.0
  0
LINE
  5
182
330
1F
100
AcDbEntity
  8
DEFAULT
  6
Continuous
 62
   179
100
AcDbLine
 10
355.3605442098
 20
5.0180761853
 30
0.0
 11
355.3605442098
 21
53.0180761853
 31
0.0
  0
LINE
  5
183
330
1F
100
AcDbEntity
  8
DEFAULT
  6
Continuous
 62
   179
100
AcDbLine
 10
414.9932136422
 20
5.0180761853
 30
0.0
 11
414.9932136422
 21
53.0180761853
 31
0.0
  0
LINE
  5
184
330
1F
100
AcDbEntity
  8
DEFAULT
  6
Continuous
 62
   179
100
AcDbLine
 10
415.2029254165
 20
53.0180761853
 30
0.0
 11
285.2029254165
 21
53.0180761853
 31
0.0
  0
LINE
  5
185
330
1F
100
AcDbEntity
  8
DEFAULT
  6
Continuous
 62
   179
100
AcDbLine
 10
284.9932136422
 20
53.0180761853
 30
0.0
 11
284.9932136422
 21
5.0180761853
 31
0.0
  0
LINE
  5
186
330
1F
100
AcDbEntity
  8
DEFAULT
  6
Continuous
 62
   179
100
AcDbLine
 10
284.8924986246
 20
40.6979089275
 30
0.0
 11
355.3605442098
 21
40.6979089275
 31
0.0
  0
LINE
  5
187
330
1F
100
AcDbEntity
  8
DEFAULT
  6
Continuous
 62
   179
100
AcDbLine
 10
315.3605442098
 20
5.0180761853
 30
0.0
 11
315.3605442098
 21
52.6437519431
 31
0.0
  0
LINE
  5
188
330
1F
100
AcDbEntity
  8
DEFAULT
  6
Continuous
 62
   179
100
AcDbLine
 10
315.3605442098
 20
15.7317721879
 30
0.0
 11
355.1677446754
 21
15.7317721879
 31
0.0
  0
LINE
  5
189
330
1F
100
AcDbEntity
  8
DEFAULT
  6
Continuous
 62
   179
100
AcDbLine
 10
284.9932136422
 20
5.0180761853
 30
0.0
 11
414.9932136422
 21
5.0180761853
 31
0.0
  0
INSERT
  5
18A
330
1F
100
AcDbEntity
  8
0
  6
Continuous
 62
     7
100
AcDbBlockReference
  2
SEANNOT_GROUP
 10
0.0
 20
0.0
 30
0.0
  0
INSERT
  5
18B
330
1F
100
AcDbEntity
  8
0
  6
Continuous
 62
     7
100
AcDbBlockReference
  2
SEANNOT_GROUP1
 10
0.0
 20
0.0
 30
0.0
  0
INSERT
  5
18C
330
1F
100
AcDbEntity
  8
0
  6
Continuous
 62
     7
100
AcDbBlockReference
  2
SE3
 10
0.0
 20
0.0
 30
0.0
  0
INSERT
  5
18D
330
1F
100
AcDbEntity
  8
0
  6
Continuous
 62
     7
100
AcDbBlockReference
  2
SE5
 10
0.0
 20
0.0
 30
0.0
  0
INSERT
  5
18E
330
1F
100
AcDbEntity
  8
0
  6
Continuous
 62
     7
100
AcDbBlockReference
  2
SE2
 10
0.0
 20
0.0
 30
0.0
  0
INSERT
  5
18F
330
1F
100
AcDbEntity
  8
0
  6
Continuous
 62
     7
100
AcDbBlockReference
  2
SE
 10
0.0
 20
0.0
 30
0.0
  0
INSERT
  5
190
330
1F
100
AcDbEntity
  8
0
  6
Continuous
 62
     7
100
AcDbBlockReference
  2
SE1
 10
0.0
 20
0.0
 30
0.0
  0
DIMENSION
  5
191
330
1F
100
AcDbEntity
  8
DEFAULT
 62
   179
100
AcDbDimension
  2
_D
 10
40.7483793911
 20
190.1999242081
 30
0.0
 11
51.7483793315
 21
190.1999242081
 31
0.0
 70
   160
  1
<>
 71
     2
 42
-1.0
  3
SLDDIMSTYLE0
100
AcDbAlignedDimension
 13
62.7483793911
 23
221.9351055248
 33
0.0
 14
40.7483793911
 24
213.9151054843
 34
0.0
100
AcDbRotatedDimension
  0
DIMENSION
  5
19E
330
1F
100
AcDbEntity
  8
DEFAULT
 62
   179
100
AcDbDimension
  2
_D_1
 10
62.7483793911
 20
190.1999237164
 30
0.0
 11
70.2483792234
 21
190.1999237164
 31
0.0
 70
   160
  1
<>
 71
     2
 42
-1.0
  3
SLDDIMSTYLE0
100
AcDbAlignedDimension
 13
77.7483793911
 23
219.1351055248
 33
0.0
 14
62.7483793911
 24
221.9351055248
 34
0.0
100
AcDbRotatedDimension
  0
DIMENSION
  5
1A6
330
1F
100
AcDbEntity
  8
DEFAULT
 62
   179
100
AcDbDimension
  2
_D_2
 10
77.7483793911
 20
190.1999245478
 30
0.0
 11
120.9983776327
 21
190.1999245478
 31
0.0
 70
   160
  1
<>
 71
     2
 42
-1.0
  3
SLDDIMSTYLE1
100
AcDbAlignedDimension
 13
164.2483793911
 23
219.1351055248
 33
0.0
 14
77.7483793911
 24
219.1351055248
 34
0.0
100
AcDbRotatedDimension
  0
DIMENSION
  5
1AF
330
1F
100
AcDbEntity
  8
DEFAULT
 62
   179
100
AcDbDimension
  2
_D_3
 10
164.2483793911
 20
190.1999245478
 30
0.0
 11
207.4983776327
 21
190.1999245478
 31
0.0
 70
   160
  1
<>
 71
     2
 42
-1.0
  3
SLDDIMSTYLE1
100
AcDbAlignedDimension
 13
250.7483793911
 23
219.1351055248
 33
0.0
 14
164.2483793911
 24
219.1351055248
 34
0.0
100
AcDbRotatedDimension
  0
DIMENSION
  5
1B7
330
1F
100
AcDbEntity
  8
DEFAULT
 62
   179
100
AcDbDimension
  2
_D_4
 10
250.7483793911
 20
190.1999245478
 30
0.0
 11
258.2483792234
 21
190.1999245478
 31
0.0
 70
   160
  1
<>
 71
     2
 42
-1.0
  3
SLDDIMSTYLE0
100
AcDbAlignedDimension
 13
265.7483793911
 23
221.9351055248
 33
0.0
 14
250.7483793911
 24
219.1351055248
 34
0.0
100
AcDbRotatedDimension
  0
DIMENSION
  5
1BF
330
1F
100
AcDbEntity
  8
DEFAULT
 62
   179
100
AcDbDimension
  2
_D_5
 10
265.7483793911
 20
190.1999237164
 30
0.0
 11
276.7483551171
 21
190.1999237164
 31
0.0
 70
   160
  1
<>
 71
     2
 42
-1.0
  3
SLDDIMSTYLE0
100
AcDbAlignedDimension
 13
287.7483313911
 23
213.9151054843
 33
0.0
 14
265.7483793911
 24
221.9351055248
 34
0.0
100
AcDbRotatedDimension
  0
DIMENSION
  5
1C7
330
1F
100
AcDbEntity
  8
DEFAULT
 62
   179
100
AcDbDimension
  2
_D_6
 10
40.7483793911
 20
174.5576407238
 30
0.0
 11
164.2483539995
 21
174.5576407238
 31
0.0
 70
   160
  1
<>
 71
     2
 42
-1.0
  3
SLDDIMSTYLE0
100
AcDbAlignedDimension
 13
287.7483313911
 23
213.9151054843
 33
0.0
 14
40.7483793911
 24
213.9151054843
 34
0.0
100
AcDbRotatedDimension
  0
DIMENSION
  5
1CF
330
1F
100
AcDbEntity
  8
DEFAULT
 62
   179
100
AcDbDimension
  2
_D_7
 10
40.7483793911
 20
245.1708945854
 30
0.0
 11
45.7483792793
 21
245.1708945854
 31
0.0
 70
   160
  1
<>
 71
     2
 42
-1.0
  3
SLDDIMSTYLE0
100
AcDbAlignedDimension
 13
50.7483793911
 23
228.0851055248
 33
0.0
 14
40.7483793911
 24
213.9151054843
 34
0.0
100
AcDbRotatedDimension
  0
DIMENSION
  5
1D7
330
1F
100
AcDbEntity
  8
DEFAULT
 62
   179
100
AcDbDimension
  2
_D_8
 10
50.7483793911
 20
245.1708942963
 30
0.0
 11
60.574920338
 21
245.1708942963
 31
0.0
 70
   160
  1
<>
 71
     2
 42
-1.0
  3
SLDDIMSTYLE1
100
AcDbAlignedDimension
 13
55.8500173911
 23
229.6629815248
 33
0.0
 14
50.7483793911
 24
228.0851055248
 34
0.0
100
AcDbRotatedDimension
  0
DIMENSION
  5
1DF
330
1F
100
AcDbEntity
  8
DEFAULT
 62
   179
100
AcDbDimension
  2
_D_9
 10
55.8500173911
 20
245.1708947194
 30
0.0
 11
164.2483580335
 21
245.1708947194
 31
0.0
 70
   160
  1
<>
 71
     2
 42
-1.0
  3
SLDDIMSTYLE1
100
AcDbAlignedDimension
 13
272.6466923911
 23
228.0851055248
 33
0.0
 14
55.8500173911
 24
229.6629815248
 34
0.0
100
AcDbRotatedDimension
  0
DIMENSION
  5
1E7
330
1F
100
AcDbEntity
  8
DEFAULT
 62
   179
100
AcDbDimension
  2
_D_10
 10
272.6466923911
 20
245.1708942963
 30
0.0
 11
265.4002837795
 21
245.1708942963
 31
0.0
 70
   160
  1
<>
 71
     2
 42
-1.0
  3
SLDDIMSTYLE1
100
AcDbAlignedDimension
 13
277.7483313911
 23
228.0851055248
 33
0.0
 14
272.6466923911
 24
228.0851055248
 34
0.0
100
AcDbRotatedDimension
  0
DIMENSION
  5
1EF
330
1F
100
AcDbEntity
  8
DEFAULT
 62
   179
100
AcDbDimension
  2
_D_11
 10
277.7483313911
 20
245.1708942963
 30
0.0
 11
282.7483312793
 21
245.1708942963
 31
0.0
 70
   160
  1
<>
 71
     2
 42
-1.0
  3
SLDDIMSTYLE0
100
AcDbAlignedDimension
 13
287.7483313911
 23
213.9151054843
 33
0.0
 14
277.7483313911
 24
228.0851055248
 34
0.0
100
AcDbRotatedDimension
  0
DIMENSION
  5
1F7
330
1F
100
AcDbEntity
  8
DEFAULT
 62
   179
100
AcDbDimension
  2
_D_12
 10
50.7483793911
 20
254.5398801877
 30
0.0
 11
74.6233793464
 21
254.5398801877
 31
0.0
 70
   160
  1
<>
 71
     2
 42
-1.0
  3
SLDDIMSTYLE2
100
AcDbAlignedDimension
 13
98.4983793911
 23
221.0151055248
 33
0.0
 14
50.7483793911
 24
228.0851055248
 34
0.0
100
AcDbRotatedDimension
  0
DIMENSION
  5
200
330
1F
100
AcDbEntity
  8
DEFAULT
 62
   179
100
AcDbDimension
  2
_D_13
 10
98.4983793911
 20
254.5398795398
 30
0.0
 11
120.9983802851
 21
254.5398795398
 31
0.0
 70
   160
  1
<>
 71
     2
 42
-1.0
  3
SLDDIMSTYLE0
100
AcDbAlignedDimension
 13
143.4983793911
 23
221.0151055248
 33
0.0
 14
98.4983793911
 24
221.0151055248
 34
0.0
100
AcDbRotatedDimension
  0
DIMENSION
  5
208
330
1F
100
AcDbEntity
  8
DEFAULT
 62
   179
100
AcDbDimension
  2
_D_14
 10
143.4983793911
 20
254.5398795398
 30
0.0
 11
164.2483786013
 21
254.5398795398
 31
0.0
 70
   160
  1
<>
 71
     2
 42
-1.0
  3
SLDDIMSTYLE1
100
AcDbAlignedDimension
 13
184.9983793911
 23
221.0151055248
 33
0.0
 14
143.4983793911
 24
221.0151055248
 34
0.0
100
AcDbRotatedDimension
  0
DIMENSION
  5
210
330
1F
100
AcDbEntity
  8
DEFAULT
 62
   179
100
AcDbDimension
  2
_D_15
 10
184.9983793911
 20
254.5398795398
 30
0.0
 11
207.4983802851
 21
254.5398795398
 31
0.0
 70
   160
  1
<>
 71
     2
 42
-1.0
  3
SLDDIMSTYLE0
100
AcDbAlignedDimension
 13
229.9983793911
 23
221.0151055248
 33
0.0
 14
184.9983793911
 24
221.0151055248
 34
0.0
100
AcDbRotatedDimension
  0
DIMENSION
  5
218
330
1F
100
AcDbEntity
  8
DEFAULT
 62
   179
100
AcDbDimension
  2
_D_16
 10
229.9212765926
 20
254.4847019313
 30
0.0
 11
253.873355132
 21
254.5398795398
 31
0.0
 70
   160
  1
<>
 71
     2
 42
-1.0
  3
SLDDIMSTYLE2
100
AcDbAlignedDimension
 13
277.7483313911
 23
221.1251055046
 33
0.0
 14
229.9983793911
 24
221.0151055248
 34
0.0
 50
0.1319901524
100
AcDbRotatedDimension
  0
DIMENSION
  5
220
330
1F
100
AcDbEntity
  8
DEFAULT
 62
   179
100
AcDbDimension
  2
_D_17
 10
299.931360402
 20
211.4151054843
 30
0.0
 11
299.931360402
 21
209.9741314155
 31
0.0
 70
   160
  1
<>
 71
     2
 42
-1.0
  3
SLDDIMSTYLE2
100
AcDbAlignedDimension
 13
250.7483793911
 23
219.1351055248
 33
0.0
 14
283.2483313911
 24
211.4151054843
 34
0.0
 50
90.0
100
AcDbRotatedDimension
  0
DIMENSION
  5
228
330
1F
100
AcDbEntity
  8
DEFAULT
 62
   179
100
AcDbDimension
  2
_D_18
 10
103.9601205405
 20
211.4151054843
 30
0.0
 11
103.9601205405
 21
209.9741314155
 31
0.0
 70
   160
  1
<>
 71
     2
 42
-1.0
  3
SLDDIMSTYLE2
100
AcDbAlignedDimension
 13
100.4983793911
 23
214.7651055248
 33
0.0
 14
50.7483793911
 24
211.4151054843
 34
0.0
 50
90.0
100
AcDbRotatedDimension
  0
DIMENSION
  5
230
330
1F
100
AcDbEntity
  8
DEFAULT
 62
   179
100
AcDbDimension
  2
_D_19
 10
103.9601205349
 20
214.7651055248
 30
0.0
 11
103.9601205349
 21
221.015105618
 31
0.0
 70
   160
  1
<>
 71
     2
 42
-1.0
  3
SLDDIMSTYLE1
100
AcDbAlignedDimension
 13
105.9983794042
 23
227.2651055248
 33
0.0
 14
100.4983793911
 24
214.7651055248
 34
0.0
 50
90.0
100
AcDbRotatedDimension
  0
DIMENSION
  5
238
330
1F
100
AcDbEntity
  8
DEFAULT
 62
   179
100
AcDbDimension
  2
_D_20
 10
103.9601205779
 20
227.2651055248
 30
0.0
 11
103.9601205779
 21
234.7656739296
 31
0.0
 70
   160
  1
<>
 71
     2
 42
-1.0
  3
SLDDIMSTYLE2
100
AcDbAlignedDimension
 13
56.0902630709
 23
232.4129815248
 33
0.0
 14
105.9983794042
 24
227.2651055248
 34
0.0
 50
90.0
100
AcDbRotatedDimension
  0
DIMENSION
  5
240
330
1F
100
AcDbEntity
  8
DEFAULT
 62
   179
100
AcDbDimension
  2
_D_21
 10
122.5537763335
 20
226.4151055248
 30
0.0
 11
122.5537763335
 21
234.4705363618
 31
0.0
 70
   160
  1
<> 
 71
     2
 42
-1.0
  3
SLDDIMSTYLE0
100
AcDbAlignedDimension
 13
56.0902630709
 23
232.4129815248
 33
0.0
 14
120.9983793911
 24
226.4151055248
 34
0.0
 50
90.0
100
AcDbRotatedDimension
  0
DIMENSION
  5
249
330
1F
100
AcDbEntity
  8
DEFAULT
 62
   179
100
AcDbDimension
  2
_D_22
 10
141.4983793911
 20
216.7651055248
 30
0.0
 11
147.3453190184
 21
207.0227564684
 31
0.0
 70
   164
  1
8x  <>
 71
     1
 42
-1.0
  3
SLDDIMSTYLE3
100
AcDbRadialDimension
 15
0.0
 25
0.0
 35
0.0
 40
0.0
  0
DIMENSION
  5
252
330
1F
100
AcDbEntity
  8
DEFAULT
 62
   179
100
AcDbDimension
  2
_D_23
 10
327.4543363074
 20
198.4637724085
 30
0.0
 11
339.0443365494
 21
198.4637724085
 31
0.0
 70
   160
  1
<>±0.3
 71
     2
 42
-1.0
  3
SLDDIMSTYLE4
100
AcDbAlignedDimension
 13
350.6343363074
 23
214.1651054843
 33
0.0
 14
327.4543363074
 24
211.4151054843
 34
0.0
100
AcDbRotatedDimension
  0
DIMENSION
  5
25D
330
1F
100
AcDbEntity
  8
DEFAULT
 62
   179
100
AcDbDimension
  2
_D_24
 10
364.56645403
 20
211.4151054843
 30
0.0
 11
364.56645403
 21
221.914043635
 31
0.0
 70
   160
  1
<>±0.5
 71
     2
 42
-1.0
  3
SLDDIMSTYLE0
100
AcDbAlignedDimension
 13
342.6122112669
 23
232.4129815248
 33
0.0
 14
338.9543363074
 24
211.4151054843
 34
0.0
 50
90.0
100
AcDbRotatedDimension
  0
DIMENSION
  5
266
330
1F
100
AcDbEntity
  8
DEFAULT
 62
   179
100
AcDbDimension
  2
_D_25
 10
342.6122112669
 20
242.1441088838
 30
0.0
 11
346.6232737064
 21
242.1441088838
 31
0.0
 70
   160
  1
<>±0.3
 71
     2
 42
-1.0
  3
SLDDIMSTYLE4
100
AcDbAlignedDimension
 13
350.6343363074
 23
221.1251055046
 33
0.0
 14
342.6122112669
 24
229.9129815248
 34
0.0
100
AcDbRotatedDimension
  0
DIMENSION
  5
270
330
1F
100
AcDbEntity
  8
DEFAULT
 62
   179
100
AcDbDimension
  2
_D_26
 10
63.7483793911
 20
102.8125714045
 30
0.0
 11
42.8666768891
 21
128.2210668181
 31
0.0
 70
   164
  1
<>
 71
     1
 42
-1.0
  3
SLDDIMSTYLE3
100
AcDbRadialDimension
 15
0.0
 25
0.0
 35
0.0
 40
0.0
  0
DIMENSION
  5
277
330
1F
100
AcDbEntity
  8
DEFAULT
 62
   179
100
AcDbDimension
  2
_D_27
 10
264.8895943911
 20
102.659962445
 30
0.0
 11
287.2404514507
 21
124.9745558167
 31
0.0
 70
   164
  1
<>
 71
     1
 42
-1.0
  3
SLDDIMSTYLE5
100
AcDbRadialDimension
 15
0.0
 25
0.0
 35
0.0
 40
0.0
  0
DIMENSION
  5
280
330
1F
100
AcDbEntity
  8
DEFAULT
 62
   179
100
AcDbDimension
  2
_D_28
 10
40.7483793911
 20
83.6553181987
 30
0.0
 11
45.2483791973
 21
83.6553181987
 31
0.0
 70
   160
  1
<>
 71
     2
 42
-1.0
  3
SLDDIMSTYLE0
100
AcDbAlignedDimension
 13
49.7483793911
 23
102.6358144045
 33
0.0
 14
40.7483793911
 24
102.8125714045
 34
0.0
100
AcDbRotatedDimension
  0
DIMENSION
  5
288
330
1F
100
AcDbEntity
  8
DEFAULT
 62
   179
100
AcDbDimension
  2
_D_29
 10
55.8500173911
 20
91.3288913869
 30
0.0
 11
164.2483580335
 21
91.3288913869
 31
0.0
 70
   160
  1
<>
 71
     2
 42
-1.0
  3
SLDDIMSTYLE1
100
AcDbAlignedDimension
 13
272.6466923911
 23
102.6325714045
 33
0.0
 14
55.8500173911
 24
102.6325714045
 34
0.0
 50
0.0
100
AcDbRotatedDimension
  0
DIMENSION
  5
290
330
1F
100
AcDbEntity
  8
DEFAULT
 62
   179
100
AcDbDimension
  2
_D_30
 10
287.7483313911
 20
83.9504567593
 30
0.0
 11
283.2483315848
 21
83.9504567593
 31
0.0
 70
   160
  1
<>
 71
     2
 42
-1.0
  3
SLDDIMSTYLE0
100
AcDbAlignedDimension
 13
278.7483313911
 23
102.6358144045
 33
0.0
 14
287.7483313911
 24
102.6358144045
 34
0.0
100
AcDbRotatedDimension
  0
DIMENSION
  5
298
330
1F
100
AcDbEntity
  8
DEFAULT
 62
   179
100
AcDbDimension
  2
_D_31
 10
308.785483982
 20
102.6325714045
 30
0.0
 11
308.785483982
 21
97.5267774627
 31
0.0
 70
   160
  1
<>±0.3
 71
     2
 42
-1.0
  3
SLDDIMSTYLE4
100
AcDbAlignedDimension
 13
264.8895944506
 23
110.654694445
 33
0.0
 14
272.6466923911
 24
102.6325714045
 34
0.0
 50
90.0
100
AcDbRotatedDimension
  0
DIMENSION
  5
2A2
330
1F
100
AcDbEntity
  8
DEFAULT
 62
   179
100
AcDbDimension
  2
_D_32
 10
321.1812533397
 20
102.6325714045
 30
0.0
 11
321.1812533397
 21
114.2225716464
 31
0.0
 70
   160
  1
<>±0.3
 71
     2
 42
-1.0
  3
SLDDIMSTYLE2
100
AcDbAlignedDimension
 13
264.7483313911
 23
125.8125714045
 33
0.0
 14
272.6466923911
 24
102.6325714045
 34
0.0
 50
90.0
100
AcDbRotatedDimension
  0
DIMENSION
  5
2AB
330
1F
100
AcDbEntity
  8
DEFAULT
 62
   179
100
AcDbDimension
  2
_D_33
 10
209.0290380776
 20
214.7651055248
 30
0.0
 11
209.0290380776
 21
220.5901054086
 31
0.0
 70
   160
  1
<>
 71
     2
 42
-1.0
  3
SLDDIMSTYLE2
100
AcDbAlignedDimension
 13
207.4983793911
 23
226.4151055248
 33
0.0
 14
207.4983793911
 24
214.7651055248
 34
0.0
 50
90.0
100
AcDbRotatedDimension
  0
DIMENSION
  5
2B2
330
1F
100
AcDbEntity
  8
DEFAULT
 62
   179
100
AcDbDimension
  2
_D_34
 10
2.4486099909
 20
8.660502821
 30
0.0
 11
32.2588288135
 21
236.6231896458
 31
0.0
 70
   163
  1
5x %%c <>
 71
     1
 42
-1.0
  3
SLDDIMSTYLE6
100
AcDbDiametricDimension
 15
0.0
 25
0.0
 35
0.0
 40
0.0
  0
DIMENSION
  5
2BC
330
1F
100
AcDbEntity
  8
DEFAULT
 62
   179
100
AcDbDimension
  2
_D_35
 10
1.6324066606
 20
5.7736685474
 30
0.0
 11
27.2243910206
 21
227.0921015881
 31
0.0
 70
   163
  1
<>x %%c 5.100
 71
     1
 42
-1.0
  3
SLDDIMSTYLE7
100
AcDbDiametricDimension
 15
0.0
 25
0.0
 35
0.0
 40
0.0
  0
DIMENSION
  5
2C7
330
1F
100
AcDbEntity
  8
DEFAULT
 62
   179
100
AcDbDimension
  2
_D_36
 10
312.6222714417
 20
211.4151054843
 30
0.0
 11
312.6222714417
 21
216.6751054897
 31
0.0
 70
   160
  1
<>
 71
     2
 42
-1.0
  3
SLDDIMSTYLE2
100
AcDbAlignedDimension
 13
265.7483793911
 23
221.9351055248
 33
0.0
 14
277.7483313911
 24
211.4151054843
 34
0.0
 50
90.0
100
AcDbRotatedDimension
  0
MTEXT
  5
2CF
330
1F
100
AcDbEntity
  8
DEFAULT
 62
   179
100
AcDbMText
 10
360.9190140197
 20
13.8526307791
 30
0.0
 40
2.0
 41
0.0
 71
     1
 72
     1
  1
Bemerkung
  7
SLDTEXTSTYLE2
 73
     1
 44
1.0
  0
MTEXT
  5
2D0
330
1F
100
AcDbEntity
  8
DEFAULT
 62
   179
100
AcDbMText
 10
406.7117628192
 20
23.8052680962
 30
0.0
 40
2.0
 41
0.0
 71
     1
 72
     1
  1
Index
  7
SLDTEXTSTYLE2
 73
     1
 44
1.0
  0
MTEXT
  5
2D1
330
1F
100
AcDbEntity
  8
DEFAULT
 62
   179
100
AcDbMText
 10
358.5734966119
 20
24.0083831435
 30
0.0
 40
2.0
 41
0.0
 71
     1
 72
     1
  1
Zeichnungsnummer
  7
SLDTEXTSTYLE2
 73
     1
 44
1.0
  0
MTEXT
  5
2D2
330
1F
100
AcDbEntity
  8
DEFAULT
 62
   179
100
AcDbMText
 10
358.6332018996
 20
32.9454452242
 30
0.0
 40
2.0
 41
0.0
 71
     1
 72
     1
  1
Benennung
  7
SLDTEXTSTYLE2
 73
     1
 44
1.0
  0
MTEXT
  5
2D3
330
1F
100
AcDbEntity
  8
DEFAULT
 62
   179
100
AcDbMText
 10
358.4839386804
 20
42.8980825413
 30
0.0
 40
2.0
 41
0.0
 71
     1
 72
     1
  1
Oberfläche
  7
SLDTEXTSTYLE2
 73
     1
 44
1.0
  0
MTEXT
  5
2D4
330
1F
100
AcDbEntity
  8
DEFAULT
 62
   179
100
AcDbMText
 10
358.3165297365
 20
52.2413747166
 30
0.0
 40
2.0
 41
0.0
 71
     1
 72
     1
  1
Werkstoff
  7
SLDTEXTSTYLE2
 73
     1
 44
1.0
  0
MTEXT
  5
2D5
330
1F
100
AcDbEntity
  8
DEFAULT
 62
   179
100
AcDbMText
 10
317.0846255581
 20
19.9460821978
 30
0.0
 40
2.0
 41
0.0
 71
     1
 72
     1
  1
Kunde
  7
SLDTEXTSTYLE2
 73
     1
 44
1.0
  0
MTEXT
  5
2D6
330
1F
100
AcDbEntity
  8
DEFAULT
 62
   179
100
AcDbMText
 10
317.5846255581
 20
25.6333035218
 30
0.0
 40
2.0
 41
0.0
 71
     1
 72
     1
  1
gepr.
  7
SLDTEXTSTYLE2
 73
     1
 44
1.0
  0
MTEXT
  5
2D7
330
1F
100
AcDbEntity
  8
DEFAULT
 62
   179
100
AcDbMText
 10
318.1180012636
 20
31.3205248459
 30
0.0
 40
2.0
 41
0.0
 71
     1
 72
     1
  1
gez.
  7
SLDTEXTSTYLE2
 73
     1
 44
1.0
  0
MTEXT
  5
2D8
330
1F
100
AcDbEntity
  8
DEFAULT
 62
   179
100
AcDbMText
 10
345.4660596075
 20
38.8357815956
 30
0.0
 40
2.0
 41
0.0
 71
     1
 72
     1
  1
Name
  7
SLDTEXTSTYLE2
 73
     1
 44
1.0
  0
MTEXT
  5
2D9
330
1F
100
AcDbEntity
  8
DEFAULT
 62
   179
100
AcDbMText
 10
329.7672371736
 20
38.8357815956
 30
0.0
 40
2.0
 41
0.0
 71
     1
 72
     1
  1
Datum
  7
SLDTEXTSTYLE2
 73
     1
 44
1.0
  0
MTEXT
  5
2DA
330
1F
100
AcDbEntity
  8
DEFAULT
 62
   179
100
AcDbMText
 10
307.5651841855
 20
29.1362777112
 30
0.0
 40
2.0
 41
0.0
 71
     1
 72
     1
  1
Name
  7
SLDTEXTSTYLE2
 73
     1
 44
1.0
  0
MTEXT
  5
2DB
330
1F
100
AcDbEntity
  8
DEFAULT
 62
   179
100
AcDbMText
 10
296.6939731973
 20
29.3290772456
 30
0.0
 40
2.0
 41
0.0
 71
     1
 72
     1
  1
Datum
  7
SLDTEXTSTYLE2
 73
     1
 44
1.0
  0
MTEXT
  5
2DC
330
1F
100
AcDbEntity
  8
DEFAULT
 62
   179
100
AcDbMText
 10
287.1229428632
 20
29.52187678
 30
0.0
 40
2.0
 41
0.0
 71
     1
 72
     1
  1
Index
  7
SLDTEXTSTYLE2
 73
     1
 44
1.0
  0
MTEXT
  5
2DD
330
1F
100
AcDbEntity
  8
DEFAULT
 62
   179
100
AcDbMText
 10
286.7896083969
 20
38.2204483667
 30
0.0
 40
4.5
 41
0.0
 71
     1
 72
     1
  1
Aenderungen
  7
SLDTEXTSTYLE2
 73
     1
 44
1.0
  0
MTEXT
  5
2DE
330
1F
100
AcDbEntity
  8
DEFAULT
 62
   179
100
AcDbMText
 10
286.9407528382
 20
51.1080003545
 30
0.0
 40
3.0
 41
0.0
 71
     1
 72
     1
  1
Freimass-Toleranz
  7
SLDTEXTSTYLE2
 73
     1
 44
1.0
  0
MTEXT
  5
2DF
330
1F
100
AcDbEntity
  8
DEFAULT
 62
   179
100
AcDbMText
 10
288.8498437472
 20
46.1989094454
 30
0.0
 40
3.0
 41
0.0
 71
     1
 72
     1
  1
nach DIN 6930 f
  7
SLDTEXTSTYLE0
 73
     1
 44
1.0
  0
MTEXT
  5
2E0
330
1F
100
AcDbEntity
  8
DEFAULT
 62
   179
100
AcDbMText
 10
358.7760185415
 20
30.121991169
 30
0.0
 40
3.0
 41
0.0
 71
     1
 72
     1
  1
Schliessleiste
  7
SLDTEXTSTYLE2
 73
     1
 44
1.0
  0
MTEXT
  5
2E1
330
1F
100
AcDbEntity
  8
DEFAULT
 62
   179
100
AcDbMText
 10
326.7288777782
 20
20.2003182835
 30
0.0
 40
3.0
 41
0.0
 71
     1
 72
     1
  1
Gretsch-Unitas AG
  7
SLDTEXTSTYLE2
 73
     1
 44
1.0
  0
MTEXT
  5
2E2
330
1F
100
AcDbEntity
  8
DEFAULT
 62
   179
100
AcDbMText
 10
359.1389330352
 20
48.7968581172
 30
0.0
 40
3.0
 41
0.0
 71
     1
 72
     1
  1
Stahlblech 2.5mm
  7
SLDTEXTSTYLE2
 73
     1
 44
1.0
  0
MTEXT
  5
2E3
330
1F
100
AcDbEntity
  8
DEFAULT
 62
   179
100
AcDbMText
 10
375.1352670345
 20
39.5180024184
 30
0.0
 40
3.0
 41
0.0
 71
     1
 72
     1
  1
Promatisiert
  7
SLDTEXTSTYLE2
 73
     1
 44
1.0
  0
MTEXT
  5
2E4
330
1F
100
AcDbEntity
  8
DEFAULT
 62
   179
100
AcDbMText
 10
345.0705446166
 20
32.5412575191
 30
0.0
 40
3.0
 41
0.0
 71
     1
 72
     1
  1
pb
  7
SLDTEXTSTYLE2
 73
     1
 44
1.0
  0
MTEXT
  5
2E5
330
1F
100
AcDbEntity
  8
DEFAULT
 62
   179
100
AcDbMText
 10
327.1025789181
 20
32.3299960494
 30
0.0
 40
3.0
 41
0.0
 71
     1
 72
     1
  1
10.06.10
  7
SLDTEXTSTYLE2
 73
     1
 44
1.0
  0
MTEXT
  5
2E6
330
1F
100
AcDbEntity
  8
DEFAULT
 62
   179
100
AcDbMText
 10
358.4738978014
 20
20.5455228418
 30
0.0
 40
3.0
 41
0.0
 71
     1
 72
     1
  1
L-04811-12-0-1
  7
SLDTEXTSTYLE2
 73
     1
 44
1.0
  0
MTEXT
  5
2E7
330
1F
100
AcDbEntity
  8
DEFAULT
 62
   179
100
AcDbMText
 10
358.143852679
 20
10.511033389
 30
0.0
 40
3.0
 41
0.0
 71
     1
 72
     1
  1
ID 21867
  7
SLDTEXTSTYLE2
 73
     1
 44
1.0
  0
ENDSEC
  0
SECTION
  2
OBJECTS
  0
DICTIONARY
  5
C
330
0
100
AcDbDictionary
281
     1
  3
ACAD_GROUP
350
D
  3
ACAD_LAYOUT
350
1A
  3
ACAD_MLINESTYLE
350
17
  3
ACAD_PLOTSETTINGS
350
19
  3
ACAD_PLOTSTYLENAME
350
E
  3
ACAD_SCALELIST
350
47
  0
DICTIONARY
  5
D
102
{ACAD_REACTORS
330
C
102
}
330
C
100
AcDbDictionary
281
     1
  0
DICTIONARY
  5
1A
102
{ACAD_REACTORS
330
C
102
}
330
C
100
AcDbDictionary
281
     1
  3
Layout1
350
1E
  3
Layout2
350
26
  3
Model
350
22
  0
DICTIONARY
  5
17
102
{ACAD_REACTORS
330
C
102
}
330
C
100
AcDbDictionary
281
     1
  3
Standard
350
18
  0
DICTIONARY
  5
19
102
{ACAD_REACTORS
330
C
102
}
330
C
100
AcDbDictionary
281
     1
  0
ACDBDICTIONARYWDFLT
  5
E
102
{ACAD_REACTORS
330
C
102
}
330
C
100
AcDbDictionary
281
     1
  3
Normal
350
F
100
AcDbDictionaryWithDefault
340
F
  0
DICTIONARY
  5
47
102
{ACAD_REACTORS
330
C
102
}
330
C
100
AcDbDictionary
281
     1
  3
A0
350
48
  3
A1
350
49
  3
A2
350
4A
  3
A3
350
4B
  3
A4
350
4C
  3
A5
350
4D
  3
A6
350
4E
  3
A7
350
4F
  3
A8
350
50
  3
A9
350
51
  3
B0
350
52
  3
B1
350
53
  3
B2
350
54
  3
B3
350
55
  3
B4
350
56
  3
B5
350
57
  3
B6
350
58
  3
B7
350
59
  3
B8
350
5A
  3
B9
350
5B
  3
C0
350
5C
  3
C1
350
5D
  3
C2
350
5E
  3
C3
350
5F
  3
C4
350
60
  3
C5
350
61
  3
C6
350
62
  3
C7
350
63
  3
C8
350
64
  3
C9
350
65
  3
D0
350
66
  3
D1
350
67
  3
D2
350
68
  0
LAYOUT
  5
1E
102
{ACAD_REACTORS
330
1A
102
}
330
1A
100
AcDbPlotSettings
  1

  2
none_device
  4

  6

 40
0.0
 41
0.0
 42
0.0
 43
0.0
 44
0.0
 45
0.0
 46
0.0
 47
0.0
 48
0.0
 49
0.0
140
0.0
141
0.0
142
1.0
143
1.0
 70
   688
 72
     1
 73
     0
 74
     5
  7

 75
    16
147
1.0
148
0.0
149
0.0
100
AcDbLayout
  1
Layout1
 70
     1
 71
     1
 10
0.0
 20
0.0
 11
420.0
 21
297.0
 12
0.0
 22
0.0
 32
0.0
 14
1.0000000000E+20
 24
1.0000000000E+20
 34
1.0000000000E+20
 15
-1.0000000000E+20
 25
-1.0000000000E+20
 35
-1.0000000000E+20
146
0.0
 13
0.0
 23
0.0
 33
0.0
 16
1.0
 26
0.0
 36
0.0
 17
0.0
 27
1.0
 37
0.0
 76
     0
330
1B
  0
LAYOUT
  5
26
102
{ACAD_REACTORS
330
1A
102
}
330
1A
100
AcDbPlotSettings
  1

  2
none_device
  4

  6

 40
0.0
 41
0.0
 42
0.0
 43
0.0
 44
0.0
 45
0.0
 46
0.0
 47
0.0
 48
0.0
 49
0.0
140
0.0
141
0.0
142
1.0
143
1.0
 70
   688
 72
     1
 73
     0
 74
     5
  7

 75
    16
147
1.0
148
0.0
149
0.0
100
AcDbLayout
  1
Layout2
 70
     1
 71
     2
 10
0.0
 20
0.0
 11
0.0
 21
0.0
 12
0.0
 22
0.0
 32
0.0
 14
0.0
 24
0.0
 34
0.0
 15
0.0
 25
0.0
 35
0.0
146
0.0
 13
0.0
 23
0.0
 33
0.0
 16
1.0
 26
0.0
 36
0.0
 17
0.0
 27
1.0
 37
0.0
 76
     0
330
23
  0
LAYOUT
  5
22
102
{ACAD_REACTORS
330
1A
102
}
330
1A
100
AcDbPlotSettings
  1

  2
none_device
  4
Letter_(8.50_x_11.00_Inches)
  6

 40
6.35
 41
6.35
 42
6.35000508
 43
6.35000508
 44
215.9
 45
279.4
 46
0.0
 47
0.0
 48
0.0
 49
0.0
140
0.0
141
0.0
142
1.0
143
1.0
 70
  1712
 72
     1
 73
     0
 74
     0
  7

 75
     0
147
1.0
148
0.0
149
0.0
100
AcDbLayout
  1
Model
 70
     1
 71
     0
 10
0.0
 20
0.0
 11
420.0
 21
297.0
 12
0.0
 22
0.0
 32
0.0
 14
0.0
 24
0.0
 34
0.0
 15
420.0
 25
297.0
 35
0.0
146
0.0
 13
0.0
 23
0.0
 33
0.0
 16
1.0
 26
0.0
 36
0.0
 17
0.0
 27
1.0
 37
0.0
 76
     0
330
1F
331
29
  0
MLINESTYLE
  5
18
102
{ACAD_REACTORS
330
17
102
}
330
17
100
AcDbMlineStyle
  2
Standard
 70
     0
  3

 62
   256
 51
90.0
 52
90.0
 71
     2
 49
0.5
 62
   256
  6
BYLAYER
 49
-0.5
 62
   256
  6
BYLAYER
  0
ACDBPLACEHOLDER
  5
F
102
{ACAD_REACTORS
330
E
102
}
330
E
  0
SCALE
  5
48
102
{ACAD_REACTORS
330
47
102
}
330
47
100
AcDbScale
 70
     0
300
1:1
140
1.0
141
1.0
290
     1
  0
SCALE
  5
49
102
{ACAD_REACTORS
330
47
102
}
330
47
100
AcDbScale
 70
     0
300
1:2
140
1.0
141
2.0
290
     0
  0
SCALE
  5
4A
102
{ACAD_REACTORS
330
47
102
}
330
47
100
AcDbScale
 70
     0
300
1:4
140
1.0
141
4.0
290
     0
  0
SCALE
  5
4B
102
{ACAD_REACTORS
330
47
102
}
330
47
100
AcDbScale
 70
     0
300
1:5
140
1.0
141
5.0
290
     0
  0
SCALE
  5
4C
102
{ACAD_REACTORS
330
47
102
}
330
47
100
AcDbScale
 70
     0
300
1:8
140
1.0
141
8.0
290
     0
  0
SCALE
  5
4D
102
{ACAD_REACTORS
330
47
102
}
330
47
100
AcDbScale
 70
     0
300
1:10
140
1.0
141
10.0
290
     0
  0
SCALE
  5
4E
102
{ACAD_REACTORS
330
47
102
}
330
47
100
AcDbScale
 70
     0
300
1:16
140
1.0
141
16.0
290
     0
  0
SCALE
  5
4F
102
{ACAD_REACTORS
330
47
102
}
330
47
100
AcDbScale
 70
     0
300
1:20
140
1.0
141
20.0
290
     0
  0
SCALE
  5
50
102
{ACAD_REACTORS
330
47
102
}
330
47
100
AcDbScale
 70
     0
300
1:30
140
1.0
141
30.0
290
     0
  0
SCALE
  5
51
102
{ACAD_REACTORS
330
47
102
}
330
47
100
AcDbScale
 70
     0
300
1:40
140
1.0
141
40.0
290
     0
  0
SCALE
  5
52
102
{ACAD_REACTORS
330
47
102
}
330
47
100
AcDbScale
 70
     0
300
1:50
140
1.0
141
50.0
290
     0
  0
SCALE
  5
53
102
{ACAD_REACTORS
330
47
102
}
330
47
100
AcDbScale
 70
     0
300
1:100
140
1.0
141
100.0
290
     0
  0
SCALE
  5
54
102
{ACAD_REACTORS
330
47
102
}
330
47
100
AcDbScale
 70
     0
300
2:1
140
2.0
141
1.0
290
     0
  0
SCALE
  5
55
102
{ACAD_REACTORS
330
47
102
}
330
47
100
AcDbScale
 70
     0
300
4:1
140
4.0
141
1.0
290
     0
  0
SCALE
  5
56
102
{ACAD_REACTORS
330
47
102
}
330
47
100
AcDbScale
 70
     0
300
8:1
140
8.0
141
1.0
290
     0
  0
SCALE
  5
57
102
{ACAD_REACTORS
330
47
102
}
330
47
100
AcDbScale
 70
     0
300
10:1
140
10.0
141
1.0
290
     0
  0
SCALE
  5
58
102
{ACAD_REACTORS
330
47
102
}
330
47
100
AcDbScale
 70
     0
300
100:1
140
100.0
141
1.0
290
     0
  0
SCALE
  5
59
102
{ACAD_REACTORS
330
47
102
}
330
47
100
AcDbScale
 70
     0
300
1/128" = 1'-0"
140
0.0078125
141
12.0
290
     0
  0
SCALE
  5
5A
102
{ACAD_REACTORS
330
47
102
}
330
47
100
AcDbScale
 70
     0
300
1/64" = 1'-0"
140
0.015625
141
12.0
290
     0
  0
SCALE
  5
5B
102
{ACAD_REACTORS
330
47
102
}
330
47
100
AcDbScale
 70
     0
300
1/32" = 1'-0"
140
0.03125
141
12.0
290
     0
  0
SCALE
  5
5C
102
{ACAD_REACTORS
330
47
102
}
330
47
100
AcDbScale
 70
     0
300
1/16" = 1'-0"
140
0.0625
141
12.0
290
     0
  0
SCALE
  5
5D
102
{ACAD_REACTORS
330
47
102
}
330
47
100
AcDbScale
 70
     0
300
3/32" = 1'-0"
140
0.09375
141
12.0
290
     0
  0
SCALE
  5
5E
102
{ACAD_REACTORS
330
47
102
}
330
47
100
AcDbScale
 70
     0
300
1/8" = 1'-0"
140
0.125
141
12.0
290
     0
  0
SCALE
  5
5F
102
{ACAD_REACTORS
330
47
102
}
330
47
100
AcDbScale
 70
     0
300
3/16" = 1'-0"
140
0.1875
141
12.0
290
     0
  0
SCALE
  5
60
102
{ACAD_REACTORS
330
47
102
}
330
47
100
AcDbScale
 70
     0
300
1/4" = 1'-0"
140
0.25
141
12.0
290
     0
  0
SCALE
  5
61
102
{ACAD_REACTORS
330
47
102
}
330
47
100
AcDbScale
 70
     0
300
3/8" = 1'-0"
140
0.375
141
12.0
290
     0
  0
SCALE
  5
62
102
{ACAD_REACTORS
330
47
102
}
330
47
100
AcDbScale
 70
     0
300
1/2" = 1'-0"
140
0.5
141
12.0
290
     0
  0
SCALE
  5
63
102
{ACAD_REACTORS
330
47
102
}
330
47
100
AcDbScale
 70
     0
300
3/4" = 1'-0"
140
0.75
141
12.0
290
     0
  0
SCALE
  5
64
102
{ACAD_REACTORS
330
47
102
}
330
47
100
AcDbScale
 70
     0
300
1" = 1'-0"
140
1.0
141
12.0
290
     0
  0
SCALE
  5
65
102
{ACAD_REACTORS
330
47
102
}
330
47
100
AcDbScale
 70
     0
300
1-1/2" = 1'-0"
140
1.5
141
12.0
290
     0
  0
SCALE
  5
66
102
{ACAD_REACTORS
330
47
102
}
330
47
100
AcDbScale
 70
     0
300
3" = 1'-0"
140
3.0
141
12.0
290
     0
  0
SCALE
  5
67
102
{ACAD_REACTORS
330
47
102
}
330
47
100
AcDbScale
 70
     0
300
6" = 1'-0"
140
6.0
141
12.0
290
     0
  0
SCALE
  5
68
102
{ACAD_REACTORS
330
47
102
}
330
47
100
AcDbScale
 70
     0
300
1'-0" = 1'-0"
140
12.0
141
12.0
290
     0
  0
ENDSEC
  0
EOF
