999
DXF file: 6-40032-AF-0-x_bd01.dxf
999
Pro/ENGINEER 2018300 by Parametric Technology Corporation
  0
SECTION
  2
HEADER
  9
$ACADVER
  1
AC1024
  9
$DWGCODEPAGE
  3
ANSI_1252
  9
$EXTMAX
 10
134.874
 20
298.0
 30
0.0
  9
$EXTMIN
 10
0.0
 20
0.0
 30
0.0
  9
$LIMMIN
 10
0.0
 20
0.0
  9
$LIMMAX
 10
134.874
 20
298.0
  9
$VIEWCTR
 10
67.437
 20
149.0
  9
$VIEWSIZE
 40
298.0
  9
$CLAYER
  8
0
  9
$LTSCALE
 40
19.4251851852
  9
$CELTYPE
  6
BYLAYER
  9
$DIMSCALE
 40
1.0
  9
$DIMASZ
 40
3.5
  9
$DIMEXO
 40
0.0
  9
$DIMDLI
 40
13.421037037
  9
$DIMEXE
 40
1.0
  9
$DIMCEN
 40
3.1786666667
  9
$DIMLFAC
 40
1.0
  9
$DIMBLK
  1
_FILLED
  9
$DIMALT
 70
0
  9
$DIMALTF
 40
0.0393700787
  9
$DIMTXT
 40
2.5
  9
$DIMTOL
 70
1
  9
$DIMLIM
 70
0
  9
$DIMTFAC
 40
1.0
  9
$DIMTP
 40
0.001
  9
$DIMTM
 40
0.001
  9
$DIMGAP
 40
0.625
  9
$DIMDSEP
 70
46
  9
$AUNITS
 70
0
  9
$PDMODE
 70
3
  9
$PDSIZE
 40
2.0
  9
$HANDSEED
  5
466
  9
$TILEMODE
 70
1
  9
$MEASUREMENT
 70
1
  9
$INSUNITS
 70
4
  0
ENDSEC
  0
SECTION
  2
CLASSES
  0
CLASS
  1
ACDBDICTIONARYWDFLT
  2
AcDbDictionaryWithDefault
  3
AutoCAD 2000
 90
0
 91
1
280
0
281
0
  0
CLASS
  1
ACDBPLACEHOLDER
  2
AcDbPlaceHolder
  3
AutoCAD 2000
 90
0
 91
1
280
0
281
0
  0
CLASS
  1
LAYOUT
  2
AcDbLayout
  3
AutoCAD 2000
 90
0
 91
0
280
0
281
0
  0
ENDSEC
  0
SECTION
  2
TABLES
  0
TABLE
  2
VPORT
  5
8
100
AcDbSymbolTable
 70
2
  0
VPORT
  5
1F4
100
AcDbSymbolTableRecord
100
AcDbViewportTableRecord
  2
*ACTIVE
 70
0
 10
0.0
 20
0.0
 11
1.0
 21
1.0
 12
67.437
 22
149.0
 13
0.0
 23
0.0
 14
1.0
 24
1.0
 15
0.0
 25
0.0
 16
0.0
 26
0.0
 36
1.0
 17
0.0
 27
0.0
 37
0.0
 40
298.0
 41
0.4525973154
 42
50.0
 43
0.0
 44
0.0
 50
0.0
 51
0.0
 71
0
 72
100
 73
1
 74
1
 75
0
 76
0
 77
0
 78
0
  0
ENDTAB
  0
TABLE
  2
LTYPE
  5
5
100
AcDbSymbolTable
 70
6
  0
LTYPE
  5
14
100
AcDbSymbolTableRecord
100
AcDbLinetypeTableRecord
  2
BYBLOCK
 70
0
  3

 72
65
 73
0
 40
0.0
  0
LTYPE
  5
15
100
AcDbSymbolTableRecord
100
AcDbLinetypeTableRecord
  2
BYLAYER
 70
0
  3

 72
65
 73
0
 40
0.0
  0
LTYPE
  5
16
100
AcDbSymbolTableRecord
100
AcDbLinetypeTableRecord
  2
CONTINUOUS
 70
64
  3
Solid line
 72
65
 73
0
 40
0.0
  0
LTYPE
  5
1F5
100
AcDbSymbolTableRecord
100
AcDbLinetypeTableRecord
  2
CENTER
 70
64
  3
____ _ ____ _ ____ _ ____ _ ____ _ ____ _ ____
 72
65
 73
4
 40
0.6
 49
0.375
 74
0
 49
-0.075
 74
0
 49
0.075
 74
0
 49
-0.075
 74
0
  0
LTYPE
  5
1F6
100
AcDbSymbolTableRecord
100
AcDbLinetypeTableRecord
  2
HIDDEN
 70
64
  3
- - - - - - - - - - - - - - - - - - - -
 72
65
 73
2
 40
0.2
 49
0.1
 74
0
 49
-0.1
 74
0
  0
LTYPE
  5
1F7
100
AcDbSymbolTableRecord
100
AcDbLinetypeTableRecord
  2
PHANTOM
 70
64
  3
_____ _ _ _____ _ _ _____ _ _ _____
 72
65
 73
6
 40
0.8
 49
0.45
 74
0
 49
-0.05
 74
0
 49
0.1
 74
0
 49
-0.05
 74
0
 49
0.1
 74
0
 49
-0.05
 74
0
  0
LTYPE
  5
1F8
100
AcDbSymbolTableRecord
100
AcDbLinetypeTableRecord
  2
DOT
 70
64
  3
. . . . . . . . . . . . . . . . . . . .
 72
65
 73
2
 40
0.2
 49
0.1
 74
0
 49
-0.1
 74
0
  0
LTYPE
  5
1F9
100
AcDbSymbolTableRecord
100
AcDbLinetypeTableRecord
  2
DASHED
 70
64
  3
- - - - - - - - - - - - - - - - - - - -
 72
65
 73
2
 40
0.2
 49
0.1
 74
0
 49
-0.1
 74
0
  0
ENDTAB
  0
TABLE
  2
LAYER
  5
2
100
AcDbSymbolTable
 70
36
  0
LAYER
  5
10
100
AcDbSymbolTableRecord
100
AcDbLayerTableRecord
  2
0
 70
0
 62
7
  6
CONTINUOUS
370
-3
390
F
  0
LAYER
  5
1FA
100
AcDbSymbolTableRecord
100
AcDbLayerTableRecord
  2
DEFAULT_1
 70
0
 62
7
  6
CENTER
370
-3
390
F
  0
LAYER
  5
1FB
100
AcDbSymbolTableRecord
100
AcDbLayerTableRecord
  2
DEFAULT_2
 70
0
 62
8
  6
HIDDEN
370
-3
390
F
  0
LAYER
  5
1FC
100
AcDbSymbolTableRecord
100
AcDbLayerTableRecord
  2
DEFAULT_3
 70
0
 62
7
  6
PHANTOM
370
-3
390
F
  0
LAYER
  5
1FD
100
AcDbSymbolTableRecord
100
AcDbLayerTableRecord
  2
AXIS
 70
0
 62
7
  6
CONTINUOUS
370
-3
390
F
  0
LAYER
  5
1FE
100
AcDbSymbolTableRecord
100
AcDbLayerTableRecord
  2
COORDSYS
 70
0
 62
7
  6
CONTINUOUS
370
-3
390
F
  0
LAYER
  5
1FF
100
AcDbSymbolTableRecord
100
AcDbLayerTableRecord
  2
CURVES
 70
0
 62
7
  6
CONTINUOUS
370
-3
390
F
  0
LAYER
  5
200
100
AcDbSymbolTableRecord
100
AcDbLayerTableRecord
  2
EINBAUREFERENZ
 70
0
 62
7
  6
CONTINUOUS
370
-3
390
F
  0
LAYER
  5
201
100
AcDbSymbolTableRecord
100
AcDbLayerTableRecord
  2
PLANES
 70
0
 62
7
  6
CONTINUOUS
370
-3
390
F
  0
LAYER
  5
202
100
AcDbSymbolTableRecord
100
AcDbLayerTableRecord
  2
POINTS
 70
0
 62
7
  6
CONTINUOUS
370
-3
390
F
  0
LAYER
  5
203
100
AcDbSymbolTableRecord
100
AcDbLayerTableRecord
  2
PROFIL-EINBAULAGE
 70
0
 62
7
  6
CONTINUOUS
370
-3
390
F
  0
LAYER
  5
204
100
AcDbSymbolTableRecord
100
AcDbLayerTableRecord
  2
S-AXIS
 70
0
 62
7
  6
CONTINUOUS
370
-3
390
F
  0
LAYER
  5
205
100
AcDbSymbolTableRecord
100
AcDbLayerTableRecord
  2
S-COORDSYS
 70
0
 62
7
  6
CONTINUOUS
370
-3
390
F
  0
LAYER
  5
206
100
AcDbSymbolTableRecord
100
AcDbLayerTableRecord
  2
S-PLANES
 70
0
 62
7
  6
CONTINUOUS
370
-3
390
F
  0
LAYER
  5
207
100
AcDbSymbolTableRecord
100
AcDbLayerTableRecord
  2
THREADS
 70
0
 62
7
  6
CONTINUOUS
370
-3
390
F
  0
LAYER
  5
208
100
AcDbSymbolTableRecord
100
AcDbLayerTableRecord
  2
HATCHING_BL0
 70
0
 62
7
  6
CONTINUOUS
370
-3
390
F
  0
LAYER
  5
209
100
AcDbSymbolTableRecord
100
AcDbLayerTableRecord
  2
94797001000_BL1
 70
0
 62
7
  6
CONTINUOUS
370
-3
390
F
  0
LAYER
  5
20A
100
AcDbSymbolTableRecord
100
AcDbLayerTableRecord
  2
93866300000_M_BL2
 70
0
 62
7
  6
CONTINUOUS
370
-3
390
F
  0
LAYER
  5
20B
100
AcDbSymbolTableRecord
100
AcDbLayerTableRecord
  2
94528902000_M_BL3
 70
0
 62
7
  6
CONTINUOUS
370
-3
390
F
  0
LAYER
  5
20C
100
AcDbSymbolTableRecord
100
AcDbLayerTableRecord
  2
94528902000_M_BL4
 70
0
 62
7
  6
CONTINUOUS
370
-3
390
F
  0
LAYER
  5
20D
100
AcDbSymbolTableRecord
100
AcDbLayerTableRecord
  2
95056301000_BL5
 70
0
 62
7
  6
CONTINUOUS
370
-3
390
F
  0
LAYER
  5
20E
100
AcDbSymbolTableRecord
100
AcDbLayerTableRecord
  2
93866300000_M_BL6
 70
0
 62
7
  6
CONTINUOUS
370
-3
390
F
  0
LAYER
  5
20F
100
AcDbSymbolTableRecord
100
AcDbLayerTableRecord
  2
91511100000_BL7
 70
0
 62
7
  6
CONTINUOUS
370
-3
390
F
  0
ENDTAB
  0
TABLE
  2
STYLE
  5
3
100
AcDbSymbolTable
 70
1
  0
STYLE
  5
11
100
AcDbSymbolTableRecord
100
AcDbTextStyleTableRecord
  2
STANDARD
 70
0
 40
0.0
 41
1.0
 50
0.0
 71
0
 42
0.2
  3
arial.ttf
  4

  0
STYLE
  5
210
100
AcDbSymbolTableRecord
100
AcDbTextStyleTableRecord
  2
TEXTSTYLE_1
 70
0
 40
0.0
 41
0.8
 50
0.0
 71
0
 42
0.2
  3
gdt
  4

  0
STYLE
  5
211
100
AcDbSymbolTableRecord
100
AcDbTextStyleTableRecord
  2
TEXTSTYLE_2
 70
0
 40
0.0
 41
1.0
 50
0.0
 71
0
 42
0.2
  3
arialbd.ttf
  4

  0
ENDTAB
  0
TABLE
  2
VIEW
  5
6
100
AcDbSymbolTable
 70
0
  0
ENDTAB
  0
TABLE
  2
UCS
  5
7
100
AcDbSymbolTable
 70
0
  0
ENDTAB
  0
TABLE
  2
APPID
  5
9
100
AcDbSymbolTable
 70
1
  0
APPID
  5
212
100
AcDbSymbolTableRecord
100
AcDbRegAppTableRecord
  2
ACAD
 70
0
  0
ENDTAB
  0
TABLE
  2
BLOCK_RECORD
  5
1
100
AcDbSymbolTable
 70
0
  0
BLOCK_RECORD
  5
213
100
AcDbSymbolTableRecord
100
AcDbBlockTableRecord
  2
*Model_Space
  0
BLOCK_RECORD
  5
214
100
AcDbSymbolTableRecord
100
AcDbBlockTableRecord
  2
*Paper_Space
  0
BLOCK_RECORD
  5
215
100
AcDbSymbolTableRecord
100
AcDbBlockTableRecord
  2
_FILLED
  0
BLOCK_RECORD
  5
216
100
AcDbSymbolTableRecord
100
AcDbBlockTableRecord
  2
XSEC_FILLED
  0
BLOCK_RECORD
  5
217
100
AcDbSymbolTableRecord
100
AcDbBlockTableRecord
  2
*D0
  0
BLOCK_RECORD
  5
218
100
AcDbSymbolTableRecord
100
AcDbBlockTableRecord
  2
*D1
  0
BLOCK_RECORD
  5
219
100
AcDbSymbolTableRecord
100
AcDbBlockTableRecord
  2
*D2
  0
BLOCK_RECORD
  5
21A
100
AcDbSymbolTableRecord
100
AcDbBlockTableRecord
  2
*D3
  0
BLOCK_RECORD
  5
21B
100
AcDbSymbolTableRecord
100
AcDbBlockTableRecord
  2
*D4
  0
BLOCK_RECORD
  5
21C
100
AcDbSymbolTableRecord
100
AcDbBlockTableRecord
  2
*D5
  0
BLOCK_RECORD
  5
21D
100
AcDbSymbolTableRecord
100
AcDbBlockTableRecord
  2
*D6
  0
BLOCK_RECORD
  5
21E
100
AcDbSymbolTableRecord
100
AcDbBlockTableRecord
  2
*D7
  0
BLOCK_RECORD
  5
21F
100
AcDbSymbolTableRecord
100
AcDbBlockTableRecord
  2
*D8
  0
BLOCK_RECORD
  5
220
100
AcDbSymbolTableRecord
100
AcDbBlockTableRecord
  2
*D9
  0
BLOCK_RECORD
  5
221
100
AcDbSymbolTableRecord
100
AcDbBlockTableRecord
  2
*D10
  0
BLOCK_RECORD
  5
222
100
AcDbSymbolTableRecord
100
AcDbBlockTableRecord
  2
*D11
  0
BLOCK_RECORD
  5
223
100
AcDbSymbolTableRecord
100
AcDbBlockTableRecord
  2
*D12
  0
BLOCK_RECORD
  5
224
100
AcDbSymbolTableRecord
100
AcDbBlockTableRecord
  2
SCHRIFTKOPF_PRODUKTABBIL_BL8
  0
BLOCK_RECORD
  5
225
100
AcDbSymbolTableRecord
100
AcDbBlockTableRecord
  2
HATCHING_BL0
  0
BLOCK_RECORD
  5
226
100
AcDbSymbolTableRecord
100
AcDbBlockTableRecord
  2
94797001000_BL1
  0
BLOCK_RECORD
  5
227
100
AcDbSymbolTableRecord
100
AcDbBlockTableRecord
  2
93866300000_M_BL2
  0
BLOCK_RECORD
  5
228
100
AcDbSymbolTableRecord
100
AcDbBlockTableRecord
  2
94528902000_M_BL3
  0
BLOCK_RECORD
  5
229
100
AcDbSymbolTableRecord
100
AcDbBlockTableRecord
  2
94528902000_M_BL4
  0
BLOCK_RECORD
  5
22A
100
AcDbSymbolTableRecord
100
AcDbBlockTableRecord
  2
95056301000_BL5
  0
BLOCK_RECORD
  5
22B
100
AcDbSymbolTableRecord
100
AcDbBlockTableRecord
  2
93866300000_M_BL6
  0
BLOCK_RECORD
  5
22C
100
AcDbSymbolTableRecord
100
AcDbBlockTableRecord
  2
91511100000_BL7
  0
ENDTAB
  0
TABLE
  2
DIMSTYLE
  5
A
100
AcDbSymbolTable
 70
1
100
AcDbDimStyleTable
 71
0
  0
DIMSTYLE
105
22D
100
AcDbSymbolTableRecord
100
AcDbDimStyleTableRecord
  2
STANDARD
 70
0
  3

  4

 40
1.0
 41
3.5
 42
0.0
 43
0.38
 44
1.0
 45
0.0
 46
0.0
 47
0.001
 48
0.001
140
2.5
141
0.09
142
0.0
143
25.4
144
1.0
145
0.0
146
1.0
147
0.625
 71
1.0
 72
0.0
 73
0
 74
0
 75
0
 76
0
 77
1
 78
8
 79
2
170
0
171
2
172
0
173
0
174
0
175
0
176
0
177
0
178
5
270
2
179
3
271
3
272
3
273
2
274
2
275
0
280
0
281
0
282
0
283
1
284
8
285
0
286
0
287
3
288
0
340
11
278
46
341
215
342
215
343
215
344
215
  0
DIMSTYLE
105
22E
100
AcDbSymbolTableRecord
100
AcDbDimStyleTableRecord
  2
DIMSTYLE_1
 70
0
  3

  4

 40
1.0
 41
3.5
 42
0.0
 43
0.38
 44
1.0
 45
0.0
 46
0.0
 47
0.3
 48
0.3
140
2.5
141
0.09
142
0.0
143
25.4
144
1.0
145
0.0
146
1.0
147
0.625
 71
0.0
 72
0.0
 73
0
 74
0
 75
0
 76
0
 77
1
 78
8
 79
2
170
0
171
2
172
0
173
0
174
0
175
0
176
0
177
0
178
5
270
2
179
3
271
3
272
3
273
2
274
2
275
0
280
0
281
0
282
0
283
1
284
8
285
0
286
0
287
3
288
0
340
11
278
46
341
215
342
215
343
215
344
215
  0
DIMSTYLE
105
22F
100
AcDbSymbolTableRecord
100
AcDbDimStyleTableRecord
  2
DIMSTYLE_2
 70
0
  3

  4

 40
1.0
 41
3.5
 42
0.0
 43
0.38
 44
1.0
 45
0.0
 46
0.0
 47
0.2
 48
0.2
140
2.5
141
0.09
142
0.0
143
25.4
144
1.0
145
0.0
146
1.0
147
0.625
 71
0.0
 72
0.0
 73
0
 74
0
 75
0
 76
0
 77
1
 78
8
 79
2
170
0
171
2
172
0
173
0
174
0
175
0
176
0
177
0
178
5
270
2
179
3
271
3
272
3
273
2
274
2
275
0
280
0
281
0
282
0
283
1
284
8
285
0
286
0
287
3
288
0
340
11
278
46
341
215
342
215
343
215
344
215
  0
DIMSTYLE
105
230
100
AcDbSymbolTableRecord
100
AcDbDimStyleTableRecord
  2
DIMSTYLE_3
 70
0
  3

  4

 40
1.0
 41
3.5
 42
0.0
 43
0.38
 44
1.0
 45
0.0
 46
0.0
 47
0.2
 48
0.2
140
2.5
141
0.09
142
0.0
143
25.4
144
1.0
145
0.0
146
1.0
147
0.625
 71
0.0
 72
0.0
 73
0
 74
0
 75
0
 76
0
 77
1
 78
8
 79
2
170
0
171
2
172
0
173
0
174
0
175
0
176
0
177
0
178
5
270
2
179
3
271
0
272
0
273
2
274
2
275
0
280
0
281
0
282
0
283
1
284
8
285
0
286
0
287
3
288
0
340
11
278
46
341
215
342
215
343
215
344
215
  0
DIMSTYLE
105
231
100
AcDbSymbolTableRecord
100
AcDbDimStyleTableRecord
  2
DIMSTYLE_4
 70
0
  3
<>
  4

 40
1.0
 41
3.5
 42
0.0
 43
0.38
 44
1.0
 45
0.0
 46
0.0
 47
0.2
 48
0.2
140
2.5
141
0.09
142
0.0
143
25.4
144
1.0
145
0.0
146
1.0
147
0.625
 71
0.0
 72
0.0
 73
0
 74
0
 75
0
 76
0
 77
1
 78
8
 79
2
170
0
171
2
172
0
173
0
174
0
175
0
176
0
177
0
178
5
270
2
179
3
271
3
272
3
273
2
274
2
275
0
280
0
281
0
282
0
283
1
284
8
285
0
286
0
287
3
288
0
340
11
278
46
341
215
342
215
343
215
344
215
  0
DIMSTYLE
105
232
100
AcDbSymbolTableRecord
100
AcDbDimStyleTableRecord
  2
DIMSTYLE_5
 70
0
  3

  4

 40
1.0
 41
3.5
 42
0.0
 43
0.38
 44
1.0
 45
0.0
 46
0.0
 47
0.1
 48
0.1
140
2.5
141
0.09
142
0.0
143
25.4
144
1.0
145
0.0
146
1.0
147
0.625
 71
0.0
 72
0.0
 73
0
 74
0
 75
0
 76
0
 77
1
 78
8
 79
2
170
0
171
2
172
0
173
0
174
0
175
0
176
0
177
0
178
5
270
2
179
3
271
3
272
3
273
2
274
2
275
0
280
0
281
0
282
0
283
1
284
8
285
0
286
0
287
3
288
0
340
11
278
46
341
215
342
215
343
215
344
215
  0
ENDTAB
  0
ENDSEC
  0
SECTION
  2
BLOCKS
  0
BLOCK
  5
20
100
AcDbEntity
  8
0
100
AcDbBlockBegin
  2
*Model_Space
 70
0
 10
0.0
 20
0.0
 30
0.0
  3
*Model_Space
  1

  0
ENDBLK
  5
21
100
AcDbEntity
  8
0
100
AcDbBlockEnd
  0
BLOCK
  5
1C
100
AcDbEntity
  8
0
100
AcDbBlockBegin
  2
*Paper_Space
 70
0
 10
0.0
 20
0.0
 30
0.0
  3
*Paper_Space
  1

  0
ENDBLK
  5
1D
100
AcDbEntity
  8
0
100
AcDbBlockEnd
  0
BLOCK
  5
233
100
AcDbEntity
  8
0
100
AcDbBlockBegin
 62
2
  6
CONTINUOUS
  2
SCHRIFTKOPF_PRODUKTABBIL_BL8
 70
64
 10
31.0000000239
 20
34.9999999785
  3
SCHRIFTKOPF_PRODUKTABBIL_BL8
  1

  0
TEXT
  5
234
100
AcDbEntity
  8
0
100
AcDbText
 62
5
  6
CONTINUOUS
 10
11.6434778505
 20
32.1908716548
  7
TEXTSTYLE_2
 40
4.0
  1
6-40032-AF-0
 72
5
 11
46.409277107
 21
32.1908716548
100
AcDbText
  0
TEXT
  5
235
100
AcDbEntity
  8
0
100
AcDbText
 62
5
  6
CONTINUOUS
 10
10.9089559916
 20
24.1776342906
  7
STANDARD
 40
2.5
  1
Scale
 72
5
 11
19.6357217908
 21
24.1776342906
100
AcDbText
  0
TEXT
  5
236
100
AcDbEntity
  8
0
100
AcDbText
 62
5
  6
CONTINUOUS
 10
10.9089559916
 20
20.4276342906
  7
STANDARD
 40
2.5
  1
1:1
 72
5
 11
15.7602571068
 21
20.4276342906
100
AcDbText
  0
TEXT
  5
237
100
AcDbEntity
  8
0
100
AcDbText
 62
5
  6
CONTINUOUS
 10
10.9089559916
 20
13.0518233866
  7
STANDARD
 40
2.5
  1
Draft
 72
5
 11
18.4647180733
 21
13.0518233866
100
AcDbText
  0
TEXT
  5
238
100
AcDbEntity
  8
0
100
AcDbText
 62
5
  6
CONTINUOUS
 10
23.3811982505
 20
13.113338109
  7
STANDARD
 40
2.5
  1
17.04.2019
 72
5
 11
40.8533172096
 21
13.113338109
100
AcDbText
  0
TEXT
  5
239
100
AcDbEntity
  8
0
100
AcDbText
 62
5
  6
CONTINUOUS
 10
44.8672219128
 20
13.1067461609
  7
STANDARD
 40
2.5
  1
Hm
 72
5
 11
50.2854375262
 21
13.1067461609
100
AcDbText
  0
LINE
  5
23A
100
AcDbEntity
  8
0
100
AcDbLine
 62
2
  6
CONTINUOUS
 10
10.0000000239
 20
59.9999999785
 11
52.0000000239
 21
59.9999999785
  0
LINE
  5
23B
100
AcDbEntity
  8
0
100
AcDbLine
 62
2
  6
CONTINUOUS
 10
52.0000000239
 20
59.9999999785
 11
52.0000000239
 21
9.9999999785
  0
LINE
  5
23C
100
AcDbEntity
  8
0
100
AcDbLine
 62
2
  6
CONTINUOUS
 10
10.0000000239
 20
9.9999999785
 11
52.0000000239
 21
9.9999999785
  0
LINE
  5
23D
100
AcDbEntity
  8
0
100
AcDbLine
 62
2
  6
CONTINUOUS
 10
10.0000000239
 20
39.9999999785
 11
21.0000000239
 21
39.9999999785
  0
LINE
  5
23E
100
AcDbEntity
  8
0
100
AcDbLine
 62
2
  6
CONTINUOUS
 10
10.0000000239
 20
27.9999999785
 11
21.0000000239
 21
27.9999999785
  0
LINE
  5
23F
100
AcDbEntity
  8
0
100
AcDbLine
 62
2
  6
CONTINUOUS
 10
10.0000000239
 20
18.9999999785
 11
21.0000000239
 21
18.9999999785
  0
LINE
  5
240
100
AcDbEntity
  8
0
100
AcDbLine
 62
2
  6
CONTINUOUS
 10
21.0000000239
 20
39.9999999785
 11
43.0000000239
 21
39.9999999785
  0
LINE
  5
241
100
AcDbEntity
  8
0
100
AcDbLine
 62
2
  6
CONTINUOUS
 10
43.0000000239
 20
39.9999999785
 11
52.0000000239
 21
39.9999999785
  0
LINE
  5
242
100
AcDbEntity
  8
0
100
AcDbLine
 62
2
  6
CONTINUOUS
 10
21.0000000239
 20
27.9999999785
 11
43.0000000239
 21
27.9999999785
  0
LINE
  5
243
100
AcDbEntity
  8
0
100
AcDbLine
 62
2
  6
CONTINUOUS
 10
43.0000000239
 20
27.9999999785
 11
52.0000000239
 21
27.9999999785
  0
LINE
  5
244
100
AcDbEntity
  8
0
100
AcDbLine
 62
2
  6
CONTINUOUS
 10
21.0000000239
 20
18.9999999785
 11
21.0000000239
 21
9.9999999785
  0
LINE
  5
245
100
AcDbEntity
  8
0
100
AcDbLine
 62
2
  6
CONTINUOUS
 10
21.0000000239
 20
18.9999999785
 11
43.0000000239
 21
18.9999999785
  0
LINE
  5
246
100
AcDbEntity
  8
0
100
AcDbLine
 62
2
  6
CONTINUOUS
 10
43.0000000239
 20
18.9999999785
 11
43.0000000239
 21
9.9999999785
  0
LINE
  5
247
100
AcDbEntity
  8
0
100
AcDbLine
 62
2
  6
CONTINUOUS
 10
43.0000000239
 20
18.9999999785
 11
52.0000000239
 21
18.9999999785
  0
LINE
  5
248
100
AcDbEntity
  8
0
100
AcDbLine
 62
2
  6
CONTINUOUS
 10
10.0000000239
 20
9.9999999785
 11
10.0000000239
 21
59.9999999785
  0
ARC
  5
249
100
AcDbEntity
  8
0
100
AcDbCircle
 62
2
  6
CONTINUOUS
 10
17.6290122978
 20
56.1308274644
 40
1.2679261569
100
AcDbArc
 50
90.0
 51
180.0
  0
LINE
  5
24A
100
AcDbEntity
  8
0
100
AcDbLine
 62
2
  6
CONTINUOUS
 10
17.6290122978
 20
57.3987536213
 11
44.0849627663
 21
57.3987536213
  0
ARC
  5
24B
100
AcDbEntity
  8
0
100
AcDbCircle
 62
2
  6
CONTINUOUS
 10
44.0849627663
 20
56.1308274644
 40
1.2679261569
100
AcDbArc
 50
0.0
 51
90.0
  0
LINE
  5
24C
100
AcDbEntity
  8
0
100
AcDbLine
 62
2
  6
CONTINUOUS
 10
45.3528889231
 20
56.1308274644
 11
45.3528889231
 21
43.6666783678
  0
ARC
  5
24D
100
AcDbEntity
  8
0
100
AcDbCircle
 62
2
  6
CONTINUOUS
 10
44.0849627663
 20
43.6666783678
 40
1.2679261569
100
AcDbArc
 50
270.0
 51
360.0
  0
LINE
  5
24E
100
AcDbEntity
  8
0
100
AcDbLine
 62
2
  6
CONTINUOUS
 10
44.0849627663
 20
42.3987522109
 11
17.6290122978
 21
42.3987522109
  0
ARC
  5
24F
100
AcDbEntity
  8
0
100
AcDbCircle
 62
2
  6
CONTINUOUS
 10
17.6290122978
 20
43.6666783678
 40
1.2679261569
100
AcDbArc
 50
180.0
 51
270.0
  0
LINE
  5
250
100
AcDbEntity
  8
0
100
AcDbLine
 62
2
  6
CONTINUOUS
 10
16.3610861409
 20
43.6666783678
 11
16.3610861409
 21
56.1308274644
  0
ARC
  5
251
100
AcDbEntity
  8
0
100
AcDbCircle
 62
2
  6
CONTINUOUS
 10
25.0981141224
 20
49.7181091975
 40
2.8108394023
100
AcDbArc
 50
35.2282226131
 51
336.934010569
  0
LINE
  5
252
100
AcDbEntity
  8
0
100
AcDbLine
 62
2
  6
CONTINUOUS
 10
27.3941788183
 20
51.3394990511
 11
29.5865173301
 21
52.961744213
  0
ARC
  5
253
100
AcDbEntity
  8
0
100
AcDbCircle
 62
2
  6
CONTINUOUS
 10
25.0981141224
 20
49.7181091975
 40
5.5377731507
100
AcDbArc
 50
35.8545159817
 51
11.4705154501
  0
LINE
  5
254
100
AcDbEntity
  8
0
100
AcDbLine
 62
2
  6
CONTINUOUS
 10
30.5252822719
 20
50.8193709036
 11
25.2029961896
 21
50.8193709036
  0
ARC
  5
255
100
AcDbEntity
  8
0
100
AcDbCircle
 62
2
  6
CONTINUOUS
 10
25.2029961896
 20
49.7181091975
 40
1.1012617061
100
AcDbArc
 50
90.0
 51
270.0
  0
LINE
  5
256
100
AcDbEntity
  8
0
100
AcDbLine
 62
2
  6
CONTINUOUS
 10
25.2029961896
 20
48.6168474914
 11
27.6842387906
 21
48.6168474914
  0
ARC
  5
257
100
AcDbEntity
  8
0
100
AcDbCircle
 62
2
  6
CONTINUOUS
 10
25.2029961896
 20
49.7181091975
 40
5.9153485927
100
AcDbArc
 50
349.2706340045
 51
10.7293659955
  0
LINE
  5
258
100
AcDbEntity
  8
0
100
AcDbLine
 62
2
  6
CONTINUOUS
 10
31.014929743
 20
48.6168474914
 11
32.8593870987
 21
48.6168474914
  0
LINE
  5
259
100
AcDbEntity
  8
0
100
AcDbLine
 62
2
  6
CONTINUOUS
 10
32.8593870987
 20
48.6168474914
 11
32.8593870987
 21
48.0399961216
  0
ARC
  5
25A
100
AcDbEntity
  8
0
100
AcDbCircle
 62
2
  6
CONTINUOUS
 10
36.7610000003
 20
48.0399961216
 40
3.9016129016
100
AcDbArc
 50
180.0
 51
360.0
  0
LINE
  5
25B
100
AcDbEntity
  8
0
100
AcDbLine
 62
2
  6
CONTINUOUS
 10
40.6626129019
 20
48.0399961216
 11
40.6626129019
 21
54.9622125599
  0
LINE
  5
25C
100
AcDbEntity
  8
0
100
AcDbLine
 62
2
  6
CONTINUOUS
 10
40.6626129019
 20
54.9622125599
 11
37.9356791535
 21
54.9622125599
  0
LINE
  5
25D
100
AcDbEntity
  8
0
100
AcDbLine
 62
2
  6
CONTINUOUS
 10
37.9356791535
 20
54.9622125599
 11
37.9356791535
 21
48.0399961216
  0
ARC
  5
25E
100
AcDbEntity
  8
0
100
AcDbCircle
 62
2
  6
CONTINUOUS
 10
36.7610000003
 20
48.0399961216
 40
1.1746791532
100
AcDbArc
 50
180.0
 51
360.0
  0
LINE
  5
25F
100
AcDbEntity
  8
0
100
AcDbLine
 62
2
  6
CONTINUOUS
 10
35.5863208471
 20
48.0399961216
 11
35.5863208471
 21
54.9622125599
  0
LINE
  5
260
100
AcDbEntity
  8
0
100
AcDbLine
 62
2
  6
CONTINUOUS
 10
35.5863208471
 20
54.9622125599
 11
32.8593870987
 21
54.9622125599
  0
LINE
  5
261
100
AcDbEntity
  8
0
100
AcDbLine
 62
2
  6
CONTINUOUS
 10
32.8593870987
 20
54.9622125599
 11
32.8593870987
 21
50.8193709036
  0
LINE
  5
262
100
AcDbEntity
  8
0
100
AcDbLine
 62
2
  6
CONTINUOUS
 10
32.8593870987
 20
50.8193709036
 11
31.014929743
 21
50.8193709036
  0
LINE
  5
263
100
AcDbEntity
  8
0
100
AcDbLine
 62
2
  6
CONTINUOUS
 10
45.1996126437
 20
56.7334185992
 11
45.2185459944
 21
56.6972621935
  0
LWPOLYLINE
  5
264
100
AcDbEntity
  8
0
100
AcDbPolyline
 62
2
  6
CONTINUOUS
 90
42
 70
0
 10
17.4964779251
 20
57.3918123624
 10
17.6290122978
 20
57.398757363
 10
44.0849627663
 20
57.398757363
 10
44.217497139
 20
57.3918123624
 10
44.3485794374
 20
57.3710523604
 10
44.4767734964
 20
57.3367023572
 10
44.600674795
 20
57.2891373527
 10
44.7189258447
 20
57.2288823471
 10
44.8302310623
 20
57.1565973403
 10
44.9333709645
 20
57.0730773324
 10
45.0272155289
 20
56.9792373236
 10
45.1107365748
 20
56.8760973139
 10
45.1830190283
 20
56.7647973034
 10
45.2432709475
 20
56.6465372923
 10
45.2908322
 20
56.5226372807
 10
45.3251816945
 20
56.3944472686
 10
45.345943091
 20
56.2633622563
 10
45.3528889232
 20
56.1308222438
 10
24.5102931399
 20
55.2245960958
 10
23.6929701738
 20
55.0746474408
 10
22.9072856488
 20
54.8040901322
 10
22.1709301607
 20
54.4190160805
 10
21.5004836049
 20
53.9280956735
 10
20.9110418611
 20
53.3423825519
 10
20.4158768919
 20
52.6750647241
 10
20.0261379092
 20
51.9411676226
 10
16.3610861409
 20
43.6666760719
 10
16.3610861409
 20
56.1308222438
 10
16.368031973
 20
56.2633622563
 10
16.3887933695
 20
56.3944472686
 10
16.4231428641
 20
56.5226372807
 10
16.4707041165
 20
56.6465372923
 10
16.5309560358
 20
56.7647973034
 10
16.6032384892
 20
56.8760973139
 10
16.6867595352
 20
56.9792373236
 10
16.7806040996
 20
57.0730773324
 10
16.8837440018
 20
57.1565973403
 10
16.9950492193
 20
57.2288823471
 10
17.113300269
 20
57.2891373527
 10
17.2372015677
 20
57.3367023572
 10
17.3653956267
 20
57.3710523604
 10
17.4964779251
 20
57.3918123624
  0
HATCH
  5
265
100
AcDbEntity
  8
0
100
AcDbHatch
 62
2
  6
CONTINUOUS
 10
0.0
 20
0.0
 30
0.0
210
0.0
220
0.0
230
1.0
  2
SOLID
 70
1
 71
1
 91
1
 92
1
 93
41
 72
1
 10
17.4964779251
 20
57.3918123624
 11
17.6290122978
 21
57.398757363
 72
1
 10
17.6290122978
 20
57.398757363
 11
44.0849627663
 21
57.398757363
 72
1
 10
44.0849627663
 20
57.398757363
 11
44.217497139
 21
57.3918123624
 72
1
 10
44.217497139
 20
57.3918123624
 11
44.3485794374
 21
57.3710523604
 72
1
 10
44.3485794374
 20
57.3710523604
 11
44.4767734964
 21
57.3367023572
 72
1
 10
44.4767734964
 20
57.3367023572
 11
44.600674795
 21
57.2891373527
 72
1
 10
44.600674795
 20
57.2891373527
 11
44.7189258447
 21
57.2288823471
 72
1
 10
44.7189258447
 20
57.2288823471
 11
44.8302310623
 21
57.1565973403
 72
1
 10
44.8302310623
 20
57.1565973403
 11
44.9333709645
 21
57.0730773324
 72
1
 10
44.9333709645
 20
57.0730773324
 11
45.0272155289
 21
56.9792373236
 72
1
 10
45.0272155289
 20
56.9792373236
 11
45.1107365748
 21
56.8760973139
 72
1
 10
45.1107365748
 20
56.8760973139
 11
45.1830190283
 21
56.7647973034
 72
1
 10
45.1830190283
 20
56.7647973034
 11
45.2432709475
 21
56.6465372923
 72
1
 10
45.2432709475
 20
56.6465372923
 11
45.2908322
 21
56.5226372807
 72
1
 10
45.2908322
 20
56.5226372807
 11
45.3251816945
 21
56.3944472686
 72
1
 10
45.3251816945
 20
56.3944472686
 11
45.345943091
 21
56.2633622563
 72
1
 10
45.345943091
 20
56.2633622563
 11
45.3528889232
 21
56.1308222438
 72
1
 10
45.3528889232
 20
56.1308222438
 11
24.5102931399
 21
55.2245960958
 72
1
 10
24.5102931399
 20
55.2245960958
 11
23.6929701738
 21
55.0746474408
 72
1
 10
23.6929701738
 20
55.0746474408
 11
22.9072856488
 21
54.8040901322
 72
1
 10
22.9072856488
 20
54.8040901322
 11
22.1709301607
 21
54.4190160805
 72
1
 10
22.1709301607
 20
54.4190160805
 11
21.5004836049
 21
53.9280956735
 72
1
 10
21.5004836049
 20
53.9280956735
 11
20.9110418611
 21
53.3423825519
 72
1
 10
20.9110418611
 20
53.3423825519
 11
20.4158768919
 21
52.6750647241
 72
1
 10
20.4158768919
 20
52.6750647241
 11
20.0261379092
 21
51.9411676226
 72
1
 10
20.0261379092
 20
51.9411676226
 11
16.3610861409
 21
43.6666760719
 72
1
 10
16.3610861409
 20
43.6666760719
 11
16.3610861409
 21
56.1308222438
 72
1
 10
16.3610861409
 20
56.1308222438
 11
16.368031973
 21
56.2633622563
 72
1
 10
16.368031973
 20
56.2633622563
 11
16.3887933695
 21
56.3944472686
 72
1
 10
16.3887933695
 20
56.3944472686
 11
16.4231428641
 21
56.5226372807
 72
1
 10
16.4231428641
 20
56.5226372807
 11
16.4707041165
 21
56.6465372923
 72
1
 10
16.4707041165
 20
56.6465372923
 11
16.5309560358
 21
56.7647973034
 72
1
 10
16.5309560358
 20
56.7647973034
 11
16.6032384892
 21
56.8760973139
 72
1
 10
16.6032384892
 20
56.8760973139
 11
16.6867595352
 21
56.9792373236
 72
1
 10
16.6867595352
 20
56.9792373236
 11
16.7806040996
 21
57.0730773324
 72
1
 10
16.7806040996
 20
57.0730773324
 11
16.8837440018
 21
57.1565973403
 72
1
 10
16.8837440018
 20
57.1565973403
 11
16.9950492193
 21
57.2288823471
 72
1
 10
16.9950492193
 20
57.2288823471
 11
17.113300269
 21
57.2891373527
 72
1
 10
17.113300269
 20
57.2891373527
 11
17.2372015677
 21
57.3367023572
 72
1
 10
17.2372015677
 20
57.3367023572
 11
17.3653956267
 21
57.3710523604
 72
1
 10
17.3653956267
 20
57.3710523604
 11
17.4964779251
 21
57.3918123624
 97
1
330
264
 75
0
 76
1
 98
1
 10
0.0
 20
0.0
  0
LWPOLYLINE
  5
266
100
AcDbEntity
  8
0
100
AcDbPolyline
 62
2
  6
CONTINUOUS
 90
23
 70
0
 10
26.9669939813
 20
54.9309989471
 10
26.1659444963
 20
55.151954039
 10
45.3528889232
 20
56.1308222438
 10
45.3528889231
 20
43.6666760719
 10
40.1398958888
 20
46.0891912997
 10
40.3656203039
 20
46.5469163427
 10
40.5296686661
 20
47.0301863881
 10
40.6292340626
 20
47.5307364352
 10
40.6626129019
 20
48.0400014831
 10
40.6626129019
 20
54.9622171339
 10
37.9356791535
 20
54.9622171339
 10
35.5863208471
 20
54.9622171339
 10
32.8593870987
 20
54.9622171339
 10
32.8593870987
 20
50.8193667444
 10
31.0149297429
 20
50.8193667444
 10
30.6289655903
 20
49.9949006497
 10
30.5252822719
 20
50.8193667444
 10
27.3941788183
 20
51.3394990511
 10
29.5865173301
 20
52.961744213
 10
29.0506384437
 20
53.5968310176
 10
28.425763901
 20
54.1445839144
 10
27.7259634749
 20
54.5926696135
 10
26.9669939813
 20
54.9309989471
  0
HATCH
  5
267
100
AcDbEntity
  8
0
100
AcDbHatch
 62
2
  6
CONTINUOUS
 10
0.0
 20
0.0
 30
0.0
210
0.0
220
0.0
230
1.0
  2
SOLID
 70
1
 71
1
 91
1
 92
1
 93
22
 72
1
 10
26.9669939813
 20
54.9309989471
 11
26.1659444963
 21
55.151954039
 72
1
 10
26.1659444963
 20
55.151954039
 11
45.3528889232
 21
56.1308222438
 72
1
 10
45.3528889232
 20
56.1308222438
 11
45.3528889231
 21
43.6666760719
 72
1
 10
45.3528889231
 20
43.6666760719
 11
40.1398958888
 21
46.0891912997
 72
1
 10
40.1398958888
 20
46.0891912997
 11
40.3656203039
 21
46.5469163427
 72
1
 10
40.3656203039
 20
46.5469163427
 11
40.5296686661
 21
47.0301863881
 72
1
 10
40.5296686661
 20
47.0301863881
 11
40.6292340626
 21
47.5307364352
 72
1
 10
40.6292340626
 20
47.5307364352
 11
40.6626129019
 21
48.0400014831
 72
1
 10
40.6626129019
 20
48.0400014831
 11
40.6626129019
 21
54.9622171339
 72
1
 10
40.6626129019
 20
54.9622171339
 11
37.9356791535
 21
54.9622171339
 72
1
 10
37.9356791535
 20
54.9622171339
 11
35.5863208471
 21
54.9622171339
 72
1
 10
35.5863208471
 20
54.9622171339
 11
32.8593870987
 21
54.9622171339
 72
1
 10
32.8593870987
 20
54.9622171339
 11
32.8593870987
 21
50.8193667444
 72
1
 10
32.8593870987
 20
50.8193667444
 11
31.0149297429
 21
50.8193667444
 72
1
 10
31.0149297429
 20
50.8193667444
 11
30.6289655903
 21
49.9949006497
 72
1
 10
30.6289655903
 20
49.9949006497
 11
30.5252822719
 21
50.8193667444
 72
1
 10
30.5252822719
 20
50.8193667444
 11
27.3941788183
 21
51.3394990511
 72
1
 10
27.3941788183
 20
51.3394990511
 11
29.5865173301
 21
52.961744213
 72
1
 10
29.5865173301
 20
52.961744213
 11
29.0506384437
 21
53.5968310176
 72
1
 10
29.0506384437
 20
53.5968310176
 11
28.425763901
 21
54.1445839144
 72
1
 10
28.425763901
 20
54.1445839144
 11
27.7259634749
 21
54.5926696135
 72
1
 10
27.7259634749
 20
54.5926696135
 11
26.9669939813
 21
54.9309989471
 97
1
330
266
 75
0
 76
1
 98
1
 10
0.0
 20
0.0
  0
LWPOLYLINE
  5
268
100
AcDbEntity
  8
0
100
AcDbPolyline
 62
2
  6
CONTINUOUS
 90
20
 70
0
 10
24.5005684601
 20
52.4646993247
 10
24.9072650814
 20
52.5224620264
 10
25.3180376874
 20
52.5203318459
 10
25.7241133608
 20
52.4583542776
 10
26.1168194973
 20
52.3378529835
 10
26.4877690273
 20
52.1614015236
 10
26.8290395394
 20
51.9327683916
 10
27.1333424806
 20
51.6568365314
 10
27.3941788183
 20
51.3394990511
 10
30.5252822719
 20
50.8193667444
 10
25.2029961896
 20
50.8193667444
 10
25.0592526925
 20
50.8099494571
 10
22.4413895628
 20
50.6360595011
 10
22.6035508656
 20
51.0134749
 10
22.8189888395
 20
51.3632250264
 10
23.0831023513
 20
51.6778402269
 10
23.3902506985
 20
51.9506012291
 10
23.7338740791
 20
52.175682645
 10
24.1066336894
 20
52.3482773854
 10
24.5005684601
 20
52.4646993247
  0
HATCH
  5
269
100
AcDbEntity
  8
0
100
AcDbHatch
 62
2
  6
CONTINUOUS
 10
0.0
 20
0.0
 30
0.0
210
0.0
220
0.0
230
1.0
  2
SOLID
 70
1
 71
1
 91
1
 92
1
 93
19
 72
1
 10
24.5005684601
 20
52.4646993247
 11
24.9072650814
 21
52.5224620264
 72
1
 10
24.9072650814
 20
52.5224620264
 11
25.3180376874
 21
52.5203318459
 72
1
 10
25.3180376874
 20
52.5203318459
 11
25.7241133608
 21
52.4583542776
 72
1
 10
25.7241133608
 20
52.4583542776
 11
26.1168194973
 21
52.3378529835
 72
1
 10
26.1168194973
 20
52.3378529835
 11
26.4877690273
 21
52.1614015236
 72
1
 10
26.4877690273
 20
52.1614015236
 11
26.8290395394
 21
51.9327683916
 72
1
 10
26.8290395394
 20
51.9327683916
 11
27.1333424806
 21
51.6568365314
 72
1
 10
27.1333424806
 20
51.6568365314
 11
27.3941788183
 21
51.3394990511
 72
1
 10
27.3941788183
 20
51.3394990511
 11
30.5252822719
 21
50.8193667444
 72
1
 10
30.5252822719
 20
50.8193667444
 11
25.2029961896
 21
50.8193667444
 72
1
 10
25.2029961896
 20
50.8193667444
 11
25.0592526925
 21
50.8099494571
 72
1
 10
25.0592526925
 20
50.8099494571
 11
22.4413895628
 21
50.6360595011
 72
1
 10
22.4413895628
 20
50.6360595011
 11
22.6035508656
 21
51.0134749
 72
1
 10
22.6035508656
 20
51.0134749
 11
22.8189888395
 21
51.3632250264
 72
1
 10
22.8189888395
 20
51.3632250264
 11
23.0831023513
 21
51.6778402269
 72
1
 10
23.0831023513
 20
51.6778402269
 11
23.3902506985
 21
51.9506012291
 72
1
 10
23.3902506985
 20
51.9506012291
 11
23.7338740791
 21
52.175682645
 72
1
 10
23.7338740791
 20
52.175682645
 11
24.1066336894
 21
52.3482773854
 72
1
 10
24.1066336894
 20
52.3482773854
 11
24.5005684601
 21
52.4646993247
 97
1
330
268
 75
0
 76
1
 98
1
 10
0.0
 20
0.0
  0
LWPOLYLINE
  5
26A
100
AcDbEntity
  8
0
100
AcDbPolyline
 62
2
  6
CONTINUOUS
 90
8
 70
0
 10
24.6523653366
 20
50.6718298112
 10
24.5325905397
 20
50.5917988506
 10
22.3359682285
 20
50.2390393331
 10
22.4413895628
 20
50.6360595011
 10
25.0592526925
 20
50.8099494571
 10
24.9179686864
 20
50.7818463209
 10
24.78156158
 20
50.7355423477
 10
24.6523653366
 20
50.6718298112
  0
HATCH
  5
26B
100
AcDbEntity
  8
0
100
AcDbHatch
 62
2
  6
CONTINUOUS
 10
0.0
 20
0.0
 30
0.0
210
0.0
220
0.0
230
1.0
  2
SOLID
 70
1
 71
1
 91
1
 92
1
 93
7
 72
1
 10
24.6523653366
 20
50.6718298112
 11
24.5325905397
 21
50.5917988506
 72
1
 10
24.5325905397
 20
50.5917988506
 11
22.3359682285
 21
50.2390393331
 72
1
 10
22.3359682285
 20
50.2390393331
 11
22.4413895628
 21
50.6360595011
 72
1
 10
22.4413895628
 20
50.6360595011
 11
25.0592526925
 21
50.8099494571
 72
1
 10
25.0592526925
 20
50.8099494571
 11
24.9179686864
 21
50.7818463209
 72
1
 10
24.9179686864
 20
50.7818463209
 11
24.78156158
 21
50.7355423477
 72
1
 10
24.78156158
 20
50.7355423477
 11
24.6523653366
 21
50.6718298112
 97
1
330
26A
 75
0
 76
1
 98
1
 10
0.0
 20
0.0
  0
LWPOLYLINE
  5
26C
100
AcDbEntity
  8
0
100
AcDbPolyline
 62
2
  6
CONTINUOUS
 90
8
 70
0
 10
24.2492755759
 20
50.2687400506
 10
24.1855630394
 20
50.1395438071
 10
22.2895383581
 20
49.830893601
 10
22.3359682285
 20
50.2390393331
 10
24.5325905397
 20
50.5917988506
 10
24.4242865694
 20
50.4968188178
 10
24.3293065366
 20
50.3885148474
 10
24.2492755759
 20
50.2687400506
  0
HATCH
  5
26D
100
AcDbEntity
  8
0
100
AcDbHatch
 62
2
  6
CONTINUOUS
 10
0.0
 20
0.0
 30
0.0
210
0.0
220
0.0
230
1.0
  2
SOLID
 70
1
 71
1
 91
1
 92
1
 93
7
 72
1
 10
24.2492755759
 20
50.2687400506
 11
24.1855630394
 21
50.1395438071
 72
1
 10
24.1855630394
 20
50.1395438071
 11
22.2895383581
 21
49.830893601
 72
1
 10
22.2895383581
 20
49.830893601
 11
22.3359682285
 21
50.2390393331
 72
1
 10
22.3359682285
 20
50.2390393331
 11
24.5325905397
 21
50.5917988506
 72
1
 10
24.5325905397
 20
50.5917988506
 11
24.4242865694
 21
50.4968188178
 72
1
 10
24.4242865694
 20
50.4968188178
 11
24.3293065366
 21
50.3885148474
 72
1
 10
24.3293065366
 20
50.3885148474
 11
24.2492755759
 21
50.2687400506
 97
1
330
26C
 75
0
 76
1
 98
1
 10
0.0
 20
0.0
  0
LWPOLYLINE
  5
26E
100
AcDbEntity
  8
0
100
AcDbPolyline
 62
2
  6
CONTINUOUS
 90
7
 70
0
 10
31.0993048012
 20
50.1923388153
 10
31.1162282192
 20
49.8763366836
 10
30.6081153911
 20
49.1641981161
 10
30.6289655903
 20
49.9949006497
 10
31.0149297429
 20
50.8193667444
 10
31.0655063992
 20
50.5069837221
 10
31.0993048012
 20
50.1923388153
  0
HATCH
  5
26F
100
AcDbEntity
  8
0
100
AcDbHatch
 62
2
  6
CONTINUOUS
 10
0.0
 20
0.0
 30
0.0
210
0.0
220
0.0
230
1.0
  2
SOLID
 70
1
 71
1
 91
1
 92
1
 93
6
 72
1
 10
31.0993048012
 20
50.1923388153
 11
31.1162282192
 21
49.8763366836
 72
1
 10
31.1162282192
 20
49.8763366836
 11
30.6081153911
 21
49.1641981161
 72
1
 10
30.6081153911
 20
49.1641981161
 11
30.6289655903
 21
49.9949006497
 72
1
 10
30.6289655903
 20
49.9949006497
 11
31.0149297429
 21
50.8193667444
 72
1
 10
31.0149297429
 20
50.8193667444
 11
31.0655063992
 21
50.5069837221
 72
1
 10
31.0655063992
 20
50.5069837221
 11
31.0993048012
 21
50.1923388153
 97
1
330
26E
 75
0
 76
1
 98
1
 10
0.0
 20
0.0
  0
LWPOLYLINE
  5
270
100
AcDbEntity
  8
0
100
AcDbPolyline
 62
2
  6
CONTINUOUS
 90
7
 70
0
 10
24.1111559301
 20
49.8618526947
 10
24.1017344835
 20
49.7181091975
 10
22.3030915597
 20
49.4203391196
 10
22.2895383581
 20
49.830893601
 10
24.1855630394
 20
50.1395438071
 10
24.1392590662
 20
50.0031367007
 10
24.1111559301
 20
49.8618526947
  0
HATCH
  5
271
100
AcDbEntity
  8
0
100
AcDbHatch
 62
2
  6
CONTINUOUS
 10
0.0
 20
0.0
 30
0.0
210
0.0
220
0.0
230
1.0
  2
SOLID
 70
1
 71
1
 91
1
 92
1
 93
6
 72
1
 10
24.1111559301
 20
49.8618526947
 11
24.1017344835
 21
49.7181091975
 72
1
 10
24.1017344835
 20
49.7181091975
 11
22.3030915597
 21
49.4203391196
 72
1
 10
22.3030915597
 20
49.4203391196
 11
22.2895383581
 21
49.830893601
 72
1
 10
22.2895383581
 20
49.830893601
 11
24.1855630394
 21
50.1395438071
 72
1
 10
24.1855630394
 20
50.1395438071
 11
24.1392590662
 21
50.0031367007
 72
1
 10
24.1392590662
 20
50.0031367007
 11
24.1111559301
 21
49.8618526947
 97
1
330
270
 75
0
 76
1
 98
1
 10
0.0
 20
0.0
  0
LWPOLYLINE
  5
272
100
AcDbEntity
  8
0
100
AcDbPolyline
 62
2
  6
CONTINUOUS
 90
7
 70
0
 10
24.1392590662
 20
49.4330816944
 10
24.1855630394
 20
49.2966745879
 10
22.3763383759
 20
49.0161441476
 10
22.3030915597
 20
49.4203391196
 10
24.1017344835
 20
49.7181091975
 10
24.1111559301
 20
49.5743657004
 10
24.1392590662
 20
49.4330816944
  0
HATCH
  5
273
100
AcDbEntity
  8
0
100
AcDbHatch
 62
2
  6
CONTINUOUS
 10
0.0
 20
0.0
 30
0.0
210
0.0
220
0.0
230
1.0
  2
SOLID
 70
1
 71
1
 91
1
 92
1
 93
6
 72
1
 10
24.1392590662
 20
49.4330816944
 11
24.1855630394
 21
49.2966745879
 72
1
 10
24.1855630394
 20
49.2966745879
 11
22.3763383759
 21
49.0161441476
 72
1
 10
22.3763383759
 20
49.0161441476
 11
22.3030915597
 21
49.4203391196
 72
1
 10
22.3030915597
 20
49.4203391196
 11
24.1017344835
 21
49.7181091975
 72
1
 10
24.1017344835
 20
49.7181091975
 11
24.1111559301
 21
49.5743657004
 72
1
 10
24.1111559301
 20
49.5743657004
 11
24.1392590662
 21
49.4330816944
 97
1
330
272
 75
0
 76
1
 98
1
 10
0.0
 20
0.0
  0
LWPOLYLINE
  5
274
100
AcDbEntity
  8
0
100
AcDbPolyline
 62
2
  6
CONTINUOUS
 90
7
 70
0
 10
31.0993048012
 20
49.2438795798
 10
31.0655063992
 20
48.929234673
 10
30.4632011408
 20
48.3459675312
 10
30.6081153911
 20
49.1641981161
 10
31.1162282192
 20
49.8763366836
 10
31.1162282192
 20
49.5598817115
 10
31.0993048012
 20
49.2438795798
  0
HATCH
  5
275
100
AcDbEntity
  8
0
100
AcDbHatch
 62
2
  6
CONTINUOUS
 10
0.0
 20
0.0
 30
0.0
210
0.0
220
0.0
230
1.0
  2
SOLID
 70
1
 71
1
 91
1
 92
1
 93
6
 72
1
 10
31.0993048012
 20
49.2438795798
 11
31.0655063992
 21
48.929234673
 72
1
 10
31.0655063992
 20
48.929234673
 11
30.4632011408
 21
48.3459675312
 72
1
 10
30.4632011408
 20
48.3459675312
 11
30.6081153911
 21
49.1641981161
 72
1
 10
30.6081153911
 20
49.1641981161
 11
31.1162282192
 21
49.8763366836
 72
1
 10
31.1162282192
 20
49.8763366836
 11
31.1162282192
 21
49.5598817115
 72
1
 10
31.1162282192
 20
49.5598817115
 11
31.0993048012
 21
49.2438795798
 97
1
330
274
 75
0
 76
1
 98
1
 10
0.0
 20
0.0
  0
LWPOLYLINE
  5
276
100
AcDbEntity
  8
0
100
AcDbPolyline
 62
2
  6
CONTINUOUS
 90
7
 70
0
 10
24.3293065366
 20
49.0477035476
 10
24.4242865694
 20
48.9393995773
 10
22.5077144663
 20
48.6269411229
 10
22.3763383759
 20
49.0161441476
 10
24.1855630394
 20
49.2966745879
 10
24.2492755759
 20
49.1674783445
 10
24.3293065366
 20
49.0477035476
  0
HATCH
  5
277
100
AcDbEntity
  8
0
100
AcDbHatch
 62
2
  6
CONTINUOUS
 10
0.0
 20
0.0
 30
0.0
210
0.0
220
0.0
230
1.0
  2
SOLID
 70
1
 71
1
 91
1
 92
1
 93
6
 72
1
 10
24.3293065366
 20
49.0477035476
 11
24.4242865694
 21
48.9393995773
 72
1
 10
24.4242865694
 20
48.9393995773
 11
22.5077144663
 21
48.6269411229
 72
1
 10
22.5077144663
 20
48.6269411229
 11
22.3763383759
 21
49.0161441476
 72
1
 10
22.3763383759
 20
49.0161441476
 11
24.1855630394
 21
49.2966745879
 72
1
 10
24.1855630394
 20
49.2966745879
 11
24.2492755759
 21
49.1674783445
 72
1
 10
24.2492755759
 20
49.1674783445
 11
24.3293065366
 21
49.0477035476
 97
1
330
276
 75
0
 76
1
 98
1
 10
0.0
 20
0.0
  0
LWPOLYLINE
  5
278
100
AcDbEntity
  8
0
100
AcDbPolyline
 62
2
  6
CONTINUOUS
 90
9
 70
0
 10
24.9179686864
 20
48.6543720741
 10
25.0592526925
 20
48.626268938
 10
22.6944140166
 20
48.2610422989
 10
22.5077144663
 20
48.6269411229
 10
24.4242865694
 20
48.9393995773
 10
24.5325905397
 20
48.8444195445
 10
24.6523653366
 20
48.7643885839
 10
24.78156158
 20
48.7006760474
 10
24.9179686864
 20
48.6543720741
  0
HATCH
  5
279
100
AcDbEntity
  8
0
100
AcDbHatch
 62
2
  6
CONTINUOUS
 10
0.0
 20
0.0
 30
0.0
210
0.0
220
0.0
230
1.0
  2
SOLID
 70
1
 71
1
 91
1
 92
1
 93
8
 72
1
 10
24.9179686864
 20
48.6543720741
 11
25.0592526925
 21
48.626268938
 72
1
 10
25.0592526925
 20
48.626268938
 11
22.6944140166
 21
48.2610422989
 72
1
 10
22.6944140166
 20
48.2610422989
 11
22.5077144663
 21
48.6269411229
 72
1
 10
22.5077144663
 20
48.6269411229
 11
24.4242865694
 21
48.9393995773
 72
1
 10
24.4242865694
 20
48.9393995773
 11
24.5325905397
 21
48.8444195445
 72
1
 10
24.5325905397
 20
48.8444195445
 11
24.6523653366
 21
48.7643885839
 72
1
 10
24.6523653366
 20
48.7643885839
 11
24.78156158
 21
48.7006760474
 72
1
 10
24.78156158
 20
48.7006760474
 11
24.9179686864
 21
48.6543720741
 97
1
330
278
 75
0
 76
1
 98
1
 10
0.0
 20
0.0
  0
LWPOLYLINE
  5
27A
100
AcDbEntity
  8
0
100
AcDbPolyline
 62
2
  6
CONTINUOUS
 90
9
 70
0
 10
32.8593870987
 20
48.6168415373
 10
32.8593870987
 20
48.0400014831
 10
32.8927659379
 20
47.5307364352
 10
29.8169521117
 20
46.8199201942
 10
30.1974857512
 20
47.5586323028
 10
30.4632011408
 20
48.3459675312
 10
31.0655063992
 20
48.929234673
 10
31.0149297429
 20
48.6168415373
 10
32.8593870987
 20
48.6168415373
  0
HATCH
  5
27B
100
AcDbEntity
  8
0
100
AcDbHatch
 62
2
  6
CONTINUOUS
 10
0.0
 20
0.0
 30
0.0
210
0.0
220
0.0
230
1.0
  2
SOLID
 70
1
 71
1
 91
1
 92
1
 93
8
 72
1
 10
32.8593870987
 20
48.6168415373
 11
32.8593870987
 21
48.0400014831
 72
1
 10
32.8593870987
 20
48.0400014831
 11
32.8927659379
 21
47.5307364352
 72
1
 10
32.8927659379
 20
47.5307364352
 11
29.8169521117
 21
46.8199201942
 72
1
 10
29.8169521117
 20
46.8199201942
 11
30.1974857512
 21
47.5586323028
 72
1
 10
30.1974857512
 20
47.5586323028
 11
30.4632011408
 21
48.3459675312
 72
1
 10
30.4632011408
 20
48.3459675312
 11
31.0655063992
 21
48.929234673
 72
1
 10
31.0655063992
 20
48.929234673
 11
31.0149297429
 21
48.6168415373
 72
1
 10
31.0149297429
 20
48.6168415373
 11
32.8593870987
 21
48.6168415373
 97
1
330
27A
 75
0
 76
1
 98
1
 10
0.0
 20
0.0
  0
LWPOLYLINE
  5
27C
100
AcDbEntity
  8
0
100
AcDbPolyline
 62
2
  6
CONTINUOUS
 90
19
 70
0
 10
27.6842387906
 20
48.6168415373
 10
27.4961137435
 20
48.2516795326
 10
27.2567743458
 20
47.9178302789
 10
26.9713321963
 20
47.6224297867
 10
26.6458835153
 20
47.3717869581
 10
26.2873789475
 20
47.1712548002
 10
25.9034751155
 20
47.0251161014
 10
25.5023710973
 20
46.9364919623
 10
25.0926333168
 20
46.9072751387
 10
24.6830125906
 20
46.9380896178
 10
24.2822572349
 20
47.0282772912
 10
23.8989262276
 20
47.1759120104
 10
23.5412064125
 20
47.377840724
 10
23.2167376524
 20
47.6297508175
 10
22.9324496635
 20
47.9262622184
 10
22.6944140166
 20
48.2610422989
 10
25.0592526925
 20
48.626268938
 10
25.2029961896
 20
48.6168415373
 10
27.6842387906
 20
48.6168415373
  0
HATCH
  5
27D
100
AcDbEntity
  8
0
100
AcDbHatch
 62
2
  6
CONTINUOUS
 10
0.0
 20
0.0
 30
0.0
210
0.0
220
0.0
230
1.0
  2
SOLID
 70
1
 71
1
 91
1
 92
1
 93
18
 72
1
 10
27.6842387906
 20
48.6168415373
 11
27.4961137435
 21
48.2516795326
 72
1
 10
27.4961137435
 20
48.2516795326
 11
27.2567743458
 21
47.9178302789
 72
1
 10
27.2567743458
 20
47.9178302789
 11
26.9713321963
 21
47.6224297867
 72
1
 10
26.9713321963
 20
47.6224297867
 11
26.6458835153
 21
47.3717869581
 72
1
 10
26.6458835153
 20
47.3717869581
 11
26.2873789475
 21
47.1712548002
 72
1
 10
26.2873789475
 20
47.1712548002
 11
25.9034751155
 21
47.0251161014
 72
1
 10
25.9034751155
 20
47.0251161014
 11
25.5023710973
 21
46.9364919623
 72
1
 10
25.5023710973
 20
46.9364919623
 11
25.0926333168
 21
46.9072751387
 72
1
 10
25.0926333168
 20
46.9072751387
 11
24.6830125906
 21
46.9380896178
 72
1
 10
24.6830125906
 20
46.9380896178
 11
24.2822572349
 21
47.0282772912
 72
1
 10
24.2822572349
 20
47.0282772912
 11
23.8989262276
 21
47.1759120104
 72
1
 10
23.8989262276
 20
47.1759120104
 11
23.5412064125
 21
47.377840724
 72
1
 10
23.5412064125
 20
47.377840724
 11
23.2167376524
 21
47.6297508175
 72
1
 10
23.2167376524
 20
47.6297508175
 11
22.9324496635
 21
47.9262622184
 72
1
 10
22.9324496635
 20
47.9262622184
 11
22.6944140166
 21
48.2610422989
 72
1
 10
22.6944140166
 20
48.2610422989
 11
25.0592526925
 21
48.626268938
 72
1
 10
25.0592526925
 20
48.626268938
 11
25.2029961896
 21
48.6168415373
 72
1
 10
25.2029961896
 20
48.6168415373
 11
27.6842387906
 21
48.6168415373
 97
1
330
27C
 75
0
 76
1
 98
1
 10
0.0
 20
0.0
  0
LWPOLYLINE
  5
27E
100
AcDbEntity
  8
0
100
AcDbPolyline
 62
2
  6
CONTINUOUS
 90
28
 70
0
 10
35.5863208471
 20
48.0400014831
 10
35.5863208471
 20
54.9622171339
 10
37.9356791535
 20
54.9622171339
 10
37.9356791535
 20
48.0400014831
 10
37.9256296104
 20
47.8866714687
 10
37.8956529319
 20
47.7359664545
 10
37.8462620271
 20
47.5904664408
 10
37.7783019882
 20
47.4526614279
 10
37.6929356302
 20
47.3248914159
 10
37.5916235952
 20
47.209376405
 10
37.4760993602
 20
47.1080663955
 10
37.3483395768
 20
47.0227013874
 10
37.2105302505
 20
46.9547363811
 10
37.065029337
 20
46.9053413764
 10
36.9143263972
 20
46.8753713736
 10
36.7610000003
 20
46.8653169684
 10
36.6076736033
 20
46.8753713736
 10
36.4569706635
 20
46.9053413764
 10
36.31146975
 20
46.9547363811
 10
36.1736604237
 20
47.0227013874
 10
36.0459006404
 20
47.1080663955
 10
35.9303764053
 20
47.209376405
 10
35.8290643703
 20
47.3248914159
 10
35.7436980123
 20
47.4526614279
 10
35.6757379734
 20
47.5904664408
 10
35.6263470686
 20
47.7359664545
 10
35.5963703901
 20
47.8866714687
 10
35.5863208471
 20
48.0400014831
  0
HATCH
  5
27F
100
AcDbEntity
  8
0
100
AcDbHatch
 62
2
  6
CONTINUOUS
 10
0.0
 20
0.0
 30
0.0
210
0.0
220
0.0
230
1.0
  2
SOLID
 70
1
 71
1
 91
1
 92
1
 93
27
 72
1
 10
35.5863208471
 20
48.0400014831
 11
35.5863208471
 21
54.9622171339
 72
1
 10
35.5863208471
 20
54.9622171339
 11
37.9356791535
 21
54.9622171339
 72
1
 10
37.9356791535
 20
54.9622171339
 11
37.9356791535
 21
48.0400014831
 72
1
 10
37.9356791535
 20
48.0400014831
 11
37.9256296104
 21
47.8866714687
 72
1
 10
37.9256296104
 20
47.8866714687
 11
37.8956529319
 21
47.7359664545
 72
1
 10
37.8956529319
 20
47.7359664545
 11
37.8462620271
 21
47.5904664408
 72
1
 10
37.8462620271
 20
47.5904664408
 11
37.7783019882
 21
47.4526614279
 72
1
 10
37.7783019882
 20
47.4526614279
 11
37.6929356302
 21
47.3248914159
 72
1
 10
37.6929356302
 20
47.3248914159
 11
37.5916235952
 21
47.209376405
 72
1
 10
37.5916235952
 20
47.209376405
 11
37.4760993602
 21
47.1080663955
 72
1
 10
37.4760993602
 20
47.1080663955
 11
37.3483395768
 21
47.0227013874
 72
1
 10
37.3483395768
 20
47.0227013874
 11
37.2105302505
 21
46.9547363811
 72
1
 10
37.2105302505
 20
46.9547363811
 11
37.065029337
 21
46.9053413764
 72
1
 10
37.065029337
 20
46.9053413764
 11
36.9143263972
 21
46.8753713736
 72
1
 10
36.9143263972
 20
46.8753713736
 11
36.7610000003
 21
46.8653169684
 72
1
 10
36.7610000003
 20
46.8653169684
 11
36.6076736033
 21
46.8753713736
 72
1
 10
36.6076736033
 20
46.8753713736
 11
36.4569706635
 21
46.9053413764
 72
1
 10
36.4569706635
 20
46.9053413764
 11
36.31146975
 21
46.9547363811
 72
1
 10
36.31146975
 20
46.9547363811
 11
36.1736604237
 21
47.0227013874
 72
1
 10
36.1736604237
 20
47.0227013874
 11
36.0459006404
 21
47.1080663955
 72
1
 10
36.0459006404
 20
47.1080663955
 11
35.9303764053
 21
47.209376405
 72
1
 10
35.9303764053
 20
47.209376405
 11
35.8290643703
 21
47.3248914159
 72
1
 10
35.8290643703
 20
47.3248914159
 11
35.7436980123
 21
47.4526614279
 72
1
 10
35.7436980123
 20
47.4526614279
 11
35.6757379734
 21
47.5904664408
 72
1
 10
35.6757379734
 20
47.5904664408
 11
35.6263470686
 21
47.7359664545
 72
1
 10
35.6263470686
 20
47.7359664545
 11
35.5963703901
 21
47.8866714687
 72
1
 10
35.5963703901
 20
47.8866714687
 11
35.5863208471
 21
48.0400014831
 97
1
330
27E
 75
0
 76
1
 98
1
 10
0.0
 20
0.0
  0
LWPOLYLINE
  5
280
100
AcDbEntity
  8
0
100
AcDbPolyline
 62
2
  6
CONTINUOUS
 90
8
 70
0
 10
32.9923313344
 20
47.0301863881
 10
33.1563796967
 20
46.5469163427
 10
33.3821041117
 20
46.0891912997
 10
28.7480950465
 20
45.5534278506
 10
29.3301683772
 20
46.146464163
 10
29.8169521117
 20
46.8199201942
 10
32.8927659379
 20
47.5307364352
 10
32.9923313344
 20
47.0301863881
  0
HATCH
  5
281
100
AcDbEntity
  8
0
100
AcDbHatch
 62
2
  6
CONTINUOUS
 10
0.0
 20
0.0
 30
0.0
210
0.0
220
0.0
230
1.0
  2
SOLID
 70
1
 71
1
 91
1
 92
1
 93
7
 72
1
 10
32.9923313344
 20
47.0301863881
 11
33.1563796967
 21
46.5469163427
 72
1
 10
33.1563796967
 20
46.5469163427
 11
33.3821041117
 21
46.0891912997
 72
1
 10
33.3821041117
 20
46.0891912997
 11
28.7480950465
 21
45.5534278506
 72
1
 10
28.7480950465
 20
45.5534278506
 11
29.3301683772
 21
46.146464163
 72
1
 10
29.3301683772
 20
46.146464163
 11
29.8169521117
 21
46.8199201942
 72
1
 10
29.8169521117
 20
46.8199201942
 11
32.8927659379
 21
47.5307364352
 72
1
 10
32.8927659379
 20
47.5307364352
 11
32.9923313344
 21
47.0301863881
 97
1
330
280
 75
0
 76
1
 98
1
 10
0.0
 20
0.0
  0
LWPOLYLINE
  5
282
100
AcDbEntity
  8
0
100
AcDbPolyline
 62
2
  6
CONTINUOUS
 90
8
 70
0
 10
33.6656423722
 20
45.6648412598
 10
34.00214306
 20
45.2811412237
 10
34.3858485548
 20
44.9446311921
 10
27.3523542712
 20
44.659914577
 10
28.0838381739
 20
45.0541641554
 10
28.7480950465
 20
45.5534278506
 10
33.3821041117
 20
46.0891912997
 10
33.6656423722
 20
45.6648412598
  0
HATCH
  5
283
100
AcDbEntity
  8
0
100
AcDbHatch
 62
2
  6
CONTINUOUS
 10
0.0
 20
0.0
 30
0.0
210
0.0
220
0.0
230
1.0
  2
SOLID
 70
1
 71
1
 91
1
 92
1
 93
7
 72
1
 10
33.6656423722
 20
45.6648412598
 11
34.00214306
 21
45.2811412237
 72
1
 10
34.00214306
 20
45.2811412237
 11
34.3858485548
 21
44.9446311921
 72
1
 10
34.3858485548
 20
44.9446311921
 11
27.3523542712
 21
44.659914577
 72
1
 10
27.3523542712
 20
44.659914577
 11
28.0838381739
 21
45.0541641554
 72
1
 10
28.0838381739
 20
45.0541641554
 11
28.7480950465
 21
45.5534278506
 72
1
 10
28.7480950465
 20
45.5534278506
 11
33.3821041117
 21
46.0891912997
 72
1
 10
33.3821041117
 20
46.0891912997
 11
33.6656423722
 21
45.6648412598
 97
1
330
282
 75
0
 76
1
 98
1
 10
0.0
 20
0.0
  0
LWPOLYLINE
  5
284
100
AcDbEntity
  8
0
100
AcDbPolyline
 62
2
  6
CONTINUOUS
 90
24
 70
0
 10
34.8101935494
 20
44.6611011654
 10
35.2679173833
 20
44.4353811442
 10
35.7511882747
 20
44.2713261287
 10
36.2517373247
 20
44.1717561194
 10
16.3610861409
 20
43.6666760719
 10
20.0261379092
 20
51.9411676226
 10
19.750600337
 20
51.1572157897
 10
19.5954682224
 20
50.3408608074
 10
19.5642345443
 20
49.5104838523
 10
19.6576025652
 20
48.684781822
 10
19.8734699961
 20
47.8823463527
 10
20.2069763321
 20
47.121245207
 10
20.6506122924
 20
46.4186154575
 10
21.1943889001
 20
45.7902776256
 10
21.8260623961
 20
45.2503794643
 10
22.5314099211
 20
44.8110774052
 10
23.2945497596
 20
44.4822628421
 10
24.0982989358
 20
44.2713261287
 10
24.9245601072
 20
44.1830563096
 10
25.754729048
 20
44.2194013213
 10
26.5701135443
 20
44.3795561005
 10
27.3523542712
 20
44.659914577
 10
34.3858485548
 20
44.9446311921
 10
34.8101935494
 20
44.6611011654
  0
HATCH
  5
285
100
AcDbEntity
  8
0
100
AcDbHatch
 62
2
  6
CONTINUOUS
 10
0.0
 20
0.0
 30
0.0
210
0.0
220
0.0
230
1.0
  2
SOLID
 70
1
 71
1
 91
1
 92
1
 93
23
 72
1
 10
34.8101935494
 20
44.6611011654
 11
35.2679173833
 21
44.4353811442
 72
1
 10
35.2679173833
 20
44.4353811442
 11
35.7511882747
 21
44.2713261287
 72
1
 10
35.7511882747
 20
44.2713261287
 11
36.2517373247
 21
44.1717561194
 72
1
 10
36.2517373247
 20
44.1717561194
 11
16.3610861409
 21
43.6666760719
 72
1
 10
16.3610861409
 20
43.6666760719
 11
20.0261379092
 21
51.9411676226
 72
1
 10
20.0261379092
 20
51.9411676226
 11
19.750600337
 21
51.1572157897
 72
1
 10
19.750600337
 20
51.1572157897
 11
19.5954682224
 21
50.3408608074
 72
1
 10
19.5954682224
 20
50.3408608074
 11
19.5642345443
 21
49.5104838523
 72
1
 10
19.5642345443
 20
49.5104838523
 11
19.6576025652
 21
48.684781822
 72
1
 10
19.6576025652
 20
48.684781822
 11
19.8734699961
 21
47.8823463527
 72
1
 10
19.8734699961
 20
47.8823463527
 11
20.2069763321
 21
47.121245207
 72
1
 10
20.2069763321
 20
47.121245207
 11
20.6506122924
 21
46.4186154575
 72
1
 10
20.6506122924
 20
46.4186154575
 11
21.1943889001
 21
45.7902776256
 72
1
 10
21.1943889001
 20
45.7902776256
 11
21.8260623961
 21
45.2503794643
 72
1
 10
21.8260623961
 20
45.2503794643
 11
22.5314099211
 21
44.8110774052
 72
1
 10
22.5314099211
 20
44.8110774052
 11
23.2945497596
 21
44.4822628421
 72
1
 10
23.2945497596
 20
44.4822628421
 11
24.0982989358
 21
44.2713261287
 72
1
 10
24.0982989358
 20
44.2713261287
 11
24.9245601072
 21
44.1830563096
 72
1
 10
24.9245601072
 20
44.1830563096
 11
25.754729048
 21
44.2194013213
 72
1
 10
25.754729048
 20
44.2194013213
 11
26.5701135443
 21
44.3795561005
 72
1
 10
26.5701135443
 20
44.3795561005
 11
27.3523542712
 21
44.659914577
 72
1
 10
27.3523542712
 20
44.659914577
 11
34.3858485548
 21
44.9446311921
 72
1
 10
34.3858485548
 20
44.9446311921
 11
34.8101935494
 21
44.6611011654
 97
1
330
284
 75
0
 76
1
 98
1
 10
0.0
 20
0.0
  0
LWPOLYLINE
  5
286
100
AcDbEntity
  8
0
100
AcDbPolyline
 62
2
  6
CONTINUOUS
 90
43
 70
0
 10
36.7610000003
 20
44.13838322
 10
37.2702626758
 20
44.1717561194
 10
37.7708117258
 20
44.2713261287
 10
38.2540826172
 20
44.4353811442
 10
38.7118064511
 20
44.6611011654
 10
39.1361514457
 20
44.9446311921
 10
39.5198569406
 20
45.2811412237
 10
39.8563576283
 20
45.6648412598
 10
40.1398958888
 20
46.0891912997
 10
45.3528889231
 20
43.6666760719
 10
45.345943091
 20
43.5341510594
 10
45.3251816945
 20
43.4030660471
 10
45.2908322
 20
43.2748610351
 10
45.2432709475
 20
43.1509610234
 10
45.1830190283
 20
43.0327160123
 10
45.1107365748
 20
42.9214160018
 10
45.0272155289
 20
42.8182759921
 10
44.9333709645
 20
42.7244209833
 10
44.8302310623
 20
42.6409009754
 10
44.7189258447
 20
42.5686159687
 10
44.600674795
 20
42.508375963
 10
44.4767734964
 20
42.4608109585
 10
44.3485794374
 20
42.4264609553
 10
44.217497139
 20
42.4057009533
 10
44.0849627663
 20
42.3987559527
 10
17.6290122978
 20
42.3987559527
 10
17.4964779251
 20
42.4057009533
 10
17.3653956267
 20
42.4264609553
 10
17.2372015677
 20
42.4608109585
 10
17.113300269
 20
42.508375963
 10
16.9950492193
 20
42.5686159687
 10
16.8837440018
 20
42.6409009754
 10
16.7806040996
 20
42.7244209833
 10
16.6867595352
 20
42.8182759921
 10
16.6032384892
 20
42.9214160018
 10
16.5309560358
 20
43.0327160123
 10
16.4707041165
 20
43.1509610234
 10
16.4231428641
 20
43.2748610351
 10
16.3887933695
 20
43.4030660471
 10
16.368031973
 20
43.5341510594
 10
16.3610861409
 20
43.6666760719
 10
36.2517373247
 20
44.1717561194
 10
36.7610000003
 20
44.13838322
  0
HATCH
  5
287
100
AcDbEntity
  8
0
100
AcDbHatch
 62
2
  6
CONTINUOUS
 10
0.0
 20
0.0
 30
0.0
210
0.0
220
0.0
230
1.0
  2
SOLID
 70
1
 71
1
 91
1
 92
1
 93
42
 72
1
 10
36.7610000003
 20
44.13838322
 11
37.2702626758
 21
44.1717561194
 72
1
 10
37.2702626758
 20
44.1717561194
 11
37.7708117258
 21
44.2713261287
 72
1
 10
37.7708117258
 20
44.2713261287
 11
38.2540826172
 21
44.4353811442
 72
1
 10
38.2540826172
 20
44.4353811442
 11
38.7118064511
 21
44.6611011654
 72
1
 10
38.7118064511
 20
44.6611011654
 11
39.1361514457
 21
44.9446311921
 72
1
 10
39.1361514457
 20
44.9446311921
 11
39.5198569406
 21
45.2811412237
 72
1
 10
39.5198569406
 20
45.2811412237
 11
39.8563576283
 21
45.6648412598
 72
1
 10
39.8563576283
 20
45.6648412598
 11
40.1398958888
 21
46.0891912997
 72
1
 10
40.1398958888
 20
46.0891912997
 11
45.3528889231
 21
43.6666760719
 72
1
 10
45.3528889231
 20
43.6666760719
 11
45.345943091
 21
43.5341510594
 72
1
 10
45.345943091
 20
43.5341510594
 11
45.3251816945
 21
43.4030660471
 72
1
 10
45.3251816945
 20
43.4030660471
 11
45.2908322
 21
43.2748610351
 72
1
 10
45.2908322
 20
43.2748610351
 11
45.2432709475
 21
43.1509610234
 72
1
 10
45.2432709475
 20
43.1509610234
 11
45.1830190283
 21
43.0327160123
 72
1
 10
45.1830190283
 20
43.0327160123
 11
45.1107365748
 21
42.9214160018
 72
1
 10
45.1107365748
 20
42.9214160018
 11
45.0272155289
 21
42.8182759921
 72
1
 10
45.0272155289
 20
42.8182759921
 11
44.9333709645
 21
42.7244209833
 72
1
 10
44.9333709645
 20
42.7244209833
 11
44.8302310623
 21
42.6409009754
 72
1
 10
44.8302310623
 20
42.6409009754
 11
44.7189258447
 21
42.5686159687
 72
1
 10
44.7189258447
 20
42.5686159687
 11
44.600674795
 21
42.508375963
 72
1
 10
44.600674795
 20
42.508375963
 11
44.4767734964
 21
42.4608109585
 72
1
 10
44.4767734964
 20
42.4608109585
 11
44.3485794374
 21
42.4264609553
 72
1
 10
44.3485794374
 20
42.4264609553
 11
44.217497139
 21
42.4057009533
 72
1
 10
44.217497139
 20
42.4057009533
 11
44.0849627663
 21
42.3987559527
 72
1
 10
44.0849627663
 20
42.3987559527
 11
17.6290122978
 21
42.3987559527
 72
1
 10
17.6290122978
 20
42.3987559527
 11
17.4964779251
 21
42.4057009533
 72
1
 10
17.4964779251
 20
42.4057009533
 11
17.3653956267
 21
42.4264609553
 72
1
 10
17.3653956267
 20
42.4264609553
 11
17.2372015677
 21
42.4608109585
 72
1
 10
17.2372015677
 20
42.4608109585
 11
17.113300269
 21
42.508375963
 72
1
 10
17.113300269
 20
42.508375963
 11
16.9950492193
 21
42.5686159687
 72
1
 10
16.9950492193
 20
42.5686159687
 11
16.8837440018
 21
42.6409009754
 72
1
 10
16.8837440018
 20
42.6409009754
 11
16.7806040996
 21
42.7244209833
 72
1
 10
16.7806040996
 20
42.7244209833
 11
16.6867595352
 21
42.8182759921
 72
1
 10
16.6867595352
 20
42.8182759921
 11
16.6032384892
 21
42.9214160018
 72
1
 10
16.6032384892
 20
42.9214160018
 11
16.5309560358
 21
43.0327160123
 72
1
 10
16.5309560358
 20
43.0327160123
 11
16.4707041165
 21
43.1509610234
 72
1
 10
16.4707041165
 20
43.1509610234
 11
16.4231428641
 21
43.2748610351
 72
1
 10
16.4231428641
 20
43.2748610351
 11
16.3887933695
 21
43.4030660471
 72
1
 10
16.3887933695
 20
43.4030660471
 11
16.368031973
 21
43.5341510594
 72
1
 10
16.368031973
 20
43.5341510594
 11
16.3610861409
 21
43.6666760719
 72
1
 10
16.3610861409
 20
43.6666760719
 11
36.2517373247
 21
44.1717561194
 72
1
 10
36.2517373247
 20
44.1717561194
 11
36.7610000003
 21
44.13838322
 97
1
330
286
 75
0
 76
1
 98
1
 10
0.0
 20
0.0
  0
SOLID
  5
288
100
AcDbEntity
  8
0
100
AcDbTrace
 62
2
  6
CONTINUOUS
 10
25.3408515753
 20
55.2505598297
 11
24.5102931399
 21
55.2245960958
 12
26.1659444963
 22
55.151954039
 13
45.3528889232
 23
56.1308222438
  0
ENDBLK
  5
289
100
AcDbEntity
  8
0
  6
BYBLOCK
 62
0
100
AcDbBlockEnd
  0
BLOCK
  5
28A
100
AcDbEntity
  8
HATCHING_BL0
100
AcDbBlockBegin
  2
HATCHING_BL0
 70
64
 10
27.4636336608
 20
258.4665018063
  3
HATCHING_BL0
  1

  0
TEXT
  5
28B
100
AcDbEntity
  8
HATCHING_BL0
100
AcDbText
 62
7
  6
CONTINUOUS
 10
6.3502507612
 20
260.7438526966
  7
STANDARD
 40
5.0
  1
A
 72
5
 11
10.9970909099
 21
260.7438526966
100
AcDbText
  0
LEADER
  5
28C
100
AcDbEntity
  8
HATCHING_BL0
100
AcDbLeader
 62
7
  6
CONTINUOUS
  3
STANDARD
 71
1
 72
0
 73
3
 75
0
 76
2
 10
11.9636336608
 20
248.689150916
 30
0.0
 10
11.9636336608
 20
268.2438526966
 30
0.0
1001
ACAD
1000
DSTYLE
1002
{
1070
77
1070
0
1070
341
1005
216
1070
41
1040
8.0
1002
}
  0
TEXT
  5
28D
100
AcDbEntity
  8
HATCHING_BL0
100
AcDbText
 62
7
  6
CONTINUOUS
 10
43.9301764118
 20
260.7438526966
  7
STANDARD
 40
5.0
  1
A
 72
5
 11
48.5770165605
 21
260.7438526966
100
AcDbText
  0
LEADER
  5
28E
100
AcDbEntity
  8
HATCHING_BL0
100
AcDbLeader
 62
7
  6
CONTINUOUS
  3
STANDARD
 71
1
 72
0
 73
3
 75
0
 76
2
 10
42.9636336608
 20
248.689150916
 30
0.0
 10
42.9636336608
 20
268.2438526966
 30
0.0
1001
ACAD
1000
DSTYLE
1002
{
1070
77
1070
0
1070
341
1005
216
1070
41
1040
8.0
1002
}
  0
LINE
  5
28F
100
AcDbEntity
  8
HATCHING_BL0
100
AcDbLine
 62
7
  6
CENTER
 10
11.9636336608
 20
248.689150916
 11
42.9636336608
 21
248.689150916
  0
ENDBLK
  5
290
100
AcDbEntity
  8
0
  6
BYBLOCK
 62
0
100
AcDbBlockEnd
  0
BLOCK
  5
291
100
AcDbEntity
  8
94797001000_BL1
100
AcDbBlockBegin
  2
94797001000_BL1
 70
64
 10
68.926561644
 20
179.5964679327
  3
94797001000_BL1
  1

  0
LINE
  5
292
100
AcDbEntity
  8
94797001000_BL1
100
AcDbLine
 62
7
  6
CONTINUOUS
 10
95.8894896271
 20
151.189150916
 11
115.8894896271
 21
151.189150916
  0
LINE
  5
293
100
AcDbEntity
  8
94797001000_BL1
100
AcDbLine
 62
7
  6
CONTINUOUS
 10
96.0158904455
 20
168.2910714486
 11
97.5275535075
 21
168.2910714486
  0
LINE
  5
294
100
AcDbEntity
  8
94797001000_BL1
100
AcDbLine
 62
7
  6
CONTINUOUS
 10
98.8299093761
 20
168.2910714486
 11
100.3415724381
 21
168.2910714486
  0
LINE
  5
295
100
AcDbEntity
  8
94797001000_BL1
100
AcDbLine
 62
7
  6
CONTINUOUS
 10
100.1415724382
 20
168.4910714485
 11
99.0299093762
 21
168.4910714485
  0
LINE
  5
296
100
AcDbEntity
  8
94797001000_BL1
100
AcDbLine
 62
7
  6
CONTINUOUS
 10
97.3275535074
 20
168.4910714485
 11
96.2158904454
 21
168.4910714485
  0
LINE
  5
297
100
AcDbEntity
  8
94797001000_BL1
100
AcDbLine
 62
7
  6
CONTINUOUS
 10
100.3415724381
 20
170.587636485
 11
101.3640388091
 21
170.587636485
  0
LINE
  5
298
100
AcDbEntity
  8
94797001000_BL1
100
AcDbLine
 62
7
  6
CONTINUOUS
 10
101.6354726113
 20
170.587636485
 11
104.585857189
 21
170.587636485
  0
LINE
  5
299
100
AcDbEntity
  8
94797001000_BL1
100
AcDbLine
 62
7
  6
CONTINUOUS
 10
104.585857189
 20
170.7876364849
 11
101.8036668166
 21
170.7876364851
  0
LINE
  5
29A
100
AcDbEntity
  8
94797001000_BL1
100
AcDbLine
 62
7
  6
CONTINUOUS
 10
101.1310107657
 20
170.7876364849
 11
100.1415724382
 21
170.7876364849
  0
LINE
  5
29B
100
AcDbEntity
  8
94797001000_BL1
100
AcDbLine
 62
7
  6
CONTINUOUS
 10
100.1415724382
 20
171.6085951119
 11
101.1310107657
 21
171.6085951119
  0
LINE
  5
29C
100
AcDbEntity
  8
94797001000_BL1
100
AcDbLine
 62
7
  6
CONTINUOUS
 10
102.9344107641
 20
171.6085951119
 11
104.585857189
 21
171.6085951119
  0
LINE
  5
29D
100
AcDbEntity
  8
94797001000_BL1
100
AcDbLine
 62
7
  6
CONTINUOUS
 10
104.585857189
 20
171.8085951119
 11
103.2103918739
 21
171.8085951119
  0
LINE
  5
29E
100
AcDbEntity
  8
94797001000_BL1
100
AcDbLine
 62
7
  6
CONTINUOUS
 10
101.3640388091
 20
171.8085951119
 11
100.3415724381
 21
171.8085951119
  0
LINE
  5
29F
100
AcDbEntity
  8
94797001000_BL1
100
AcDbLine
 62
7
  6
CONTINUOUS
 10
101.339691931
 20
253.017364693
 11
100.4436402013
 21
252.3543212919
  0
LINE
  5
2A0
100
AcDbEntity
  8
94797001000_BL1
100
AcDbLine
 62
7
  6
CONTINUOUS
 10
100.4077939814
 20
252.0789959706
 11
101.6231066562
 21
252.9782800438
  0
LINE
  5
2A1
100
AcDbEntity
  8
94797001000_BL1
100
AcDbLine
 62
7
  6
CONTINUOUS
 10
97.8894896271
 20
191.189150916
 11
107.8894896271
 21
191.189150916
  0
LINE
  5
2A2
100
AcDbEntity
  8
94797001000_BL1
100
AcDbLine
 62
7
  6
CONTINUOUS
 10
87.8894896271
 20
263.189150916
 11
87.8894896271
 21
159.189150916
  0
LINE
  5
2A3
100
AcDbEntity
  8
94797001000_BL1
100
AcDbLine
 62
7
  6
CONTINUOUS
 10
95.8894896271
 20
229.189150916
 11
95.8894896271
 21
193.189150916
  0
LINE
  5
2A4
100
AcDbEntity
  8
94797001000_BL1
100
AcDbLine
 62
7
  6
CONTINUOUS
 10
96.0158904455
 20
172.1283699904
 11
96.0158904455
 21
168.2910714486
  0
LINE
  5
2A5
100
AcDbEntity
  8
94797001000_BL1
100
AcDbLine
 62
7
  6
CONTINUOUS
 10
96.2158904454
 20
168.4910714485
 11
96.2158904456
 21
172.1283699904
  0
LINE
  5
2A6
100
AcDbEntity
  8
94797001000_BL1
100
AcDbLine
 62
7
  6
CONTINUOUS
 10
97.3275535074
 20
172.1283699904
 11
97.3275535074
 21
168.4910714485
  0
LINE
  5
2A7
100
AcDbEntity
  8
94797001000_BL1
100
AcDbLine
 62
7
  6
CONTINUOUS
 10
97.5275535075
 20
168.2910714486
 11
97.5275535075
 21
172.1283699904
  0
LINE
  5
2A8
100
AcDbEntity
  8
94797001000_BL1
100
AcDbLine
 62
7
  6
CONTINUOUS
 10
98.8299093763
 20
172.1283699904
 11
98.8299093761
 21
168.2910714486
  0
LINE
  5
2A9
100
AcDbEntity
  8
94797001000_BL1
100
AcDbLine
 62
7
  6
CONTINUOUS
 10
99.0299093762
 20
168.4910714485
 11
99.0299093762
 21
172.1283699904
  0
LINE
  5
2AA
100
AcDbEntity
  8
94797001000_BL1
100
AcDbLine
 62
7
  6
CONTINUOUS
 10
100.1415724382
 20
172.1283699904
 11
100.1415724382
 21
171.6085951119
  0
LINE
  5
2AB
100
AcDbEntity
  8
94797001000_BL1
100
AcDbLine
 62
7
  6
CONTINUOUS
 10
100.1415724382
 20
170.7876364849
 11
100.1415724382
 21
168.4910714485
  0
LINE
  5
2AC
100
AcDbEntity
  8
94797001000_BL1
100
AcDbLine
 62
7
  6
CONTINUOUS
 10
100.3415724381
 20
168.2910714486
 11
100.3415724381
 21
170.587636485
  0
LINE
  5
2AD
100
AcDbEntity
  8
94797001000_BL1
100
AcDbLine
 62
7
  6
CONTINUOUS
 10
100.3415724381
 20
171.8085951119
 11
100.3415724381
 21
172.1283699904
  0
LINE
  5
2AE
100
AcDbEntity
  8
94797001000_BL1
100
AcDbLine
 62
7
  6
CONTINUOUS
 10
103.4374068161
 20
254.0872303835
 11
103.4374068161
 21
251.7906653471
  0
LINE
  5
2AF
100
AcDbEntity
  8
94797001000_BL1
100
AcDbLine
 62
7
  6
CONTINUOUS
 10
103.4374068161
 20
250.5697067202
 11
103.4374068161
 21
250.2499318416
  0
LINE
  5
2B0
100
AcDbEntity
  8
94797001000_BL1
100
AcDbLine
 62
7
  6
CONTINUOUS
 10
103.637406816
 20
250.2499318416
 11
103.637406816
 21
250.7697067201
  0
LINE
  5
2B1
100
AcDbEntity
  8
94797001000_BL1
100
AcDbLine
 62
7
  6
CONTINUOUS
 10
103.637406816
 20
251.5906653471
 11
103.637406816
 21
253.8872303835
  0
LINE
  5
2B2
100
AcDbEntity
  8
94797001000_BL1
100
AcDbLine
 62
7
  6
CONTINUOUS
 10
104.749069878
 20
253.8872303835
 11
104.749069878
 21
250.2499318416
  0
LINE
  5
2B3
100
AcDbEntity
  8
94797001000_BL1
100
AcDbLine
 62
7
  6
CONTINUOUS
 10
104.9490698779
 20
250.2499318416
 11
104.9490698781
 21
254.0872303835
  0
LINE
  5
2B4
100
AcDbEntity
  8
94797001000_BL1
100
AcDbLine
 62
7
  6
CONTINUOUS
 10
106.2514257467
 20
254.0872303835
 11
106.2514257467
 21
250.2499318416
  0
LINE
  5
2B5
100
AcDbEntity
  8
94797001000_BL1
100
AcDbLine
 62
7
  6
CONTINUOUS
 10
106.4514257468
 20
250.2499318416
 11
106.4514257468
 21
253.8872303835
  0
LINE
  5
2B6
100
AcDbEntity
  8
94797001000_BL1
100
AcDbLine
 62
7
  6
CONTINUOUS
 10
107.5630888088
 20
253.8872303835
 11
107.5630888086
 21
250.2499318416
  0
LINE
  5
2B7
100
AcDbEntity
  8
94797001000_BL1
100
AcDbLine
 62
7
  6
CONTINUOUS
 10
107.7630888087
 20
250.2499318416
 11
107.7630888087
 21
254.0872303835
  0
LINE
  5
2B8
100
AcDbEntity
  8
94797001000_BL1
100
AcDbLine
 62
7
  6
CONTINUOUS
 10
109.8894896271
 20
193.189150916
 11
109.8894896271
 21
229.189150916
  0
LINE
  5
2B9
100
AcDbEntity
  8
94797001000_BL1
100
AcDbLine
 62
9
  6
CONTINUOUS
 10
112.8894896271
 20
271.189150916
 11
112.8894896271
 21
151.189150916
  0
LINE
  5
2BA
100
AcDbEntity
  8
94797001000_BL1
100
AcDbLine
 62
7
  6
CONTINUOUS
 10
115.8894896271
 20
271.189150916
 11
115.8894896271
 21
151.189150916
  0
LINE
  5
2BB
100
AcDbEntity
  8
94797001000_BL1
100
AcDbLine
 62
7
  6
CONTINUOUS
 10
107.8894896271
 20
231.189150916
 11
97.8894896271
 21
231.189150916
  0
LINE
  5
2BC
100
AcDbEntity
  8
94797001000_BL1
100
AcDbLine
 62
7
  6
CONTINUOUS
 10
103.3711852727
 20
170.2993058615
 11
102.155872598
 21
169.4000217883
  0
LINE
  5
2BD
100
AcDbEntity
  8
94797001000_BL1
100
AcDbLine
 62
7
  6
CONTINUOUS
 10
102.4392873232
 20
169.3609371391
 11
103.3353390528
 21
170.0239805402
  0
LINE
  5
2BE
100
AcDbEntity
  8
94797001000_BL1
100
AcDbLine
 62
7
  6
CONTINUOUS
 10
99.1931220652
 20
250.5697067202
 11
100.5685873803
 21
250.5697067202
  0
LINE
  5
2BF
100
AcDbEntity
  8
94797001000_BL1
100
AcDbLine
 62
7
  6
CONTINUOUS
 10
102.4149404451
 20
250.5697067202
 11
103.4374068161
 21
250.5697067202
  0
LINE
  5
2C0
100
AcDbEntity
  8
94797001000_BL1
100
AcDbLine
 62
7
  6
CONTINUOUS
 10
103.637406816
 20
250.7697067201
 11
102.6479684885
 21
250.7697067201
  0
LINE
  5
2C1
100
AcDbEntity
  8
94797001000_BL1
100
AcDbLine
 62
7
  6
CONTINUOUS
 10
100.8445684901
 20
250.7697067201
 11
99.1931220652
 21
250.7697067201
  0
LINE
  5
2C2
100
AcDbEntity
  8
94797001000_BL1
100
AcDbLine
 62
7
  6
CONTINUOUS
 10
99.1931220652
 20
251.5906653471
 11
101.9753124376
 21
251.590665347
  0
LINE
  5
2C3
100
AcDbEntity
  8
94797001000_BL1
100
AcDbLine
 62
7
  6
CONTINUOUS
 10
102.6479684885
 20
251.5906653471
 11
103.637406816
 21
251.5906653471
  0
LINE
  5
2C4
100
AcDbEntity
  8
94797001000_BL1
100
AcDbLine
 62
7
  6
CONTINUOUS
 10
103.4374068161
 20
251.7906653471
 11
102.4149404451
 21
251.7906653471
  0
LINE
  5
2C5
100
AcDbEntity
  8
94797001000_BL1
100
AcDbLine
 62
7
  6
CONTINUOUS
 10
102.1435066429
 20
251.7906653471
 11
99.1931220652
 21
251.7906653471
  0
LINE
  5
2C6
100
AcDbEntity
  8
94797001000_BL1
100
AcDbLine
 62
7
  6
CONTINUOUS
 10
103.637406816
 20
253.8872303835
 11
104.749069878
 21
253.8872303835
  0
LINE
  5
2C7
100
AcDbEntity
  8
94797001000_BL1
100
AcDbLine
 62
7
  6
CONTINUOUS
 10
106.4514257468
 20
253.8872303835
 11
107.5630888088
 21
253.8872303835
  0
LINE
  5
2C8
100
AcDbEntity
  8
94797001000_BL1
100
AcDbLine
 62
7
  6
CONTINUOUS
 10
107.7630888087
 20
254.0872303835
 11
106.2514257467
 21
254.0872303835
  0
LINE
  5
2C9
100
AcDbEntity
  8
94797001000_BL1
100
AcDbLine
 62
7
  6
CONTINUOUS
 10
104.9490698781
 20
254.0872303835
 11
103.4374068161
 21
254.0872303835
  0
LINE
  5
2CA
100
AcDbEntity
  8
94797001000_BL1
100
AcDbLine
 62
7
  6
CONTINUOUS
 10
95.8894896271
 20
271.189150916
 11
115.8894896271
 21
271.189150916
  0
LINE
  5
2CB
100
AcDbEntity
  8
94797001000_BL1
100
AcDbLine
 62
7
  6
CONTINUOUS
 10
21.9636336608
 20
151.189150916
 11
24.9636336608
 21
151.189150916
  0
LINE
  5
2CC
100
AcDbEntity
  8
94797001000_BL1
100
AcDbLine
 62
7
  6
CONTINUOUS
 10
21.9636336608
 20
271.189150916
 11
21.9636336608
 21
151.189150916
  0
LINE
  5
2CD
100
AcDbEntity
  8
94797001000_BL1
100
AcDbLine
 62
9
  6
CONTINUOUS
 10
24.9636336608
 20
271.189150916
 11
24.9636336608
 21
151.189150916
  0
LINE
  5
2CE
100
AcDbEntity
  8
94797001000_BL1
100
AcDbLine
 62
7
  6
CONTINUOUS
 10
30.9636336608
 20
263.4431842236
 11
30.9636336608
 21
158.9351176085
  0
LINE
  5
2CF
100
AcDbEntity
  8
94797001000_BL1
100
AcDbLine
 62
7
  6
CONTINUOUS
 10
21.9636336608
 20
271.189150916
 11
24.9636336608
 21
271.189150916
  0
LINE
  5
2D0
100
AcDbEntity
  8
94797001000_BL1
100
AcDbLine
 62
7
  6
CONTINUOUS
 10
30.9636336608
 20
87.7497516418
 11
24.9636336608
 21
87.7497516418
  0
LINE
  5
2D1
100
AcDbEntity
  8
94797001000_BL1
100
AcDbLine
 62
7
  6
CONTINUOUS
 10
21.9636336608
 20
90.7497516418
 11
21.9636336608
 21
115.7497516418
  0
LINE
  5
2D2
100
AcDbEntity
  8
94797001000_BL1
100
AcDbLine
 62
7
  6
CONTINUOUS
 10
30.9636336608
 20
90.7497516418
 11
25.4636336608
 21
90.7497516418
  0
LINE
  5
2D3
100
AcDbEntity
  8
94797001000_BL1
100
AcDbLine
 62
7
  6
CONTINUOUS
 10
24.9636336608
 20
91.2497516418
 11
24.9636336608
 21
115.7497516418
  0
LINE
  5
2D4
100
AcDbEntity
  8
94797001000_BL1
100
AcDbLine
 62
7
  6
CONTINUOUS
 10
30.9636336608
 20
90.7497516418
 11
30.9636336608
 21
87.7497516418
  0
LINE
  5
2D5
100
AcDbEntity
  8
94797001000_BL1
100
AcDbLine
 62
7
  6
CONTINUOUS
 10
24.9636336608
 20
115.7497516418
 11
21.9636336608
 21
115.7497516418
  0
ARC
  5
2D6
100
AcDbEntity
  8
94797001000_BL1
100
AcDbCircle
 62
7
  6
CONTINUOUS
 10
95.8894896271
 20
159.189150916
 40
8.0
100
AcDbArc
 50
180.0
 51
270.0
  0
CIRCLE
  5
2D7
100
AcDbEntity
  8
94797001000_BL1
100
AcDbCircle
 62
7
  6
CONTINUOUS
 10
97.8894896271
 20
161.189150916
 40
4.8
  0
ARC
  5
2D8
100
AcDbEntity
  8
94797001000_BL1
100
AcDbCircle
 62
7
  6
CONTINUOUS
 10
98.1787314418
 20
172.1283699904
 40
2.1628409963
100
AcDbArc
 50
0.0
 51
180.0
  0
ARC
  5
2D9
100
AcDbEntity
  8
94797001000_BL1
100
AcDbCircle
 62
7
  6
CONTINUOUS
 10
97.8894896271
 20
193.189150916
 40
2.0
100
AcDbArc
 50
180.0
 51
270.0
  0
ARC
  5
2DA
100
AcDbEntity
  8
94797001000_BL1
100
AcDbCircle
 62
7
  6
CONTINUOUS
 10
98.1787314419
 20
172.1283699904
 40
1.9628409963
100
AcDbArc
 50
0.0
 51
180.0
  0
ARC
  5
2DB
100
AcDbEntity
  8
94797001000_BL1
100
AcDbCircle
 62
7
  6
CONTINUOUS
 10
98.1787314418
 20
172.1283699904
 40
0.8511779344
100
AcDbArc
 50
0.0
 51
180.0
  0
ARC
  5
2DC
100
AcDbEntity
  8
94797001000_BL1
100
AcDbCircle
 62
7
  6
CONTINUOUS
 10
98.1787314419
 20
172.1283699904
 40
0.6511779344
100
AcDbArc
 50
0.0
 51
180.0
  0
ARC
  5
2DD
100
AcDbEntity
  8
94797001000_BL1
100
AcDbCircle
 62
7
  6
CONTINUOUS
 10
95.8894896271
 20
263.189150916
 40
8.0
100
AcDbArc
 50
90.0
 51
180.0
  0
CIRCLE
  5
2DE
100
AcDbEntity
  8
94797001000_BL1
100
AcDbCircle
 62
7
  6
CONTINUOUS
 10
97.8894896271
 20
261.189150916
 40
4.8
  0
ARC
  5
2DF
100
AcDbEntity
  8
94797001000_BL1
100
AcDbCircle
 62
7
  6
CONTINUOUS
 10
99.1931220652
 20
251.1801860336
 40
3.4791460267
100
AcDbArc
 50
353.2243027717
 51
6.7756972283
  0
ARC
  5
2E0
100
AcDbEntity
  8
94797001000_BL1
100
AcDbCircle
 62
7
  6
CONTINUOUS
 10
99.1931220653
 20
251.1801860337
 40
3.2791460267
100
AcDbArc
 50
349.270634005
 51
10.729365995
  0
ARC
  5
2E1
100
AcDbEntity
  8
94797001000_BL1
100
AcDbCircle
 62
7
  6
CONTINUOUS
 10
99.1349811782
 20
251.1801860336
 40
3.0698388335
100
AcDbArc
 50
35.854515981
 51
11.4705154501
  0
ARC
  5
2E2
100
AcDbEntity
  8
94797001000_BL1
100
AcDbCircle
 62
7
  6
CONTINUOUS
 10
99.1349811781
 20
251.1801860336
 40
2.8698388335
100
AcDbArc
 50
39.8043394786
 51
8.2233438267
  0
ARC
  5
2E3
100
AcDbEntity
  8
94797001000_BL1
100
AcDbCircle
 62
7
  6
CONTINUOUS
 10
97.8894896271
 20
229.189150916
 40
2.0
100
AcDbArc
 50
90.0
 51
180.0
  0
ARC
  5
2E4
100
AcDbEntity
  8
94797001000_BL1
100
AcDbCircle
 62
7
  6
CONTINUOUS
 10
99.1349811783
 20
251.1801860335
 40
1.7581757715
100
AcDbArc
 50
41.898609461
 51
346.4986148307
  0
ARC
  5
2E5
100
AcDbEntity
  8
94797001000_BL1
100
AcDbCircle
 62
7
  6
CONTINUOUS
 10
99.1349811782
 20
251.1801860336
 40
1.5581757715
100
AcDbArc
 50
35.2282226131
 51
336.934010569
  0
ARC
  5
2E6
100
AcDbEntity
  8
94797001000_BL1
100
AcDbCircle
 62
7
  6
CONTINUOUS
 10
99.1931220652
 20
251.1801860336
 40
0.6104793135
100
AcDbArc
 50
90.0
 51
270.0
  0
ARC
  5
2E7
100
AcDbEntity
  8
94797001000_BL1
100
AcDbCircle
 62
7
  6
CONTINUOUS
 10
99.1931220652
 20
251.1801860336
 40
0.4104793135
100
AcDbArc
 50
90.0
 51
270.0
  0
CIRCLE
  5
2E8
100
AcDbEntity
  8
94797001000_BL1
100
AcDbCircle
 62
7
  6
CONTINUOUS
 10
102.8894896271
 20
181.089150916
 40
5.65
  0
ARC
  5
2E9
100
AcDbEntity
  8
94797001000_BL1
100
AcDbCircle
 62
7
  6
CONTINUOUS
 10
104.5858571889
 20
171.1981157984
 40
3.4791460267
100
AcDbArc
 50
173.2243027717
 51
186.7756972283
  0
ARC
  5
2EA
100
AcDbEntity
  8
94797001000_BL1
100
AcDbCircle
 62
7
  6
CONTINUOUS
 10
104.5858571889
 20
171.1981157984
 40
3.2791460267
100
AcDbArc
 50
169.270634005
 51
190.729365995
  0
ARC
  5
2EB
100
AcDbEntity
  8
94797001000_BL1
100
AcDbCircle
 62
7
  6
CONTINUOUS
 10
104.643998076
 20
171.1981157984
 40
3.0698388335
100
AcDbArc
 50
215.854515981
 51
191.4705154501
  0
ARC
  5
2EC
100
AcDbEntity
  8
94797001000_BL1
100
AcDbCircle
 62
7
  6
CONTINUOUS
 10
104.643998076
 20
171.1981157984
 40
2.8698388335
100
AcDbArc
 50
219.8043394786
 51
188.2233438267
  0
ARC
  5
2ED
100
AcDbEntity
  8
94797001000_BL1
100
AcDbCircle
 62
7
  6
CONTINUOUS
 10
104.6439980759
 20
171.1981157985
 40
1.7581757715
100
AcDbArc
 50
221.898609461
 51
166.4986148307
  0
ARC
  5
2EE
100
AcDbEntity
  8
94797001000_BL1
100
AcDbCircle
 62
7
  6
CONTINUOUS
 10
104.643998076
 20
171.1981157984
 40
1.5581757715
100
AcDbArc
 50
215.2282226131
 51
156.934010569
  0
ARC
  5
2EF
100
AcDbEntity
  8
94797001000_BL1
100
AcDbCircle
 62
7
  6
CONTINUOUS
 10
104.585857189
 20
171.1981157984
 40
0.6104793135
100
AcDbArc
 50
270.0
 51
90.0
  0
ARC
  5
2F0
100
AcDbEntity
  8
94797001000_BL1
100
AcDbCircle
 62
7
  6
CONTINUOUS
 10
104.585857189
 20
171.1981157984
 40
0.4104793135
100
AcDbArc
 50
270.0
 51
90.0
  0
ARC
  5
2F1
100
AcDbEntity
  8
94797001000_BL1
100
AcDbCircle
 62
7
  6
CONTINUOUS
 10
107.8894896271
 20
193.189150916
 40
2.0
100
AcDbArc
 50
270.0
 51
360.0
  0
CIRCLE
  5
2F2
100
AcDbEntity
  8
94797001000_BL1
100
AcDbCircle
 62
7
  6
CONTINUOUS
 10
102.8894896271
 20
241.289150916
 40
5.65
  0
ARC
  5
2F3
100
AcDbEntity
  8
94797001000_BL1
100
AcDbCircle
 62
7
  6
CONTINUOUS
 10
105.6002478124
 20
250.2499318416
 40
2.1628409963
100
AcDbArc
 50
180.0
 51
360.0
  0
ARC
  5
2F4
100
AcDbEntity
  8
94797001000_BL1
100
AcDbCircle
 62
7
  6
CONTINUOUS
 10
107.8894896271
 20
229.189150916
 40
2.0
100
AcDbArc
 50
0.0
 51
90.0
  0
ARC
  5
2F5
100
AcDbEntity
  8
94797001000_BL1
100
AcDbCircle
 62
7
  6
CONTINUOUS
 10
105.6002478123
 20
250.2499318416
 40
1.9628409963
100
AcDbArc
 50
180.0
 51
360.0
  0
ARC
  5
2F6
100
AcDbEntity
  8
94797001000_BL1
100
AcDbCircle
 62
7
  6
CONTINUOUS
 10
105.6002478124
 20
250.2499318416
 40
0.8511779344
100
AcDbArc
 50
180.0
 51
360.0
  0
ARC
  5
2F7
100
AcDbEntity
  8
94797001000_BL1
100
AcDbCircle
 62
7
  6
CONTINUOUS
 10
105.6002478123
 20
250.2499318416
 40
0.6511779344
100
AcDbArc
 50
180.0
 51
360.0
  0
ARC
  5
2F8
100
AcDbEntity
  8
94797001000_BL1
100
AcDbCircle
 62
7
  6
CONTINUOUS
 10
22.9636336608
 20
263.4431842236
 40
8.0
100
AcDbArc
 50
0.0
 51
75.5224878141
  0
ARC
  5
2F9
100
AcDbEntity
  8
94797001000_BL1
100
AcDbCircle
 62
7
  6
CONTINUOUS
 10
22.9636336608
 20
158.9351176085
 40
8.0
100
AcDbArc
 50
284.4775121859
 51
360.0
  0
ARC
  5
2FA
100
AcDbEntity
  8
94797001000_BL1
100
AcDbCircle
 62
7
  6
CONTINUOUS
 10
24.9636336608
 20
90.7497516418
 40
3.0
100
AcDbArc
 50
180.0
 51
270.0
  0
ARC
  5
2FB
100
AcDbEntity
  8
94797001000_BL1
100
AcDbCircle
 62
7
  6
CONTINUOUS
 10
25.4636336608
 20
91.2497516418
 40
0.5
100
AcDbArc
 50
180.0
 51
270.0
  0
ENDBLK
  5
2FC
100
AcDbEntity
  8
0
  6
BYBLOCK
 62
0
100
AcDbBlockEnd
  0
BLOCK
  5
2FD
100
AcDbEntity
  8
93866300000_M_BL2
100
AcDbBlockBegin
  2
93866300000_M_BL2
 70
64
 10
61.801561644
 20
138.5694512789
  3
93866300000_M_BL2
  1

  0
LINE
  5
2FE
100
AcDbEntity
  8
93866300000_M_BL2
100
AcDbLine
 62
7
  6
CENTER
 10
97.8894896271
 20
161.189150916
 11
91.8394896271
 21
161.189150916
  0
LINE
  5
2FF
100
AcDbEntity
  8
93866300000_M_BL2
100
AcDbLine
 62
7
  6
CENTER
 10
97.8894896271
 20
161.189150916
 11
103.9394896271
 21
161.189150916
  0
LINE
  5
300
100
AcDbEntity
  8
93866300000_M_BL2
100
AcDbLine
 62
7
  6
CENTER
 10
97.8894896271
 20
161.189150916
 11
97.8894896271
 21
155.139150916
  0
LINE
  5
301
100
AcDbEntity
  8
93866300000_M_BL2
100
AcDbLine
 62
7
  6
CENTER
 10
97.8894896271
 20
161.189150916
 11
97.8894896271
 21
167.239150916
  0
LINE
  5
302
100
AcDbEntity
  8
93866300000_M_BL2
100
AcDbLine
 62
7
  6
CONTINUOUS
 10
31.9636336608
 20
153.239150916
 11
28.5685971425
 21
153.239150916
  0
LINE
  5
303
100
AcDbEntity
  8
93866300000_M_BL2
100
AcDbLine
 62
7
  6
CENTER
 10
35.9636336608
 20
161.189150916
 11
19.6636336608
 21
161.189150916
  0
LINE
  5
304
100
AcDbEntity
  8
93866300000_M_BL2
100
AcDbLine
 62
7
  6
CONTINUOUS
 10
31.9636336608
 20
169.139150916
 11
30.9636336608
 21
169.139150916
  0
LINE
  5
305
100
AcDbEntity
  8
93866300000_M_BL2
100
AcDbLine
 62
7
  6
CONTINUOUS
 10
32.9636336608
 20
168.139150916
 11
31.9636336608
 21
169.139150916
  0
LINE
  5
306
100
AcDbEntity
  8
93866300000_M_BL2
100
AcDbLine
 62
7
  6
CONTINUOUS
 10
31.9636336608
 20
153.239150916
 11
31.9636336608
 21
169.139150916
  0
LINE
  5
307
100
AcDbEntity
  8
93866300000_M_BL2
100
AcDbLine
 62
7
  6
CONTINUOUS
 10
32.9636336608
 20
154.239150916
 11
32.9636336608
 21
168.139150916
  0
LINE
  5
308
100
AcDbEntity
  8
93866300000_M_BL2
100
AcDbLine
 62
7
  6
CONTINUOUS
 10
32.9636336608
 20
154.239150916
 11
31.9636336608
 21
153.239150916
  0
LINE
  5
309
100
AcDbEntity
  8
93866300000_M_BL2
100
AcDbLine
 62
7
  6
CONTINUOUS
 10
31.9636336608
 20
113.6997516418
 11
31.9636336608
 21
107.9997516418
  0
LINE
  5
30A
100
AcDbEntity
  8
93866300000_M_BL2
100
AcDbLine
 62
7
  6
CONTINUOUS
 10
32.9636336608
 20
112.6997516418
 11
32.9636336608
 21
107.9997516418
  0
LINE
  5
30B
100
AcDbEntity
  8
93866300000_M_BL2
100
AcDbLine
 62
7
  6
CONTINUOUS
 10
32.9636336608
 20
112.6997516418
 11
31.9636336608
 21
113.6997516418
  0
LINE
  5
30C
100
AcDbEntity
  8
93866300000_M_BL2
100
AcDbLine
 62
7
  6
CONTINUOUS
 10
31.9636336608
 20
113.6997516418
 11
24.9636336608
 21
113.6997516418
  0
CIRCLE
  5
30D
100
AcDbEntity
  8
93866300000_M_BL2
100
AcDbCircle
 62
7
  6
CONTINUOUS
 10
97.8894896271
 20
161.189150916
 40
4.6325317547
  0
CIRCLE
  5
30E
100
AcDbEntity
  8
93866300000_M_BL2
100
AcDbCircle
 62
7
  6
CONTINUOUS
 10
97.8894896271
 20
161.189150916
 40
2.9711052532
  0
CIRCLE
  5
30F
100
AcDbEntity
  8
93866300000_M_BL2
100
AcDbCircle
 62
7
  6
CONTINUOUS
 10
97.8894896271
 20
161.189150916
 40
2.8
  0
CIRCLE
  5
310
100
AcDbEntity
  8
93866300000_M_BL2
100
AcDbCircle
 62
7
  6
CONTINUOUS
 10
97.8894896271
 20
161.189150916
 40
2.65
  0
ENDBLK
  5
311
100
AcDbEntity
  8
0
  6
BYBLOCK
 62
0
100
AcDbBlockEnd
  0
BLOCK
  5
312
100
AcDbEntity
  8
94528902000_M_BL3
100
AcDbBlockBegin
  2
94528902000_M_BL3
 70
64
 10
69.6779588185
 20
181.089150916
  3
94528902000_M_BL3
  1

  0
LINE
  5
313
100
AcDbEntity
  8
94528902000_M_BL3
100
AcDbLine
 62
7
  6
CONTINUOUS
 10
102.0144896271
 20
178.0736064594
 11
103.7644896271
 21
178.0736064594
  0
LINE
  5
314
100
AcDbEntity
  8
94528902000_M_BL3
100
AcDbLine
 62
7
  6
CONTINUOUS
 10
103.7644896271
 20
181.1046953727
 11
102.0144896271
 21
181.1046953727
  0
LINE
  5
315
100
AcDbEntity
  8
94528902000_M_BL3
100
AcDbLine
 62
7
  6
CONTINUOUS
 10
101.1394896271
 20
179.589150916
 11
102.0144896271
 21
178.0736064594
  0
LINE
  5
316
100
AcDbEntity
  8
94528902000_M_BL3
100
AcDbLine
 62
7
  6
CONTINUOUS
 10
104.6394896271
 20
179.589150916
 11
103.7644896271
 21
181.1046953727
  0
LINE
  5
317
100
AcDbEntity
  8
94528902000_M_BL3
100
AcDbLine
 62
7
  6
CONTINUOUS
 10
102.0144896271
 20
181.1046953727
 11
101.1394896271
 21
179.589150916
  0
LINE
  5
318
100
AcDbEntity
  8
94528902000_M_BL3
100
AcDbLine
 62
7
  6
CONTINUOUS
 10
103.7644896271
 20
178.0736064594
 11
104.6394896271
 21
179.589150916
  0
CIRCLE
  5
319
100
AcDbEntity
  8
94528902000_M_BL3
100
AcDbCircle
 62
7
  6
CONTINUOUS
 10
102.8894896271
 20
181.089150916
 40
5.5
  0
CIRCLE
  5
31A
100
AcDbEntity
  8
94528902000_M_BL3
100
AcDbCircle
 62
7
  6
CONTINUOUS
 10
102.8894896271
 20
179.589150916
 40
1.75
  0
CIRCLE
  5
31B
100
AcDbEntity
  8
94528902000_M_BL3
100
AcDbCircle
 62
7
  6
CONTINUOUS
 10
102.8894896271
 20
179.589150916
 40
1.515
  0
CIRCLE
  5
31C
100
AcDbEntity
  8
94528902000_M_BL3
100
AcDbCircle
 62
7
  6
CONTINUOUS
 10
102.8894896271
 20
183.589150916
 40
0.75
  0
ARC
  5
31D
100
AcDbEntity
  8
94528902000_M_BL3
100
AcDbCircle
 62
7
  6
CONTINUOUS
 10
27.6178823498
 20
179.589150916
 40
4.0
100
AcDbArc
 50
326.8389561101
 51
33.1610438899
  0
ENDBLK
  5
31E
100
AcDbEntity
  8
0
  6
BYBLOCK
 62
0
100
AcDbBlockEnd
  0
BLOCK
  5
31F
100
AcDbEntity
  8
94528902000_M_BL4
100
AcDbBlockBegin
  2
94528902000_M_BL4
 70
64
 10
69.326561644
 20
172.2694512789
  3
94528902000_M_BL4
  1

  0
LINE
  5
320
100
AcDbEntity
  8
94528902000_M_BL4
100
AcDbLine
 62
7
  6
CONTINUOUS
 10
102.0144896271
 20
244.3046953727
 11
101.1394896271
 21
242.789150916
  0
LINE
  5
321
100
AcDbEntity
  8
94528902000_M_BL4
100
AcDbLine
 62
7
  6
CONTINUOUS
 10
103.7644896271
 20
241.2736064594
 11
104.6394896271
 21
242.789150916
  0
LINE
  5
322
100
AcDbEntity
  8
94528902000_M_BL4
100
AcDbLine
 62
7
  6
CONTINUOUS
 10
101.1394896271
 20
242.789150916
 11
102.0144896271
 21
241.2736064594
  0
LINE
  5
323
100
AcDbEntity
  8
94528902000_M_BL4
100
AcDbLine
 62
7
  6
CONTINUOUS
 10
104.6394896271
 20
242.789150916
 11
103.7644896271
 21
244.3046953727
  0
LINE
  5
324
100
AcDbEntity
  8
94528902000_M_BL4
100
AcDbLine
 62
7
  6
CONTINUOUS
 10
102.0144896271
 20
241.2736064594
 11
103.7644896271
 21
241.2736064594
  0
LINE
  5
325
100
AcDbEntity
  8
94528902000_M_BL4
100
AcDbLine
 62
7
  6
CONTINUOUS
 10
103.7644896271
 20
244.3046953727
 11
102.0144896271
 21
244.3046953727
  0
CIRCLE
  5
326
100
AcDbEntity
  8
94528902000_M_BL4
100
AcDbCircle
 62
7
  6
CONTINUOUS
 10
102.8894896271
 20
241.289150916
 40
5.5
  0
CIRCLE
  5
327
100
AcDbEntity
  8
94528902000_M_BL4
100
AcDbCircle
 62
7
  6
CONTINUOUS
 10
102.8894896271
 20
242.789150916
 40
1.75
  0
CIRCLE
  5
328
100
AcDbEntity
  8
94528902000_M_BL4
100
AcDbCircle
 62
7
  6
CONTINUOUS
 10
102.8894896271
 20
242.789150916
 40
1.515
  0
CIRCLE
  5
329
100
AcDbEntity
  8
94528902000_M_BL4
100
AcDbCircle
 62
7
  6
CONTINUOUS
 10
102.8894896271
 20
238.789150916
 40
0.75
  0
ARC
  5
32A
100
AcDbEntity
  8
94528902000_M_BL4
100
AcDbCircle
 62
7
  6
CONTINUOUS
 10
27.6178823498
 20
242.789150916
 40
4.0
100
AcDbArc
 50
326.8389561101
 51
33.1610438899
  0
ARC
  5
32B
100
AcDbEntity
  8
94528902000_M_BL4
100
AcDbCircle
 62
7
  6
CONTINUOUS
 10
27.6178823498
 20
100.7497516418
 40
4.0
100
AcDbArc
 50
311.4096221093
 51
48.5903778907
  0
ENDBLK
  5
32C
100
AcDbEntity
  8
0
  6
BYBLOCK
 62
0
100
AcDbBlockEnd
  0
BLOCK
  5
32D
100
AcDbEntity
  8
95056301000_BL5
100
AcDbBlockBegin
  2
95056301000_BL5
 70
64
 10
66.0125553824
 20
170.1020493513
  3
95056301000_BL5
  1

  0
LWPOLYLINE
  5
32E
100
AcDbEntity
  8
95056301000_BL5
100
AcDbPolyline
 62
9
  6
CONTINUOUS
 90
13
 70
0
 10
105.642901407
 20
191.96149644
 10
105.9018924482
 20
191.9802113344
 10
106.1560999694
 20
192.0323031649
 10
106.4012955977
 20
192.1168020435
 10
106.6333873852
 20
192.2322514448
 10
106.8484966277
 20
192.3766793364
 10
107.0430767966
 20
192.5476469677
 10
107.2138916317
 20
192.7422960568
 10
107.3581231046
 20
192.9573808316
 10
107.4733615377
 20
193.1893411765
 10
107.5576781103
 20
193.434316407
 10
107.609642134
 20
193.6882528747
 10
107.6283065308
 20
193.9468989325
  0
LWPOLYLINE
  5
32F
100
AcDbEntity
  8
95056301000_BL5
100
AcDbPolyline
 62
9
  6
CONTINUOUS
 90
13
 70
0
 10
105.6429545882
 20
192.9560252311
 10
105.7738343778
 20
192.9645557875
 10
105.9005251704
 20
192.9894233248
 10
106.0241382596
 20
193.0310476111
 10
106.1413397647
 20
193.088169342
 10
106.2496592043
 20
193.1601903022
 10
106.347617674
 20
193.2455469926
 10
106.4332853983
 20
193.3431218133
 10
106.5055445081
 20
193.4509788518
 10
106.5628270222
 20
193.567621316
 10
106.6045535001
 20
193.6906142443
 10
106.6294840784
 20
193.8166570077
 10
106.6380320447
 20
193.9468498157
  0
LINE
  5
330
100
AcDbEntity
  8
95056301000_BL5
100
AcDbLine
 62
7
  6
CONTINUOUS
 10
99.1894896271
 20
191.239150916
 11
106.5894896271
 21
191.239150916
  0
LINE
  5
331
100
AcDbEntity
  8
95056301000_BL5
100
AcDbLine
 62
9
  6
CONTINUOUS
 10
100.1360778472
 20
191.96149644
 11
105.642901407
 21
191.96149644
  0
LINE
  5
332
100
AcDbEntity
  8
95056301000_BL5
100
AcDbLine
 62
9
  6
CONTINUOUS
 10
100.1360293533
 20
192.9560246249
 11
105.6429545882
 21
192.9560252311
  0
LINE
  5
333
100
AcDbEntity
  8
95056301000_BL5
100
AcDbLine
 62
9
  6
CONTINUOUS
 10
96.1894896271
 20
193.239150916
 11
97.1894896271
 21
193.239150916
  0
LINE
  5
334
100
AcDbEntity
  8
95056301000_BL5
100
AcDbLine
 62
9
  6
CONTINUOUS
 10
108.5894896271
 20
193.239150916
 11
109.5894896271
 21
193.239150916
  0
LINE
  5
335
100
AcDbEntity
  8
95056301000_BL5
100
AcDbLine
 62
9
  6
CONTINUOUS
 10
107.6283065308
 20
193.9468989478
 11
106.6380320447
 21
193.9468989326
  0
LINE
  5
336
100
AcDbEntity
  8
95056301000_BL5
100
AcDbLine
 62
9
  6
CONTINUOUS
 10
98.1506727234
 20
193.9468989486
 11
99.1409478294
 21
193.9468989326
  0
LWPOLYLINE
  5
337
100
AcDbEntity
  8
95056301000_BL5
100
AcDbPolyline
 62
9
  6
CONTINUOUS
 90
13
 70
0
 10
99.4565098071
 20
191.4532777481
 10
99.2033876133
 20
191.473283899
 10
98.9519155914
 20
191.526274314
 10
98.7053124274
 20
191.6128456111
 10
98.4716316515
 20
191.7309742929
 10
98.2584575815
 20
191.8758697447
 10
98.0661423464
 20
192.045968874
 10
97.8967627055
 20
192.2391169874
 10
97.7524786832
 20
192.4532191218
 10
97.6348530187
 20
192.6879114939
 10
97.5486532158
 20
192.935577096
 10
97.4958924773
 20
193.1881244349
 10
97.4759736696
 20
193.4423215389
  0
LWPOLYLINE
  5
338
100
AcDbEntity
  8
95056301000_BL5
100
AcDbPolyline
 62
9
  6
CONTINUOUS
 90
6
 70
0
 10
106.5894896271
 20
231.1320683925
 10
106.5472788705
 20
231.0982921471
 10
106.5041692527
 20
231.0642319711
 10
106.460177819
 20
231.0298958566
 10
106.4152534337
 20
230.995259827
 10
106.3693449613
 20
230.9602999053
  0
LINE
  5
339
100
AcDbEntity
  8
95056301000_BL5
100
AcDbLine
 62
9
  6
CONTINUOUS
 10
106.3693449613
 20
230.9602999053
 11
105.642901407
 21
230.4168053921
  0
LWPOLYLINE
  5
33A
100
AcDbEntity
  8
95056301000_BL5
100
AcDbPolyline
 62
9
  6
CONTINUOUS
 90
7
 70
0
 10
106.5894896271
 20
191.2462334395
 10
106.5472788705
 20
191.280009685
 10
106.5041692527
 20
191.314069861
 10
106.460177819
 20
191.3484059755
 10
106.4152534337
 20
191.3830420051
 10
106.3693449613
 20
191.4180019268
 10
105.642901407
 20
191.96149644
  0
LWPOLYLINE
  5
33B
100
AcDbEntity
  8
95056301000_BL5
100
AcDbPolyline
 62
9
  6
CONTINUOUS
 90
7
 70
0
 10
108.5894896271
 20
229.139150916
 10
108.5417209108
 20
229.1068117549
 10
108.4939605664
 20
229.0738634211
 10
108.4462084266
 20
229.0403057939
 10
108.3984649933
 20
229.0061392358
 10
108.3507307684
 20
228.9713641092
 10
107.6283065308
 20
228.4314028996
  0
LWPOLYLINE
  5
33C
100
AcDbEntity
  8
95056301000_BL5
100
AcDbPolyline
 62
9
  6
CONTINUOUS
 90
6
 70
0
 10
108.5894896271
 20
193.239150916
 10
108.5417209108
 20
193.2714900772
 10
108.4939605664
 20
193.304438411
 10
108.4462084266
 20
193.3379960382
 10
108.3984649933
 20
193.3721625963
 10
108.3507307684
 20
193.4069377229
  0
LINE
  5
33D
100
AcDbEntity
  8
95056301000_BL5
100
AcDbLine
 62
9
  6
CONTINUOUS
 10
107.6283065308
 20
193.9468989325
 11
108.3507307684
 21
193.4069377229
  0
LWPOLYLINE
  5
33E
100
AcDbEntity
  8
95056301000_BL5
100
AcDbPolyline
 62
9
  6
CONTINUOUS
 90
13
 70
0
 10
98.1506727234
 20
193.9468989325
 10
98.169337186
 20
193.6882529672
 10
98.2213012821
 20
193.4343164266
 10
98.3056180172
 20
193.1893409418
 10
98.4208566689
 20
192.9573802898
 10
98.5650883616
 20
192.7422951494
 10
98.7359032908
 20
192.5476459495
 10
98.930483023
 20
192.3766787731
 10
99.1455916049
 20
192.2322513398
 10
99.3776828606
 20
192.116802168
 10
99.6228782229
 20
192.0323033175
 10
99.8770860258
 20
191.9802113747
 10
100.1360778472
 20
191.96149644
  0
LWPOLYLINE
  5
33F
100
AcDbEntity
  8
95056301000_BL5
100
AcDbPolyline
 62
9
  6
CONTINUOUS
 90
13
 70
0
 10
99.1409478294
 20
193.9468450577
 10
99.1494889949
 20
193.8166926312
 10
99.1744090082
 20
193.6906787742
 10
99.2161213227
 20
193.5677011826
 10
99.2733855782
 20
193.4510667687
 10
99.3456169521
 20
193.3432197845
 10
99.431262285
 20
193.2456459061
 10
99.5292213323
 20
193.1602671767
 10
99.6375505274
 20
193.0882187471
 10
99.7547599285
 20
193.031078796
 10
99.8783884164
 20
192.9894402826
 10
100.0051085039
 20
192.9645621029
 10
100.1360293533
 20
192.9560246249
  0
LINE
  5
340
100
AcDbEntity
  8
95056301000_BL5
100
AcDbLine
 62
7
  6
CONTINUOUS
 10
96.1894896271
 20
193.239150916
 11
96.1894896271
 21
229.139150916
  0
LINE
  5
341
100
AcDbEntity
  8
95056301000_BL5
100
AcDbLine
 62
9
  6
CONTINUOUS
 10
96.8965964083
 20
229.1391509689
 11
96.8965964083
 21
193.2391508632
  0
LINE
  5
342
100
AcDbEntity
  8
95056301000_BL5
100
AcDbLine
 62
7
  6
CONTINUOUS
 10
97.1894896271
 20
229.139150916
 11
97.1894896271
 21
193.239150916
  0
LINE
  5
343
100
AcDbEntity
  8
95056301000_BL5
100
AcDbLine
 62
9
  6
CONTINUOUS
 10
98.1506727234
 20
228.4314028996
 11
98.1506727234
 21
193.9468989325
  0
LWPOLYLINE
  5
344
100
AcDbEntity
  8
95056301000_BL5
100
AcDbPolyline
 62
9
  6
CONTINUOUS
 90
13
 70
0
 10
97.4759736696
 20
228.9359802932
 10
97.495894249
 20
229.1901898067
 10
97.5486580104
 20
229.4427420597
 10
97.6348590197
 20
229.69040454
 10
97.7524824346
 20
229.9250891224
 10
97.8967581313
 20
230.1391789096
 10
98.0661297027
 20
230.33232026
 10
98.2584516718
 20
230.5024274935
 10
98.4716380362
 20
230.6473313068
 10
98.7053265685
 20
230.7654622478
 10
98.9519328409
 20
230.8520323333
 10
99.2033999698
 20
230.9050197124
 10
99.4565098071
 20
230.925024084
  0
LINE
  5
345
100
AcDbEntity
  8
95056301000_BL5
100
AcDbLine
 62
9
  6
CONTINUOUS
 10
99.1409478264
 20
228.4314567511
 11
99.1409478294
 21
193.9468450577
  0
LINE
  5
346
100
AcDbEntity
  8
95056301000_BL5
100
AcDbLine
 62
9
  6
CONTINUOUS
 10
99.1894896271
 20
191.239150916
 11
99.1894896271
 21
191.189150916
  0
LINE
  5
347
100
AcDbEntity
  8
95056301000_BL5
100
AcDbLine
 62
9
  6
CONTINUOUS
 10
99.1894896271
 20
231.139150916
 11
99.189489627
 21
231.189150916
  0
LINE
  5
348
100
AcDbEntity
  8
95056301000_BL5
100
AcDbLine
 62
9
  6
CONTINUOUS
 10
100.1360778606
 20
230.4168053921
 11
100.1360778472
 21
229.4222772039
  0
LINE
  5
349
100
AcDbEntity
  8
95056301000_BL5
100
AcDbLine
 62
9
  6
CONTINUOUS
 10
100.1360778606
 20
191.96149644
 11
100.1360778472
 21
192.9560246249
  0
LINE
  5
34A
100
AcDbEntity
  8
95056301000_BL5
100
AcDbLine
 62
7
  6
CENTER
 10
102.8894896271
 20
211.189150916
 11
93.5374999433
 21
211.189150916
  0
LINE
  5
34B
100
AcDbEntity
  8
95056301000_BL5
100
AcDbLine
 62
7
  6
CENTER
 10
102.8894896271
 20
211.189150916
 11
112.2414793109
 21
211.189150916
  0
LINE
  5
34C
100
AcDbEntity
  8
95056301000_BL5
100
AcDbLine
 62
7
  6
CENTER
 10
102.8894896271
 20
211.189150916
 11
102.8894896271
 21
174.6088842037
  0
LINE
  5
34D
100
AcDbEntity
  8
95056301000_BL5
100
AcDbLine
 62
7
  6
CENTER
 10
102.8894896271
 20
211.189150916
 11
102.8894896271
 21
247.9543470608
  0
LINE
  5
34E
100
AcDbEntity
  8
95056301000_BL5
100
AcDbLine
 62
9
  6
CONTINUOUS
 10
105.6429013929
 20
230.4168053921
 11
105.642901407
 21
229.4222766042
  0
LINE
  5
34F
100
AcDbEntity
  8
95056301000_BL5
100
AcDbLine
 62
9
  6
CONTINUOUS
 10
105.6429013929
 20
191.96149644
 11
105.642901407
 21
192.9560252311
  0
LWPOLYLINE
  5
350
100
AcDbEntity
  8
95056301000_BL5
100
AcDbPolyline
 62
9
  6
CONTINUOUS
 90
13
 70
0
 10
107.6283065308
 20
228.4314028996
 10
107.6096421333
 20
228.6900489571
 10
107.5576781094
 20
228.9439854246
 10
107.4733615373
 20
229.1889606554
 10
107.3581231049
 20
229.4209210006
 10
107.213891632
 20
229.6360057755
 10
107.0430767967
 20
229.8306548645
 10
106.8484966274
 20
230.0016224954
 10
106.6333873848
 20
230.1460503868
 10
106.401295598
 20
230.261499789
 10
106.1560999703
 20
230.3459986683
 10
105.9018924489
 20
230.3980904985
 10
105.642901407
 20
230.4168053921
  0
LWPOLYLINE
  5
351
100
AcDbEntity
  8
95056301000_BL5
100
AcDbPolyline
 62
9
  6
CONTINUOUS
 90
13
 70
0
 10
106.6380320416
 20
228.4314520401
 10
106.6294840747
 20
228.5616448326
 10
106.604553497
 20
228.6876875869
 10
106.5628270214
 20
228.8106805145
 10
106.5055445094
 20
228.9273229811
 10
106.4332853994
 20
229.0351800195
 10
106.3476176741
 20
229.1327548396
 10
106.2496592036
 20
229.2181115285
 10
106.1413397635
 20
229.2901324881
 10
106.0241382612
 20
229.3472542223
 10
105.9005251716
 20
229.388878512
 10
105.7738343696
 20
229.4137460496
 10
105.6429545636
 20
229.4222766042
  0
LINE
  5
352
100
AcDbEntity
  8
95056301000_BL5
100
AcDbLine
 62
9
  6
CONTINUOUS
 10
106.5894896271
 20
191.239150916
 11
106.5894896271
 21
191.189150916
  0
LINE
  5
353
100
AcDbEntity
  8
95056301000_BL5
100
AcDbLine
 62
9
  6
CONTINUOUS
 10
106.5894896271
 20
231.139150916
 11
106.5894896271
 21
231.189150916
  0
LINE
  5
354
100
AcDbEntity
  8
95056301000_BL5
100
AcDbLine
 62
9
  6
CONTINUOUS
 10
106.6380320416
 20
228.4314520401
 11
106.6380320447
 21
193.9468498157
  0
LINE
  5
355
100
AcDbEntity
  8
95056301000_BL5
100
AcDbLine
 62
9
  6
CONTINUOUS
 10
107.6283065308
 20
228.4314028996
 11
107.6283065308
 21
193.9468989325
  0
LINE
  5
356
100
AcDbEntity
  8
95056301000_BL5
100
AcDbLine
 62
7
  6
CONTINUOUS
 10
108.5894896271
 20
193.239150916
 11
108.5894896271
 21
229.139150916
  0
LINE
  5
357
100
AcDbEntity
  8
95056301000_BL5
100
AcDbLine
 62
9
  6
CONTINUOUS
 10
108.8823828459
 20
193.2391508632
 11
108.8823828459
 21
229.1391509689
  0
LINE
  5
358
100
AcDbEntity
  8
95056301000_BL5
100
AcDbLine
 62
7
  6
CONTINUOUS
 10
109.5894896271
 20
229.139150916
 11
109.5894896271
 21
193.239150916
  0
LWPOLYLINE
  5
359
100
AcDbEntity
  8
95056301000_BL5
100
AcDbPolyline
 62
9
  6
CONTINUOUS
 90
13
 70
0
 10
108.3030055846
 20
193.4423215389
 10
108.2830850052
 20
193.1881120254
 10
108.2303212438
 20
192.9355597724
 10
108.1441202345
 20
192.6878972921
 10
108.0264968195
 20
192.4532127097
 10
107.8822211229
 20
192.2391229225
 10
107.7128495515
 20
192.045981572
 10
107.5205275824
 20
191.8758743386
 10
107.307341218
 20
191.7309705253
 10
107.0736526857
 20
191.6128395843
 10
106.8270464133
 20
191.5262694988
 10
106.5755792844
 20
191.4732821197
 10
106.3224694471
 20
191.4532777481
  0
LWPOLYLINE
  5
35A
100
AcDbEntity
  8
95056301000_BL5
100
AcDbPolyline
 62
9
  6
CONTINUOUS
 90
7
 70
0
 10
97.1894896271
 20
193.239150916
 10
97.2372583434
 20
193.2714900772
 10
97.2850186878
 20
193.304438411
 10
97.3327708276
 20
193.3379960382
 10
97.3805142609
 20
193.3721625963
 10
97.4282484858
 20
193.4069377229
 10
98.1506727234
 20
193.9468989325
  0
LWPOLYLINE
  5
35B
100
AcDbEntity
  8
95056301000_BL5
100
AcDbPolyline
 62
9
  6
CONTINUOUS
 90
6
 70
0
 10
97.1894896271
 20
229.139150916
 10
97.2372583434
 20
229.1068117549
 10
97.2850186878
 20
229.0738634211
 10
97.3327708276
 20
229.0403057939
 10
97.3805142609
 20
229.0061392358
 10
97.4282484858
 20
228.9713641092
  0
LINE
  5
35C
100
AcDbEntity
  8
95056301000_BL5
100
AcDbLine
 62
9
  6
CONTINUOUS
 10
97.4282484858
 20
228.9713641092
 11
98.1506727234
 21
228.4314028996
  0
LWPOLYLINE
  5
35D
100
AcDbEntity
  8
95056301000_BL5
100
AcDbPolyline
 62
9
  6
CONTINUOUS
 90
6
 70
0
 10
99.1894896271
 20
191.2462334395
 10
99.2317003837
 20
191.280009685
 10
99.2748100015
 20
191.314069861
 10
99.3188014352
 20
191.3484059755
 10
99.3637258205
 20
191.3830420051
 10
99.4096342928
 20
191.4180019268
  0
LINE
  5
35E
100
AcDbEntity
  8
95056301000_BL5
100
AcDbLine
 62
9
  6
CONTINUOUS
 10
100.1360778472
 20
191.96149644
 11
99.4096342928
 21
191.4180019268
  0
LWPOLYLINE
  5
35F
100
AcDbEntity
  8
95056301000_BL5
100
AcDbPolyline
 62
9
  6
CONTINUOUS
 90
7
 70
0
 10
99.1894896271
 20
231.1320683925
 10
99.2317003837
 20
231.0982921471
 10
99.2748100015
 20
231.0642319711
 10
99.3188014352
 20
231.0298958566
 10
99.3637258205
 20
230.995259827
 10
99.4096342928
 20
230.9602999053
 10
100.1360778472
 20
230.4168053921
  0
LWPOLYLINE
  5
360
100
AcDbEntity
  8
95056301000_BL5
100
AcDbPolyline
 62
9
  6
CONTINUOUS
 90
13
 70
0
 10
100.1360778472
 20
230.4168053921
 10
99.8770860265
 20
230.3980904566
 10
99.6228782237
 20
230.3459985134
 10
99.3776828608
 20
230.2614996637
 10
99.1455916045
 20
230.1460504928
 10
98.9304830227
 20
230.0016230593
 10
98.7359032909
 20
229.8306558825
 10
98.5650883619
 20
229.6360066825
 10
98.4208566692
 20
229.4209215421
 10
98.3056180168
 20
229.1889608905
 10
98.2213012812
 20
228.943985406
 10
98.1693371853
 20
228.6900488653
 10
98.1506727234
 20
228.4314028996
  0
LWPOLYLINE
  5
361
100
AcDbEntity
  8
95056301000_BL5
100
AcDbPolyline
 62
9
  6
CONTINUOUS
 90
13
 70
0
 10
100.1360293278
 20
229.4222772039
 10
100.0051084952
 20
229.4137397246
 10
99.8783884175
 20
229.3888615452
 10
99.7547599302
 20
229.3472230348
 10
99.6375505265
 20
229.2900830866
 10
99.5292213315
 20
229.2180346567
 10
99.4312622849
 20
229.1326559262
 10
99.3456169533
 20
229.035082047
 10
99.27338558
 20
228.9272350624
 10
99.2161213219
 20
228.8106006509
 10
99.1744090046
 20
228.6876230588
 10
99.1494889909
 20
228.561609193
 10
99.1409478264
 20
228.4314567511
  0
LINE
  5
362
100
AcDbEntity
  8
95056301000_BL5
100
AcDbLine
 62
9
  6
CONTINUOUS
 10
107.6283065308
 20
228.4314028843
 11
106.6380320416
 21
228.4314028995
  0
LINE
  5
363
100
AcDbEntity
  8
95056301000_BL5
100
AcDbLine
 62
9
  6
CONTINUOUS
 10
98.1506727234
 20
228.4314028835
 11
99.1409478264
 21
228.4314028995
  0
LINE
  5
364
100
AcDbEntity
  8
95056301000_BL5
100
AcDbLine
 62
9
  6
CONTINUOUS
 10
96.1894896271
 20
229.139150916
 11
97.1894896271
 21
229.139150916
  0
LINE
  5
365
100
AcDbEntity
  8
95056301000_BL5
100
AcDbLine
 62
9
  6
CONTINUOUS
 10
108.5894896271
 20
229.139150916
 11
109.5894896271
 21
229.139150916
  0
LINE
  5
366
100
AcDbEntity
  8
95056301000_BL5
100
AcDbLine
 62
9
  6
CONTINUOUS
 10
105.6429545636
 20
229.4222766042
 11
100.1360293278
 21
229.4222772039
  0
LINE
  5
367
100
AcDbEntity
  8
95056301000_BL5
100
AcDbLine
 62
9
  6
CONTINUOUS
 10
105.642901407
 20
230.4168053921
 11
100.1360778472
 21
230.4168053921
  0
LINE
  5
368
100
AcDbEntity
  8
95056301000_BL5
100
AcDbLine
 62
7
  6
CONTINUOUS
 10
106.5894896271
 20
231.139150916
 11
99.1894896271
 21
231.139150916
  0
LWPOLYLINE
  5
369
100
AcDbEntity
  8
95056301000_BL5
100
AcDbPolyline
 62
9
  6
CONTINUOUS
 90
13
 70
0
 10
106.3224694471
 20
230.925024084
 10
106.5755916409
 20
230.9050179331
 10
106.8270636628
 20
230.8520275181
 10
107.0736668267
 20
230.765456221
 10
107.3073476027
 20
230.6473275392
 10
107.5205216727
 20
230.5024320874
 10
107.7128369078
 20
230.3323329581
 10
107.8822165487
 20
230.1391848447
 10
108.026500571
 20
229.9250827103
 10
108.1441262355
 20
229.6903903382
 10
108.2303260384
 20
229.4427247361
 10
108.2830867768
 20
229.1901773972
 10
108.3030055846
 20
228.9359802932
  0
LINE
  5
36A
100
AcDbEntity
  8
95056301000_BL5
100
AcDbLine
 62
7
  6
CONTINUOUS
 10
33.9636429625
 20
189.9391518937
 11
41.1726905874
 21
190.6968533313
  0
LINE
  5
36B
100
AcDbEntity
  8
95056301000_BL5
100
AcDbLine
 62
7
  6
CONTINUOUS
 10
33.9636336608
 20
189.939150916
 11
32.5636336608
 21
189.939150916
  0
LINE
  5
36C
100
AcDbEntity
  8
95056301000_BL5
100
AcDbLine
 62
9
  6
CONTINUOUS
 10
33.9645152852
 20
192.9118853702
 11
41.2419798627
 21
193.6767777193
  0
LINE
  5
36D
100
AcDbEntity
  8
95056301000_BL5
100
AcDbLine
 62
9
  6
CONTINUOUS
 10
33.9636336608
 20
192.939150916
 11
32.5636336608
 21
192.939150916
  0
LINE
  5
36E
100
AcDbEntity
  8
95056301000_BL5
100
AcDbLine
 62
9
  6
CONTINUOUS
 10
42.9636336608
 20
193.6767777193
 11
41.2419798628
 21
193.6767777241
  0
LWPOLYLINE
  5
36F
100
AcDbEntity
  8
95056301000_BL5
100
AcDbPolyline
 62
7
  6
CONTINUOUS
 90
13
 70
0
 10
33.9645152852
 20
192.9118853702
 10
33.9874317284
 20
192.5241491069
 10
34.0058657632
 20
192.143418082
 10
34.0198080283
 20
191.7760932704
 10
34.0292866075
 20
191.4283069143
 10
34.0342658645
 20
191.1058789869
 10
34.0349275989
 20
190.8142043601
 10
34.0313058646
 20
190.5581704857
 10
34.0238082627
 20
190.3420914594
 10
34.0125849129
 20
190.1696308022
 10
33.9984423137
 20
190.0436721065
 10
33.982344071
 20
189.9663827402
 10
33.9639689828
 20
189.9391861598
  0
LINE
  5
370
100
AcDbEntity
  8
95056301000_BL5
100
AcDbLine
 62
9
  6
CONTINUOUS
 10
32.5636336608
 20
189.939150916
 11
32.5636336608
 21
192.939150916
  0
LINE
  5
371
100
AcDbEntity
  8
95056301000_BL5
100
AcDbLine
 62
9
  6
CONTINUOUS
 10
32.5636336608
 20
229.439150916
 11
32.5636336608
 21
232.439150916
  0
LINE
  5
372
100
AcDbEntity
  8
95056301000_BL5
100
AcDbLine
 62
7
  6
CONTINUOUS
 10
33.9636336608
 20
229.439150916
 11
33.9636336608
 21
192.939150916
  0
LWPOLYLINE
  5
373
100
AcDbEntity
  8
95056301000_BL5
100
AcDbPolyline
 62
9
  6
CONTINUOUS
 90
15
 70
0
 10
41.2419798627
 20
193.6767777193
 10
41.2629619487
 20
193.3445920095
 10
41.2803444944
 20
193.0167523499
 10
41.2937751253
 20
192.6972944856
 10
41.3031110401
 20
192.3901392216
 10
41.3082729303
 20
192.099064391
 10
41.3091645351
 20
191.8276386365
 10
41.3058173122
 20
191.5792005812
 10
41.2982325395
 20
191.356801823
 10
41.2865429711
 20
191.1631857042
 10
41.2708464298
 20
191.0007427342
 10
41.2513599767
 20
190.8714895982
 10
41.2282966965
 20
190.7770379022
 10
41.2018908643
 20
190.7185690302
 10
41.1726905874
 20
190.6968533313
  0
LINE
  5
374
100
AcDbEntity
  8
95056301000_BL5
100
AcDbLine
 62
9
  6
CONTINUOUS
 10
41.2419798627
 20
228.7015241128
 11
41.2419798627
 21
193.6767777193
  0
LINE
  5
375
100
AcDbEntity
  8
95056301000_BL5
100
AcDbLine
 62
7
  6
CONTINUOUS
 10
42.9636336608
 20
229.6924047101
 11
42.9636336608
 21
192.685897122
  0
LWPOLYLINE
  5
376
100
AcDbEntity
  8
95056301000_BL5
100
AcDbPolyline
 62
7
  6
CONTINUOUS
 90
7
 70
0
 10
30.9636336608
 20
191.3658849885
 10
31.0086995618
 20
191.4163309262
 10
31.1911679969
 20
191.6123178196
 10
31.3775587855
 20
191.805371675
 10
31.5675230553
 20
191.9960719081
 10
31.7608713885
 20
192.1851389216
 10
31.9573673828
 20
192.3732345577
  0
LWPOLYLINE
  5
377
100
AcDbEntity
  8
95056301000_BL5
100
AcDbPolyline
 62
7
  6
CONTINUOUS
 90
3
 70
0
 10
31.9573673828
 20
192.3732345577
 10
32.3588560388
 20
192.7498746633
 10
32.5636336608
 20
192.939150916
  0
LINE
  5
378
100
AcDbEntity
  8
95056301000_BL5
100
AcDbLine
 62
7
  6
CONTINUOUS
 10
32.5636336608
 20
229.439150916
 11
32.3595569154
 21
229.6277794761
  0
LWPOLYLINE
  5
379
100
AcDbEntity
  8
95056301000_BL5
100
AcDbPolyline
 62
7
  6
CONTINUOUS
 90
8
 70
0
 10
32.3595569154
 20
229.6277794761
 10
31.9591493112
 20
230.0033764761
 10
31.7630575761
 20
230.1910497432
 10
31.5700594142
 20
230.3797202768
 10
31.3804134208
 20
230.5700223618
 10
31.1943332565
 20
230.7626512067
 10
31.0121863595
 20
230.9581523817
 10
30.9636336608
 20
231.0124517833
  0
LWPOLYLINE
  5
37A
100
AcDbEntity
  8
95056301000_BL5
100
AcDbPolyline
 62
7
  6
CONTINUOUS
 90
13
 70
0
 10
33.9639689828
 20
232.4391156723
 10
33.982344071
 20
232.4119190919
 10
33.9984423137
 20
232.3346297256
 10
34.0125849129
 20
232.2086710299
 10
34.0238082627
 20
232.0362103727
 10
34.0313058646
 20
231.8201313464
 10
34.0349275989
 20
231.5640974719
 10
34.0342658645
 20
231.2724228452
 10
34.0292866075
 20
230.9499949178
 10
34.0198080283
 20
230.6022085617
 10
34.0058657632
 20
230.2348837501
 10
33.9874317284
 20
229.8541527252
 10
33.9645152852
 20
229.4664164619
  0
LINE
  5
37B
100
AcDbEntity
  8
95056301000_BL5
100
AcDbLine
 62
9
  6
CONTINUOUS
 10
42.9636336608
 20
228.7015241128
 11
41.2419798627
 21
228.7015241128
  0
LINE
  5
37C
100
AcDbEntity
  8
95056301000_BL5
100
AcDbLine
 62
9
  6
CONTINUOUS
 10
32.5636336608
 20
229.439150916
 11
33.9636336608
 21
229.439150916
  0
LINE
  5
37D
100
AcDbEntity
  8
95056301000_BL5
100
AcDbLine
 62
9
  6
CONTINUOUS
 10
41.2419798627
 20
228.7015241128
 11
33.9645152852
 21
229.4664164619
  0
LINE
  5
37E
100
AcDbEntity
  8
95056301000_BL5
100
AcDbLine
 62
7
  6
CONTINUOUS
 10
32.5636336608
 20
232.439150916
 11
33.9636336608
 21
232.439150916
  0
LINE
  5
37F
100
AcDbEntity
  8
95056301000_BL5
100
AcDbLine
 62
7
  6
CONTINUOUS
 10
41.1726905874
 20
231.6814485008
 11
33.9639689828
 21
232.4391156723
  0
LWPOLYLINE
  5
380
100
AcDbEntity
  8
95056301000_BL5
100
AcDbPolyline
 62
9
  6
CONTINUOUS
 90
15
 70
0
 10
41.1726905874
 20
231.6814485008
 10
41.2018908687
 20
231.6597328014
 10
41.228296702
 20
231.6012639293
 10
41.2513599786
 20
231.5068122337
 10
41.2708464276
 20
231.3775590982
 10
41.2865429698
 20
231.2151161281
 10
41.2982325399
 20
231.0215000091
 10
41.3058173125
 20
230.7991012508
 10
41.3091645351
 20
230.5506631955
 10
41.3082729311
 20
230.279237441
 10
41.3031110411
 20
229.9881626104
 10
41.2937751238
 20
229.6810073466
 10
41.2803444908
 20
229.3615494825
 10
41.2629619459
 20
229.0337098228
 10
41.2419798627
 20
228.7015241128
  0
LINE
  5
381
100
AcDbEntity
  8
95056301000_BL5
100
AcDbLine
 62
7
  6
CONTINUOUS
 10
27.7636336608
 20
92.2497516418
 11
25.4636336608
 21
92.2497516418
  0
LINE
  5
382
100
AcDbEntity
  8
95056301000_BL5
100
AcDbLine
 62
7
  6
CONTINUOUS
 10
41.2419798627
 20
94.5226564923
 11
33.9645152852
 21
93.499875546
  0
LINE
  5
383
100
AcDbEntity
  8
95056301000_BL5
100
AcDbLine
 62
7
  6
CONTINUOUS
 10
28.7636336608
 20
93.4997516418
 11
33.9636336608
 21
93.4997516418
  0
LINE
  5
384
100
AcDbEntity
  8
95056301000_BL5
100
AcDbLine
 62
9
  6
CONTINUOUS
 10
25.4636336608
 20
109.2497516418
 11
25.4636336608
 21
92.2497516418
  0
LINE
  5
385
100
AcDbEntity
  8
95056301000_BL5
100
AcDbLine
 62
7
  6
CONTINUOUS
 10
27.7636336608
 20
109.2497516418
 11
27.7636336608
 21
108.9997516418
  0
LINE
  5
386
100
AcDbEntity
  8
95056301000_BL5
100
AcDbLine
 62
7
  6
CONTINUOUS
 10
27.7636336608
 20
92.4997516418
 11
27.7636336608
 21
92.2497516418
  0
LINE
  5
387
100
AcDbEntity
  8
95056301000_BL5
100
AcDbLine
 62
9
  6
CONTINUOUS
 10
41.1726905874
 20
97.4983296848
 11
33.9639689828
 21
96.4852099334
  0
LINE
  5
388
100
AcDbEntity
  8
95056301000_BL5
100
AcDbLine
 62
9
  6
CONTINUOUS
 10
29.0636336608
 20
96.4997516498
 11
33.9636336608
 21
96.4997516418
  0
LINE
  5
389
100
AcDbEntity
  8
95056301000_BL5
100
AcDbLine
 62
7
  6
CONTINUOUS
 10
29.0636336608
 20
107.9997516418
 11
29.0636336608
 21
93.4997516418
  0
LINE
  5
38A
100
AcDbEntity
  8
95056301000_BL5
100
AcDbLine
 62
9
  6
CONTINUOUS
 10
42.9636336608
 20
97.4983296848
 11
41.1726905875
 21
97.4983296907
  0
LINE
  5
38B
100
AcDbEntity
  8
95056301000_BL5
100
AcDbLine
 62
9
  6
CONTINUOUS
 10
32.5636336608
 20
93.4997516418
 11
32.5636336608
 21
107.9997516418
  0
LINE
  5
38C
100
AcDbEntity
  8
95056301000_BL5
100
AcDbLine
 62
7
  6
CENTER
 10
19.783631454
 20
100.7497516418
 11
45.9636336608
 21
100.7497516418
  0
LINE
  5
38D
100
AcDbEntity
  8
95056301000_BL5
100
AcDbLine
 62
7
  6
CONTINUOUS
 10
33.9639689828
 20
96.4852099334
 11
33.982344071
 21
96.0964535233
  0
LWPOLYLINE
  5
38E
100
AcDbEntity
  8
95056301000_BL5
100
AcDbPolyline
 62
7
  6
CONTINUOUS
 90
11
 70
0
 10
33.982344071
 20
96.0964535233
 10
34.0125849129
 20
95.3466001604
 10
34.0238082627
 20
94.9979919477
 10
34.0313058646
 20
94.674667482
 10
34.0349275989
 20
94.3820637199
 10
34.0342658645
 20
94.1250697613
 10
34.0292866075
 20
93.9079664651
 10
34.0198080283
 20
93.7343769994
 10
34.0058657632
 20
93.6072079072
 10
33.9874317284
 20
93.5285947125
 10
33.9645152852
 20
93.499875546
  0
LINE
  5
38F
100
AcDbEntity
  8
95056301000_BL5
100
AcDbLine
 62
7
  6
CONTINUOUS
 10
33.9636336608
 20
104.9997516418
 11
33.9636336608
 21
96.4997516418
  0
LWPOLYLINE
  5
390
100
AcDbEntity
  8
95056301000_BL5
100
AcDbPolyline
 62
7
  6
CONTINUOUS
 90
3
 70
0
 10
34.0125849129
 20
106.1529031232
 10
33.982344071
 20
105.4030497603
 10
33.9639689828
 20
105.0142933503
  0
LINE
  5
391
100
AcDbEntity
  8
95056301000_BL5
100
AcDbLine
 62
9
  6
CONTINUOUS
 10
42.9636336608
 20
104.0011735988
 11
41.1726905874
 21
104.0011735988
  0
LINE
  5
392
100
AcDbEntity
  8
95056301000_BL5
100
AcDbLine
 62
9
  6
CONTINUOUS
 10
33.9636336608
 20
104.9997516418
 11
29.0636336608
 21
104.9997516418
  0
LINE
  5
393
100
AcDbEntity
  8
95056301000_BL5
100
AcDbLine
 62
9
  6
CONTINUOUS
 10
33.9639689828
 20
105.0142933503
 11
41.1726905874
 21
104.0011735988
  0
LWPOLYLINE
  5
394
100
AcDbEntity
  8
95056301000_BL5
100
AcDbPolyline
 62
7
  6
CONTINUOUS
 90
10
 70
0
 10
33.9645152852
 20
107.9996277376
 10
33.9874317284
 20
107.9709085711
 10
34.0058657632
 20
107.8922953764
 10
34.0198080283
 20
107.7651262842
 10
34.0292866075
 20
107.5915368186
 10
34.0342658645
 20
107.3744335223
 10
34.0349275989
 20
107.1174395637
 10
34.0313058646
 20
106.8248358016
 10
34.0238082627
 20
106.5015113359
 10
34.0125849129
 20
106.1529031232
  0
LINE
  5
395
100
AcDbEntity
  8
95056301000_BL5
100
AcDbLine
 62
7
  6
CONTINUOUS
 10
28.7636336608
 20
107.9997516418
 11
33.9636336608
 21
107.9997516418
  0
LINE
  5
396
100
AcDbEntity
  8
95056301000_BL5
100
AcDbLine
 62
7
  6
CONTINUOUS
 10
33.9645152852
 20
107.9996277376
 11
41.2419798627
 21
106.9768467913
  0
LWPOLYLINE
  5
397
100
AcDbEntity
  8
95056301000_BL5
100
AcDbPolyline
 62
9
  6
CONTINUOUS
 90
15
 70
0
 10
41.1726905874
 20
97.4983296848
 10
41.2018908687
 20
97.1664174494
 10
41.228296702
 20
96.838881593
 10
41.2513599786
 20
96.5197370409
 10
41.2708464276
 20
96.2129177617
 10
41.2865429698
 20
95.922204765
 10
41.2982325399
 20
95.6511613161
 10
41.3058173125
 20
95.4031222176
 10
41.3091645351
 20
95.1811220834
 10
41.3082729311
 20
94.9878914203
 10
41.3031110411
 20
94.825799278
 10
41.2937751238
 20
94.6968472899
 10
41.2803444908
 20
94.6026276981
 10
41.2629619459
 20
94.5443109549
 10
41.2419798627
 20
94.5226564923
  0
LINE
  5
398
100
AcDbEntity
  8
95056301000_BL5
100
AcDbLine
 62
7
  6
CONTINUOUS
 10
27.7636336608
 20
109.2497516418
 11
25.4636336608
 21
109.2497516418
  0
LINE
  5
399
100
AcDbEntity
  8
95056301000_BL5
100
AcDbLine
 62
9
  6
CONTINUOUS
 10
41.1726905874
 20
104.0011735988
 11
41.1726905874
 21
97.4983296848
  0
LINE
  5
39A
100
AcDbEntity
  8
95056301000_BL5
100
AcDbLine
 62
7
  6
CONTINUOUS
 10
42.9636336608
 20
104.9963106539
 11
42.9636336608
 21
96.5031926298
  0
LWPOLYLINE
  5
39B
100
AcDbEntity
  8
95056301000_BL5
100
AcDbPolyline
 62
9
  6
CONTINUOUS
 90
15
 70
0
 10
41.2419798627
 20
106.9768467913
 10
41.2629619487
 20
106.9551923283
 10
41.2803444944
 20
106.896875585
 10
41.2937751253
 20
106.8026559935
 10
41.3031110401
 20
106.6737040057
 10
41.3082729303
 20
106.5116118634
 10
41.3091645351
 20
106.3183812003
 10
41.3058173122
 20
106.096381066
 10
41.2982325395
 20
105.8483419676
 10
41.2865429711
 20
105.5772985184
 10
41.2708464298
 20
105.2865855216
 10
41.2513599767
 20
104.9797662429
 10
41.2282966965
 20
104.6606216911
 10
41.2018908643
 20
104.3330858347
 10
41.1726905874
 20
104.0011735988
  0
ARC
  5
39C
100
AcDbEntity
  8
95056301000_BL5
100
AcDbCircle
 62
7
  6
CONTINUOUS
 10
99.1894896271
 20
193.239150916
 40
3.0
100
AcDbArc
 50
180.0
 51
213.4226045393
  0
ARC
  5
39D
100
AcDbEntity
  8
95056301000_BL5
100
AcDbCircle
 62
9
  6
CONTINUOUS
 10
99.1894896271
 20
193.239150916
 40
2.2928932188
100
AcDbArc
 50
180.0000013195
 51
243.6352111972
  0
ARC
  5
39E
100
AcDbEntity
  8
95056301000_BL5
100
AcDbCircle
 62
7
  6
CONTINUOUS
 10
99.1894896271
 20
193.239150916
 40
2.0
100
AcDbArc
 50
180.0
 51
270.0
  0
ARC
  5
39F
100
AcDbEntity
  8
95056301000_BL5
100
AcDbCircle
 62
7
  6
CONTINUOUS
 10
99.1894896271
 20
229.139150916
 40
3.0
100
AcDbArc
 50
146.5773954607
 51
180.0
  0
ARC
  5
3A0
100
AcDbEntity
  8
95056301000_BL5
100
AcDbCircle
 62
9
  6
CONTINUOUS
 10
99.1894896271
 20
229.139150916
 40
2.2928932188
100
AcDbArc
 50
116.364803013
 51
179.9999986805
  0
ARC
  5
3A1
100
AcDbEntity
  8
95056301000_BL5
100
AcDbCircle
 62
7
  6
CONTINUOUS
 10
99.1894896271
 20
229.139150916
 40
2.0
100
AcDbArc
 50
90.0
 51
180.0
  0
ARC
  5
3A2
100
AcDbEntity
  8
95056301000_BL5
100
AcDbCircle
 62
7
  6
CONTINUOUS
 10
106.5894896271
 20
193.239150916
 40
3.0
100
AcDbArc
 50
326.5773954607
 51
360.0
  0
ARC
  5
3A3
100
AcDbEntity
  8
95056301000_BL5
100
AcDbCircle
 62
9
  6
CONTINUOUS
 10
106.5894896271
 20
193.239150916
 40
2.2928932188
100
AcDbArc
 50
296.364803013
 51
359.9999986805
  0
ARC
  5
3A4
100
AcDbEntity
  8
95056301000_BL5
100
AcDbCircle
 62
7
  6
CONTINUOUS
 10
106.5894896271
 20
193.239150916
 40
2.0
100
AcDbArc
 50
270.0
 51
360.0
  0
ARC
  5
3A5
100
AcDbEntity
  8
95056301000_BL5
100
AcDbCircle
 62
7
  6
CONTINUOUS
 10
106.5894896271
 20
229.139150916
 40
3.0
100
AcDbArc
 50
0.0
 51
33.4226045393
  0
ARC
  5
3A6
100
AcDbEntity
  8
95056301000_BL5
100
AcDbCircle
 62
9
  6
CONTINUOUS
 10
106.5894896271
 20
229.139150916
 40
2.2928932188
100
AcDbArc
 50
0.0000013195
 51
63.6352111972
  0
ARC
  5
3A7
100
AcDbEntity
  8
95056301000_BL5
100
AcDbCircle
 62
7
  6
CONTINUOUS
 10
106.5894896271
 20
229.139150916
 40
2.0
100
AcDbArc
 50
0.0
 51
90.0
  0
ARC
  5
3A8
100
AcDbEntity
  8
95056301000_BL5
100
AcDbCircle
 62
7
  6
CONTINUOUS
 10
32.5636336608
 20
186.439150916
 40
3.5
100
AcDbArc
 50
90.0
 51
117.237723661
  0
ARC
  5
3A9
100
AcDbEntity
  8
95056301000_BL5
100
AcDbCircle
 62
7
  6
CONTINUOUS
 10
32.5636336608
 20
235.939150916
 40
3.5
100
AcDbArc
 50
242.762276339
 51
270.0
  0
ARC
  5
3AA
100
AcDbEntity
  8
95056301000_BL5
100
AcDbCircle
 62
7
  6
CONTINUOUS
 10
40.9636336608
 20
192.6859119054
 40
2.0
100
AcDbArc
 50
275.999955734
 51
359.9995764886
  0
ARC
  5
3AB
100
AcDbEntity
  8
95056301000_BL5
100
AcDbCircle
 62
7
  6
CONTINUOUS
 10
40.9636336608
 20
229.6923899267
 40
2.0
100
AcDbArc
 50
0.0004235114
 51
84.000044266
  0
ARC
  5
3AC
100
AcDbEntity
  8
95056301000_BL5
100
AcDbCircle
 62
7
  6
CONTINUOUS
 10
40.9636336608
 20
104.9963004905
 40
2.0
100
AcDbArc
 50
0.0002911576
 51
82.0000405195
  0
ARC
  5
3AD
100
AcDbEntity
  8
95056301000_BL5
100
AcDbCircle
 62
7
  6
CONTINUOUS
 10
40.9636336608
 20
96.5031926298
 40
2.0
100
AcDbArc
 50
278.0
 51
360.0
  0
ARC
  5
3AE
100
AcDbEntity
  8
95056301000_BL5
100
AcDbCircle
 62
7
  6
CONTINUOUS
 10
28.7636336608
 20
92.4997516418
 40
1.0
100
AcDbArc
 50
90.0
 51
180.0
  0
ARC
  5
3AF
100
AcDbEntity
  8
95056301000_BL5
100
AcDbCircle
 62
7
  6
CONTINUOUS
 10
28.7636336608
 20
108.9997516418
 40
1.0
100
AcDbArc
 50
180.0
 51
270.0
  0
ARC
  5
3B0
100
AcDbEntity
  8
95056301000_BL5
100
AcDbCircle
 62
7
  6
CONTINUOUS
 10
25.4636336608
 20
108.7497516418
 40
0.5
100
AcDbArc
 50
90.0
 51
180.0
  0
ARC
  5
3B1
100
AcDbEntity
  8
95056301000_BL5
100
AcDbCircle
 62
7
  6
CONTINUOUS
 10
25.4636336608
 20
92.7497516418
 40
0.5
100
AcDbArc
 50
180.0
 51
270.0
  0
ELLIPSE
  5
3B2
100
AcDbEntity
  8
95056301000_BL5
100
AcDbEllipse
 62
7
  6
CONTINUOUS
 10
55.309742828
 20
192.939150916
 30
0.0
 11
21.3461091672
 21
0.0
 31
0.0
 40
0.1405408347
 41
3.1415926536
 42
3.150681294
  0
ELLIPSE
  5
3B3
100
AcDbEntity
  8
95056301000_BL5
100
AcDbEllipse
 62
7
  6
CONTINUOUS
 10
55.309742828
 20
229.439150916
 30
0.0
 11
21.3461091672
 21
0.0
 31
0.0
 40
0.1405408347
 41
3.1325040132
 42
3.1415926536
  0
ELLIPSE
  5
3B4
100
AcDbEntity
  8
95056301000_BL5
100
AcDbEllipse
 62
7
  6
CONTINUOUS
 10
62.5067270235
 20
104.9997516418
 30
0.0
 11
28.5430933627
 21
0.0
 31
0.0
 40
0.1051042353
 41
3.1367453985
 42
3.1415926536
  0
ELLIPSE
  5
3B5
100
AcDbEntity
  8
95056301000_BL5
100
AcDbEllipse
 62
7
  6
CONTINUOUS
 10
62.5067270235
 20
96.4997516418
 30
0.0
 11
28.5430933627
 21
-0.0
 31
0.0
 40
0.1051042353
 41
-3.1415926536
 42
-3.1367453985
  0
ENDBLK
  5
3B6
100
AcDbEntity
  8
0
  6
BYBLOCK
 62
0
100
AcDbBlockEnd
  0
BLOCK
  5
3B7
100
AcDbEntity
  8
93866300000_M_BL6
100
AcDbBlockBegin
  2
93866300000_M_BL6
 70
64
 10
61.801561644
 20
187.4444512789
  3
93866300000_M_BL6
  1

  0
LINE
  5
3B8
100
AcDbEntity
  8
93866300000_M_BL6
100
AcDbLine
 62
7
  6
CENTER
 10
97.8894896271
 20
261.189150916
 11
97.8894896271
 21
255.139150916
  0
LINE
  5
3B9
100
AcDbEntity
  8
93866300000_M_BL6
100
AcDbLine
 62
7
  6
CENTER
 10
97.8894896271
 20
261.189150916
 11
97.8894896271
 21
267.239150916
  0
LINE
  5
3BA
100
AcDbEntity
  8
93866300000_M_BL6
100
AcDbLine
 62
7
  6
CENTER
 10
97.8894896271
 20
261.189150916
 11
91.8394896271
 21
261.189150916
  0
LINE
  5
3BB
100
AcDbEntity
  8
93866300000_M_BL6
100
AcDbLine
 62
7
  6
CENTER
 10
97.8894896271
 20
261.189150916
 11
103.9394896271
 21
261.189150916
  0
LINE
  5
3BC
100
AcDbEntity
  8
93866300000_M_BL6
100
AcDbLine
 62
7
  6
CONTINUOUS
 10
32.9636336608
 20
254.239150916
 11
31.9636336608
 21
253.239150916
  0
LINE
  5
3BD
100
AcDbEntity
  8
93866300000_M_BL6
100
AcDbLine
 62
7
  6
CONTINUOUS
 10
31.9636336608
 20
253.239150916
 11
31.9636336608
 21
269.139150916
  0
LINE
  5
3BE
100
AcDbEntity
  8
93866300000_M_BL6
100
AcDbLine
 62
7
  6
CONTINUOUS
 10
32.9636336608
 20
254.239150916
 11
32.9636336608
 21
268.139150916
  0
LINE
  5
3BF
100
AcDbEntity
  8
93866300000_M_BL6
100
AcDbLine
 62
7
  6
CONTINUOUS
 10
32.9636336608
 20
268.139150916
 11
31.9636336608
 21
269.139150916
  0
LINE
  5
3C0
100
AcDbEntity
  8
93866300000_M_BL6
100
AcDbLine
 62
7
  6
CONTINUOUS
 10
31.9636336608
 20
253.239150916
 11
30.9636336608
 21
253.239150916
  0
LINE
  5
3C1
100
AcDbEntity
  8
93866300000_M_BL6
100
AcDbLine
 62
7
  6
CENTER
 10
35.9636336608
 20
261.189150916
 11
19.6636336608
 21
261.189150916
  0
LINE
  5
3C2
100
AcDbEntity
  8
93866300000_M_BL6
100
AcDbLine
 62
7
  6
CONTINUOUS
 10
31.9636336608
 20
269.139150916
 11
28.5685971425
 21
269.139150916
  0
LINE
  5
3C3
100
AcDbEntity
  8
93866300000_M_BL6
100
AcDbLine
 62
7
  6
CENTER
 10
28.0770001982
 20
105.7497516418
 11
19.6636336608
 21
105.7497516418
  0
CIRCLE
  5
3C4
100
AcDbEntity
  8
93866300000_M_BL6
100
AcDbCircle
 62
7
  6
CONTINUOUS
 10
97.8894896271
 20
261.189150916
 40
4.6325317547
  0
CIRCLE
  5
3C5
100
AcDbEntity
  8
93866300000_M_BL6
100
AcDbCircle
 62
7
  6
CONTINUOUS
 10
97.8894896271
 20
261.189150916
 40
2.9711052532
  0
CIRCLE
  5
3C6
100
AcDbEntity
  8
93866300000_M_BL6
100
AcDbCircle
 62
7
  6
CONTINUOUS
 10
97.8894896271
 20
261.189150916
 40
2.8
  0
CIRCLE
  5
3C7
100
AcDbEntity
  8
93866300000_M_BL6
100
AcDbCircle
 62
7
  6
CONTINUOUS
 10
97.8894896271
 20
261.189150916
 40
2.65
  0
ENDBLK
  5
3C8
100
AcDbEntity
  8
0
  6
BYBLOCK
 62
0
100
AcDbBlockEnd
  0
BLOCK
  5
3C9
100
AcDbEntity
  8
91511100000_BL7
100
AcDbBlockBegin
  2
91511100000_BL7
 70
64
 10
29.6636336608
 20
100.7497516418
  3
91511100000_BL7
  1

  0
LINE
  5
3CA
100
AcDbEntity
  8
91511100000_BL7
100
AcDbLine
 62
7
  6
CONTINUOUS
 10
30.2636336608
 20
96.7497516418
 11
29.0636336608
 21
96.7497516418
  0
LINE
  5
3CB
100
AcDbEntity
  8
91511100000_BL7
100
AcDbLine
 62
7
  6
CONTINUOUS
 10
30.2636336608
 20
96.7497516418
 11
30.2636336608
 21
104.7497516418
  0
LINE
  5
3CC
100
AcDbEntity
  8
91511100000_BL7
100
AcDbLine
 62
7
  6
CONTINUOUS
 10
30.2636336608
 20
104.7497516418
 11
29.0636336608
 21
104.7497516418
  0
ENDBLK
  5
3CD
100
AcDbEntity
  8
0
  6
BYBLOCK
 62
0
100
AcDbBlockEnd
  0
BLOCK
  5
3CE
100
AcDbEntity
  8
0
100
AcDbBlockBegin
  2
_FILLED
 70
64
 10
0.0
 20
0.0
  3
_FILLED
  1

  0
SOLID
  5
3CF
100
AcDbEntity
  8
0
  6
BYBLOCK
 62
0
100
AcDbTrace
 10
0.0
 20
0.0
 11
-1.0
 21
0.1428571429
 12
-1.0
 22
-0.1428571429
 13
-1.0
 23
-0.1428571429
  0
ENDBLK
  5
3D0
100
AcDbEntity
  8
0
  6
BYBLOCK
 62
0
100
AcDbBlockEnd
  0
BLOCK
  5
3D1
100
AcDbEntity
  8
0
100
AcDbBlockBegin
  2
XSEC_FILLED
 70
64
 10
0.0
 20
0.0
  3
XSEC_FILLED
  1

  0
SOLID
  5
3D2
100
AcDbEntity
  8
0
  6
BYBLOCK
 62
0
100
AcDbTrace
 10
0.0
 20
0.0
 11
-1.0
 21
0.1875
 12
-1.0
 22
-0.1875
 13
-1.0
 23
-0.1875
  0
ENDBLK
  5
3D3
100
AcDbEntity
  8
0
  6
BYBLOCK
 62
0
100
AcDbBlockEnd
  0
BLOCK
  5
3D4
100
AcDbEntity
  8
0
100
AcDbBlockBegin
 62
2
  6
CONTINUOUS
  2
*D0
 70
65
 10
0.0
 20
0.0
  3
*D0
  1

  0
TEXT
  5
3D5
100
AcDbEntity
  8
0
100
AcDbText
 62
5
  6
CONTINUOUS
 10
52.3386336608
 20
209.2467717339
  7
STANDARD
 40
2.5
  1
74
 50
90.0
 72
5
 11
52.3386336608
 21
213.1315300982
100
AcDbText
  0
LINE
  5
3D6
100
AcDbEntity
  8
0
100
AcDbLine
 62
2
  6
CONTINUOUS
 10
30.9617529591
 20
248.189150916
 11
53.9636336608
 21
248.189150916
  0
LINE
  5
3D7
100
AcDbEntity
  8
0
100
AcDbLine
 62
2
  6
CONTINUOUS
 10
30.9717426221
 20
174.189150916
 11
53.9636336608
 21
174.189150916
  0
LINE
  5
3D8
100
AcDbEntity
  8
0
100
AcDbLine
 62
2
  6
CONTINUOUS
 10
52.9636336608
 20
248.189150916
 11
52.9636336608
 21
211.189150916
  0
LINE
  5
3D9
100
AcDbEntity
  8
0
100
AcDbLine
 62
2
  6
CONTINUOUS
 10
52.9636336608
 20
174.189150916
 11
52.9636336608
 21
211.189150916
  0
INSERT
  5
3DA
100
AcDbEntity
  8
0
100
AcDbBlockReference
 62
2
  6
CONTINUOUS
  2
_FILLED
 10
52.9636336608
 20
248.189150916
 41
3.5
 42
3.5
 43
3.5
 50
90.0
  0
INSERT
  5
3DB
100
AcDbEntity
  8
0
100
AcDbBlockReference
 62
2
  6
CONTINUOUS
  2
_FILLED
 10
52.9636336608
 20
174.189150916
 41
3.5
 42
3.5
 43
3.5
 50
270.0
  0
ENDBLK
  5
3DC
100
AcDbEntity
  8
0
  6
BYBLOCK
 62
0
100
AcDbBlockEnd
  0
BLOCK
  5
3DD
100
AcDbEntity
  8
0
100
AcDbBlockBegin
 62
2
  6
CONTINUOUS
  2
*D1
 70
65
 10
0.0
 20
0.0
  3
*D1
  1

  0
TEXT
  5
3DE
100
AcDbEntity
  8
0
100
AcDbText
 62
5
  6
CONTINUOUS
 10
33.7471470501
 20
176.8586103446
  7
STANDARD
 40
2.5
  1
21
 72
5
 11
37.6319054144
 21
176.8586103446
100
AcDbText
  0
LINE
  5
3DF
100
AcDbEntity
  8
0
100
AcDbLine
 62
2
  6
CONTINUOUS
 10
42.9636336608
 20
193.6767777193
 11
42.9636336608
 21
175.2336103446
  0
LINE
  5
3E0
100
AcDbEntity
  8
0
100
AcDbLine
 62
2
  6
CONTINUOUS
 10
42.9636336608
 20
176.2336103446
 11
32.4636336608
 21
176.2336103446
  0
LINE
  5
3E1
100
AcDbEntity
  8
0
100
AcDbLine
 62
2
  6
CONTINUOUS
 10
21.9636336608
 20
176.2336103446
 11
32.4636336608
 21
176.2336103446
  0
INSERT
  5
3E2
100
AcDbEntity
  8
0
100
AcDbBlockReference
 62
2
  6
CONTINUOUS
  2
_FILLED
 10
42.9636336608
 20
176.2336103446
 41
3.5
 42
3.5
 43
3.5
  0
INSERT
  5
3E3
100
AcDbEntity
  8
0
100
AcDbBlockReference
 62
2
  6
CONTINUOUS
  2
_FILLED
 10
21.9636336608
 20
176.2336103446
 41
3.5
 42
3.5
 43
3.5
 50
180.0
  0
ENDBLK
  5
3E4
100
AcDbEntity
  8
0
  6
BYBLOCK
 62
0
100
AcDbBlockEnd
  0
BLOCK
  5
3E5
100
AcDbEntity
  8
0
100
AcDbBlockBegin
 62
2
  6
CONTINUOUS
  2
*D2
 70
65
 10
0.0
 20
0.0
  3
*D2
  1

  0
TEXT
  5
3E6
100
AcDbEntity
  8
0
100
AcDbText
 62
5
  6
CONTINUOUS
 10
25.4924440697
 20
281.814150916
  7
STANDARD
 40
2.5
  1
9
 72
5
 11
27.4348232519
 21
281.814150916
100
AcDbText
  0
LINE
  5
3E7
100
AcDbEntity
  8
0
100
AcDbLine
 62
2
  6
CONTINUOUS
 10
21.9636336608
 20
271.189150916
 11
21.9636336608
 21
282.189150916
  0
LINE
  5
3E8
100
AcDbEntity
  8
0
100
AcDbLine
 62
2
  6
CONTINUOUS
 10
30.9636336608
 20
263.4431842236
 11
30.9636336608
 21
282.189150916
  0
LINE
  5
3E9
100
AcDbEntity
  8
0
100
AcDbLine
 62
2
  6
CONTINUOUS
 10
21.9636336608
 20
281.189150916
 11
14.9636336608
 21
281.189150916
  0
LINE
  5
3EA
100
AcDbEntity
  8
0
100
AcDbLine
 62
2
  6
CONTINUOUS
 10
14.9636336608
 20
281.189150916
 11
26.4636336608
 21
281.189150916
  0
LINE
  5
3EB
100
AcDbEntity
  8
0
100
AcDbLine
 62
2
  6
CONTINUOUS
 10
30.9636336608
 20
281.189150916
 11
37.9636336608
 21
281.189150916
  0
LINE
  5
3EC
100
AcDbEntity
  8
0
100
AcDbLine
 62
2
  6
CONTINUOUS
 10
37.9636336608
 20
281.189150916
 11
26.4636336608
 21
281.189150916
  0
INSERT
  5
3ED
100
AcDbEntity
  8
0
100
AcDbBlockReference
 62
2
  6
CONTINUOUS
  2
_FILLED
 10
21.9636336608
 20
281.189150916
 41
3.5
 42
3.5
 43
3.5
  0
INSERT
  5
3EE
100
AcDbEntity
  8
0
100
AcDbBlockReference
 62
2
  6
CONTINUOUS
  2
_FILLED
 10
30.9636336608
 20
281.189150916
 41
3.5
 42
3.5
 43
3.5
 50
180.0
  0
ENDBLK
  5
3EF
100
AcDbEntity
  8
0
  6
BYBLOCK
 62
0
100
AcDbBlockEnd
  0
BLOCK
  5
3F0
100
AcDbEntity
  8
0
100
AcDbBlockBegin
 62
2
  6
CONTINUOUS
  2
*D3
 70
65
 10
0.0
 20
0.0
  3
*D3
  1

  0
TEXT
  5
3F1
100
AcDbEntity
  8
0
100
AcDbText
 62
5
  6
CONTINUOUS
 10
99.9471104449
 20
288.814150916
  7
STANDARD
 40
2.5
  1
28
 72
5
 11
103.8318688092
 21
288.814150916
100
AcDbText
  0
LINE
  5
3F2
100
AcDbEntity
  8
0
100
AcDbLine
 62
2
  6
CONTINUOUS
 10
87.8894896271
 20
263.189150916
 11
87.8894896271
 21
289.189150916
  0
LINE
  5
3F3
100
AcDbEntity
  8
0
100
AcDbLine
 62
2
  6
CONTINUOUS
 10
115.8894896271
 20
271.189150916
 11
115.8894896271
 21
289.189150916
  0
LINE
  5
3F4
100
AcDbEntity
  8
0
100
AcDbLine
 62
2
  6
CONTINUOUS
 10
87.8894896271
 20
288.189150916
 11
101.8894896271
 21
288.189150916
  0
LINE
  5
3F5
100
AcDbEntity
  8
0
100
AcDbLine
 62
2
  6
CONTINUOUS
 10
115.8894896271
 20
288.189150916
 11
101.8894896271
 21
288.189150916
  0
INSERT
  5
3F6
100
AcDbEntity
  8
0
100
AcDbBlockReference
 62
2
  6
CONTINUOUS
  2
_FILLED
 10
87.8894896271
 20
288.189150916
 41
3.5
 42
3.5
 43
3.5
 50
180.0
  0
INSERT
  5
3F7
100
AcDbEntity
  8
0
100
AcDbBlockReference
 62
2
  6
CONTINUOUS
  2
_FILLED
 10
115.8894896271
 20
288.189150916
 41
3.5
 42
3.5
 43
3.5
  0
ENDBLK
  5
3F8
100
AcDbEntity
  8
0
  6
BYBLOCK
 62
0
100
AcDbBlockEnd
  0
BLOCK
  5
3F9
100
AcDbEntity
  8
0
100
AcDbBlockBegin
 62
2
  6
CONTINUOUS
  2
*D4
 70
65
 10
0.0
 20
0.0
  3
*D4
  1

  0
TEXT
  5
3FA
100
AcDbEntity
  8
0
100
AcDbText
 62
5
  6
CONTINUOUS
 10
77.2644896271
 20
208.2755821428
  7
STANDARD
 40
2.5
  1
120
 50
90.0
 72
5
 11
77.2644896271
 21
214.1027196893
100
AcDbText
  0
LINE
  5
3FB
100
AcDbEntity
  8
0
100
AcDbLine
 62
2
  6
CONTINUOUS
 10
95.8894896271
 20
271.189150916
 11
76.8894896271
 21
271.189150916
  0
LINE
  5
3FC
100
AcDbEntity
  8
0
100
AcDbLine
 62
2
  6
CONTINUOUS
 10
95.8894896271
 20
151.189150916
 11
89.7258788255
 21
151.189150916
  0
LINE
  5
3FD
100
AcDbEntity
  8
0
100
AcDbLine
 62
2
  6
CONTINUOUS
 10
86.2092090803
 20
151.189150916
 11
76.8894896271
 21
151.189150916
  0
LINE
  5
3FE
100
AcDbEntity
  8
0
100
AcDbLine
 62
2
  6
CONTINUOUS
 10
77.8894896271
 20
271.189150916
 11
77.8894896271
 21
211.189150916
  0
LINE
  5
3FF
100
AcDbEntity
  8
0
100
AcDbLine
 62
2
  6
CONTINUOUS
 10
77.8894896271
 20
151.189150916
 11
77.8894896271
 21
211.189150916
  0
INSERT
  5
400
100
AcDbEntity
  8
0
100
AcDbBlockReference
 62
2
  6
CONTINUOUS
  2
_FILLED
 10
77.8894896271
 20
271.189150916
 41
3.5
 42
3.5
 43
3.5
 50
90.0
  0
INSERT
  5
401
100
AcDbEntity
  8
0
100
AcDbBlockReference
 62
2
  6
CONTINUOUS
  2
_FILLED
 10
77.8894896271
 20
151.189150916
 41
3.5
 42
3.5
 43
3.5
 50
270.0
  0
ENDBLK
  5
402
100
AcDbEntity
  8
0
  6
BYBLOCK
 62
0
100
AcDbBlockEnd
  0
BLOCK
  5
403
100
AcDbEntity
  8
0
100
AcDbBlockBegin
 62
2
  6
CONTINUOUS
  2
*D5
 70
65
 10
0.0
 20
0.0
  3
*D5
  1

  0
TEXT
  5
404
100
AcDbEntity
  8
0
100
AcDbText
 62
5
  6
CONTINUOUS
 10
125.2644896271
 20
208.2755821428
  7
STANDARD
 40
2.5
  1
100
 50
90.0
 72
5
 11
125.2644896271
 21
214.1027196893
100
AcDbText
  0
LINE
  5
405
100
AcDbEntity
  8
0
100
AcDbLine
 62
2
  6
CONTINUOUS
 10
103.9394896271
 20
261.189150916
 11
126.8894896271
 21
261.189150916
  0
LINE
  5
406
100
AcDbEntity
  8
0
100
AcDbLine
 62
2
  6
CONTINUOUS
 10
103.9394896271
 20
161.189150916
 11
126.8894896271
 21
161.189150916
  0
LINE
  5
407
100
AcDbEntity
  8
0
100
AcDbLine
 62
2
  6
CONTINUOUS
 10
125.8894896271
 20
261.189150916
 11
125.8894896271
 21
211.189150916
  0
LINE
  5
408
100
AcDbEntity
  8
0
100
AcDbLine
 62
2
  6
CONTINUOUS
 10
125.8894896271
 20
161.189150916
 11
125.8894896271
 21
211.189150916
  0
INSERT
  5
409
100
AcDbEntity
  8
0
100
AcDbBlockReference
 62
2
  6
CONTINUOUS
  2
_FILLED
 10
125.8894896271
 20
261.189150916
 41
3.5
 42
3.5
 43
3.5
 50
90.0
  0
INSERT
  5
40A
100
AcDbEntity
  8
0
100
AcDbBlockReference
 62
2
  6
CONTINUOUS
  2
_FILLED
 10
125.8894896271
 20
161.189150916
 41
3.5
 42
3.5
 43
3.5
 50
270.0
  0
ENDBLK
  5
40B
100
AcDbEntity
  8
0
  6
BYBLOCK
 62
0
100
AcDbBlockEnd
  0
BLOCK
  5
40C
100
AcDbEntity
  8
0
100
AcDbBlockBegin
 62
2
  6
CONTINUOUS
  2
*D6
 70
65
 10
0.0
 20
0.0
  3
*D6
  1

  0
TEXT
  5
40D
100
AcDbEntity
  8
0
100
AcDbText
 62
5
  6
CONTINUOUS
 10
52.3386336608
 20
98.8073724596
  7
STANDARD
 40
2.5
  1
17
 50
90.0
 72
5
 11
52.3386336608
 21
102.692130824
100
AcDbText
  0
LINE
  5
40E
100
AcDbEntity
  8
0
100
AcDbLine
 62
2
  6
CONTINUOUS
 10
27.7636336608
 20
92.2497516418
 11
53.9636336608
 21
92.2497516418
  0
LINE
  5
40F
100
AcDbEntity
  8
0
100
AcDbLine
 62
2
  6
CONTINUOUS
 10
27.7636336608
 20
109.2497516418
 11
53.9636336608
 21
109.2497516418
  0
LINE
  5
410
100
AcDbEntity
  8
0
100
AcDbLine
 62
2
  6
CONTINUOUS
 10
52.9636336608
 20
92.2497516418
 11
52.9636336608
 21
100.7497516418
  0
LINE
  5
411
100
AcDbEntity
  8
0
100
AcDbLine
 62
2
  6
CONTINUOUS
 10
52.9636336608
 20
109.2497516418
 11
52.9636336608
 21
100.7497516418
  0
INSERT
  5
412
100
AcDbEntity
  8
0
100
AcDbBlockReference
 62
2
  6
CONTINUOUS
  2
_FILLED
 10
52.9636336608
 20
92.2497516418
 41
3.5
 42
3.5
 43
3.5
 50
270.0
  0
INSERT
  5
413
100
AcDbEntity
  8
0
100
AcDbBlockReference
 62
2
  6
CONTINUOUS
  2
_FILLED
 10
52.9636336608
 20
109.2497516418
 41
3.5
 42
3.5
 43
3.5
 50
90.0
  0
ENDBLK
  5
414
100
AcDbEntity
  8
0
  6
BYBLOCK
 62
0
100
AcDbBlockEnd
  0
BLOCK
  5
415
100
AcDbEntity
  8
0
100
AcDbBlockBegin
 62
2
  6
CONTINUOUS
  2
*D7
 70
65
 10
0.0
 20
0.0
  3
*D7
  1

  0
TEXT
  5
416
100
AcDbEntity
  8
0
100
AcDbText
 62
5
  6
CONTINUOUS
 10
107.4471104449
 20
141.814150916
  7
STANDARD
 40
2.5
  1
13
 72
5
 11
111.3318688092
 21
141.814150916
100
AcDbText
  0
LINE
  5
417
100
AcDbEntity
  8
0
100
AcDbLine
 62
2
  6
CONTINUOUS
 10
102.8894896271
 20
175.485691076
 11
102.8894896271
 21
140.189150916
  0
LINE
  5
418
100
AcDbEntity
  8
0
100
AcDbLine
 62
2
  6
CONTINUOUS
 10
115.8894896271
 20
151.189150916
 11
115.8894896271
 21
140.189150916
  0
LINE
  5
419
100
AcDbEntity
  8
0
100
AcDbLine
 62
2
  6
CONTINUOUS
 10
102.8894896271
 20
141.189150916
 11
109.3894896271
 21
141.189150916
  0
LINE
  5
41A
100
AcDbEntity
  8
0
100
AcDbLine
 62
2
  6
CONTINUOUS
 10
115.8894896271
 20
141.189150916
 11
109.3894896271
 21
141.189150916
  0
INSERT
  5
41B
100
AcDbEntity
  8
0
100
AcDbBlockReference
 62
2
  6
CONTINUOUS
  2
_FILLED
 10
102.8894896271
 20
141.189150916
 41
3.5
 42
3.5
 43
3.5
 50
180.0
  0
INSERT
  5
41C
100
AcDbEntity
  8
0
100
AcDbBlockReference
 62
2
  6
CONTINUOUS
  2
_FILLED
 10
115.8894896271
 20
141.189150916
 41
3.5
 42
3.5
 43
3.5
  0
ENDBLK
  5
41D
100
AcDbEntity
  8
0
  6
BYBLOCK
 62
0
100
AcDbBlockEnd
  0
BLOCK
  5
41E
100
AcDbEntity
  8
0
100
AcDbBlockBegin
 62
2
  6
CONTINUOUS
  2
*D8
 70
65
 10
0.0
 20
0.0
  3
*D8
  1

  0
TEXT
  5
41F
100
AcDbEntity
  8
0
100
AcDbText
 62
5
  6
CONTINUOUS
 10
104.9471104449
 20
281.814150916
  7
STANDARD
 40
2.5
  1
18
 72
5
 11
108.8318688092
 21
281.814150916
100
AcDbText
  0
LINE
  5
420
100
AcDbEntity
  8
0
100
AcDbLine
 62
2
  6
CONTINUOUS
 10
115.8894896271
 20
271.189150916
 11
115.8894896271
 21
282.189150916
  0
LINE
  5
421
100
AcDbEntity
  8
0
100
AcDbLine
 62
2
  6
CONTINUOUS
 10
97.8894896271
 20
267.239150916
 11
97.8894896271
 21
282.189150916
  0
LINE
  5
422
100
AcDbEntity
  8
0
100
AcDbLine
 62
2
  6
CONTINUOUS
 10
115.8894896271
 20
281.189150916
 11
106.8894896271
 21
281.189150916
  0
LINE
  5
423
100
AcDbEntity
  8
0
100
AcDbLine
 62
2
  6
CONTINUOUS
 10
97.8894896271
 20
281.189150916
 11
106.8894896271
 21
281.189150916
  0
INSERT
  5
424
100
AcDbEntity
  8
0
100
AcDbBlockReference
 62
2
  6
CONTINUOUS
  2
_FILLED
 10
115.8894896271
 20
281.189150916
 41
3.5
 42
3.5
 43
3.5
  0
INSERT
  5
425
100
AcDbEntity
  8
0
100
AcDbBlockReference
 62
2
  6
CONTINUOUS
  2
_FILLED
 10
97.8894896271
 20
281.189150916
 41
3.5
 42
3.5
 43
3.5
 50
180.0
  0
ENDBLK
  5
426
100
AcDbEntity
  8
0
  6
BYBLOCK
 62
0
100
AcDbBlockEnd
  0
BLOCK
  5
427
100
AcDbEntity
  8
0
100
AcDbBlockBegin
 62
2
  6
CONTINUOUS
  2
*D9
 70
65
 10
0.0
 20
0.0
  3
*D9
  1

  0
TEXT
  5
428
100
AcDbEntity
  8
0
100
AcDbText
 62
5
  6
CONTINUOUS
 10
25.5212544787
 20
288.814150916
  7
STANDARD
 40
2.5
  1
11
 72
5
 11
29.406012843
 21
288.814150916
100
AcDbText
  0
LINE
  5
429
100
AcDbEntity
  8
0
100
AcDbLine
 62
2
  6
CONTINUOUS
 10
21.9636336608
 20
271.189150916
 11
21.9636336608
 21
289.189150916
  0
LINE
  5
42A
100
AcDbEntity
  8
0
100
AcDbLine
 62
2
  6
CONTINUOUS
 10
32.9636336608
 20
268.139150916
 11
32.9636336608
 21
279.4572585279
  0
LINE
  5
42B
100
AcDbEntity
  8
0
100
AcDbLine
 62
2
  6
CONTINUOUS
 10
32.9636336608
 20
282.8855627802
 11
32.9636336608
 21
289.189150916
  0
LINE
  5
42C
100
AcDbEntity
  8
0
100
AcDbLine
 62
2
  6
CONTINUOUS
 10
21.9636336608
 20
288.189150916
 11
27.4636336608
 21
288.189150916
  0
LINE
  5
42D
100
AcDbEntity
  8
0
100
AcDbLine
 62
2
  6
CONTINUOUS
 10
32.9636336608
 20
288.189150916
 11
27.4636336608
 21
288.189150916
  0
INSERT
  5
42E
100
AcDbEntity
  8
0
100
AcDbBlockReference
 62
2
  6
CONTINUOUS
  2
_FILLED
 10
21.9636336608
 20
288.189150916
 41
3.5
 42
3.5
 43
3.5
 50
180.0
  0
INSERT
  5
42F
100
AcDbEntity
  8
0
100
AcDbBlockReference
 62
2
  6
CONTINUOUS
  2
_FILLED
 10
32.9636336608
 20
288.189150916
 41
3.5
 42
3.5
 43
3.5
  0
ENDBLK
  5
430
100
AcDbEntity
  8
0
  6
BYBLOCK
 62
0
100
AcDbBlockEnd
  0
BLOCK
  5
431
100
AcDbEntity
  8
0
100
AcDbBlockBegin
 62
2
  6
CONTINUOUS
  2
*D10
 70
65
 10
0.0
 20
0.0
  3
*D10
  1

  0
TEXT
  5
432
100
AcDbEntity
  8
0
100
AcDbText
 62
5
  6
CONTINUOUS
 10
42.3386336608
 20
157.5801050672
  7
TEXTSTYLE_1
 40
2.5
  1
n
 50
90.0
 72
5
 11
42.3386336608
 21
160.9134384006
100
AcDbText
  0
TEXT
  5
433
100
AcDbEntity
  8
0
100
AcDbText
 62
5
  6
CONTINUOUS
 10
42.3386336608
 20
160.9134384006
  7
STANDARD
 40
2.5
  1
16
 50
90.0
 72
5
 11
42.3386336608
 21
164.7981967649
100
AcDbText
  0
LINE
  5
434
100
AcDbEntity
  8
0
100
AcDbLine
 62
2
  6
CONTINUOUS
 10
31.9636336608
 20
169.139150916
 11
43.9636336608
 21
169.139150916
  0
LINE
  5
435
100
AcDbEntity
  8
0
100
AcDbLine
 62
2
  6
CONTINUOUS
 10
31.9636336608
 20
153.239150916
 11
43.9636336608
 21
153.239150916
  0
LINE
  5
436
100
AcDbEntity
  8
0
100
AcDbLine
 62
2
  6
CONTINUOUS
 10
42.9636336608
 20
169.139150916
 11
42.9636336608
 21
161.189150916
  0
LINE
  5
437
100
AcDbEntity
  8
0
100
AcDbLine
 62
2
  6
CONTINUOUS
 10
42.9636336608
 20
153.239150916
 11
42.9636336608
 21
161.189150916
  0
INSERT
  5
438
100
AcDbEntity
  8
0
100
AcDbBlockReference
 62
2
  6
CONTINUOUS
  2
_FILLED
 10
42.9636336608
 20
169.139150916
 41
3.5
 42
3.5
 43
3.5
 50
90.0
  0
INSERT
  5
439
100
AcDbEntity
  8
0
100
AcDbBlockReference
 62
2
  6
CONTINUOUS
  2
_FILLED
 10
42.9636336608
 20
153.239150916
 41
3.5
 42
3.5
 43
3.5
 50
270.0
  0
ENDBLK
  5
43A
100
AcDbEntity
  8
0
  6
BYBLOCK
 62
0
100
AcDbBlockEnd
  0
BLOCK
  5
43B
100
AcDbEntity
  8
0
100
AcDbBlockBegin
 62
2
  6
CONTINUOUS
  2
*D11
 70
65
 10
0.0
 20
0.0
  3
*D11
  1

  0
TEXT
  5
43C
100
AcDbEntity
  8
0
100
AcDbText
 62
5
  6
CONTINUOUS
 10
81.7133157322
 20
145.6197516537
  7
STANDARD
 40
2.5
  1
R
 50
45.5723134839
 72
5
 11
83.47634831
 21
147.41836179
100
AcDbText
  0
TEXT
  5
43D
100
AcDbEntity
  8
0
100
AcDbText
 62
5
  6
CONTINUOUS
 10
83.47634831
 20
147.41836179
  7
STANDARD
 40
2.5
  1
8
 50
45.5723134839
 72
5
 11
84.8360302612
 21
148.8054817845
100
AcDbText
  0
LINE
  5
43E
100
AcDbEntity
  8
0
100
AcDbLine
 62
2
  6
CONTINUOUS
 10
90.2894215717
 20
153.4760748816
 11
82.1596497974
 21
145.1822463369
  0
INSERT
  5
43F
100
AcDbEntity
  8
0
100
AcDbBlockReference
 62
2
  6
CONTINUOUS
  2
_FILLED
 10
90.2894215717
 20
153.4760748816
 41
3.5
 42
3.5
 43
3.5
 50
45.5723134839
  0
ENDBLK
  5
440
100
AcDbEntity
  8
0
  6
BYBLOCK
 62
0
100
AcDbBlockEnd
  0
BLOCK
  5
441
100
AcDbEntity
  8
0
100
AcDbBlockBegin
 62
2
  6
CONTINUOUS
  2
*D12
 70
65
 10
0.0
 20
0.0
  3
*D12
  1

  0
TEXT
  5
442
100
AcDbEntity
  8
0
100
AcDbText
 62
5
  6
CONTINUOUS
 10
15.8285934843
 20
126.3747516418
  7
STANDARD
 40
2.5
  1
3
 72
5
 11
17.7709726665
 21
126.3747516418
100
AcDbText
  0
LINE
  5
443
100
AcDbEntity
  8
0
100
AcDbLine
 62
2
  6
CONTINUOUS
 10
21.9636336608
 20
115.7497516418
 11
21.9636336608
 21
126.7497516418
  0
LINE
  5
444
100
AcDbEntity
  8
0
100
AcDbLine
 62
2
  6
CONTINUOUS
 10
24.9636336608
 20
115.7497516418
 11
24.9636336608
 21
126.7497516418
  0
LINE
  5
445
100
AcDbEntity
  8
0
100
AcDbLine
 62
2
  6
CONTINUOUS
 10
21.9636336608
 20
125.7497516418
 11
15.8285934843
 21
125.7497516418
  0
LINE
  5
446
100
AcDbEntity
  8
0
100
AcDbLine
 62
2
  6
CONTINUOUS
 10
15.8285934843
 20
125.7497516418
 11
23.4636336608
 21
125.7497516418
  0
LINE
  5
447
100
AcDbEntity
  8
0
100
AcDbLine
 62
2
  6
CONTINUOUS
 10
24.9636336608
 20
125.7497516418
 11
31.9636336608
 21
125.7497516418
  0
LINE
  5
448
100
AcDbEntity
  8
0
100
AcDbLine
 62
2
  6
CONTINUOUS
 10
31.9636336608
 20
125.7497516418
 11
23.4636336608
 21
125.7497516418
  0
INSERT
  5
449
100
AcDbEntity
  8
0
100
AcDbBlockReference
 62
2
  6
CONTINUOUS
  2
_FILLED
 10
21.9636336608
 20
125.7497516418
 41
3.5
 42
3.5
 43
3.5
  0
INSERT
  5
44A
100
AcDbEntity
  8
0
100
AcDbBlockReference
 62
2
  6
CONTINUOUS
  2
_FILLED
 10
24.9636336608
 20
125.7497516418
 41
3.5
 42
3.5
 43
3.5
 50
180.0
  0
ENDBLK
  5
44B
100
AcDbEntity
  8
0
  6
BYBLOCK
 62
0
100
AcDbBlockEnd
  0
ENDSEC
  0
SECTION
  2
ENTITIES
  0
DIMENSION
  5
44C
100
AcDbEntity
  8
0
100
AcDbDimension
 62
2
  6
CONTINUOUS
  2
*D0
 10
52.9636336608
 20
174.189150916
 11
52.9636336608
 21
211.1917384058
 70
160
 71
2
 72
2
 41
0.9
 42
74.0
  3
DIMSTYLE_1
100
AcDbAlignedDimension
 13
30.9617529591
 23
248.189150916
 14
30.9717426221
 24
174.189150916
 50
270.0
100
AcDbRotatedDimension
  0
DIMENSION
  5
44D
100
AcDbEntity
  8
0
100
AcDbDimension
 62
2
  6
CONTINUOUS
  2
*D1
 10
21.9636336608
 20
176.2336103446
 11
35.4179519676
 21
176.2336103446
 70
160
 71
2
 72
2
 41
0.9
 42
21.0
  3
DIMSTYLE_2
100
AcDbAlignedDimension
 13
42.9636336608
 23
193.6767777193
 14
21.9636336608
 24
151.189150916
 50
180.0
100
AcDbRotatedDimension
  0
DIMENSION
  5
44E
100
AcDbEntity
  8
0
100
AcDbDimension
 62
2
  6
CONTINUOUS
  2
*D2
 10
30.9636336608
 20
281.189150916
 11
26.4589874494
 21
281.189150916
 70
160
 71
2
 72
2
 41
0.9
 42
9.0
  3
DIMSTYLE_2
100
AcDbAlignedDimension
 13
21.9636336608
 23
271.189150916
 14
30.9636336608
 24
263.4431842236
100
AcDbRotatedDimension
  0
DIMENSION
  5
44F
100
AcDbEntity
  8
0
100
AcDbDimension
 62
2
  6
CONTINUOUS
  2
*D3
 10
115.8894896271
 20
288.189150916
 11
101.8549006076
 21
288.189150916
 70
160
 71
2
 72
2
 41
0.9
 42
28.0
  3
DIMSTYLE_2
100
AcDbAlignedDimension
 13
87.8894896271
 23
263.189150916
 14
115.8894896271
 24
271.189150916
100
AcDbRotatedDimension
  0
DIMENSION
  5
450
100
AcDbEntity
  8
0
100
AcDbDimension
 62
2
  6
CONTINUOUS
  2
*D4
 10
77.8894896271
 20
151.189150916
 11
77.8894896271
 21
211.2965616997
 70
160
 71
2
 72
2
 41
0.9
 42
120.0
  3
DIMSTYLE_1
100
AcDbAlignedDimension
 13
95.8894896271
 23
271.189150916
 14
95.8894896271
 24
151.189150916
 50
270.0
100
AcDbRotatedDimension
  0
DIMENSION
  5
451
100
AcDbEntity
  8
0
100
AcDbDimension
 62
2
  6
CONTINUOUS
  2
*D5
 10
125.8894896271
 20
161.189150916
 11
125.8894896271
 21
211.2965603253
 70
160
 71
2
 72
2
 41
0.9
 42
100.0
  3
DIMSTYLE_1
100
AcDbAlignedDimension
 13
103.9394896271
 23
261.189150916
 14
103.9394896271
 24
161.189150916
 50
270.0
100
AcDbRotatedDimension
  0
DIMENSION
  5
452
100
AcDbEntity
  8
0
100
AcDbDimension
 62
2
  6
CONTINUOUS
  2
*D6
 10
52.9636336608
 20
109.2497516418
 11
52.9636336608
 21
100.8592173144
 70
160
 71
2
 72
2
 41
0.9
 42
17.0
  3
DIMSTYLE_2
100
AcDbAlignedDimension
 13
27.7636336608
 23
92.2497516418
 14
27.7636336608
 24
109.2497516418
 50
90.0
100
AcDbRotatedDimension
  0
DIMENSION
  5
453
100
AcDbEntity
  8
0
100
AcDbDimension
 62
2
  6
CONTINUOUS
  2
*D7
 10
115.8894896271
 20
141.189150916
 11
109.4989541377
 21
141.189150916
 70
160
 71
2
 72
2
 41
0.9
 42
13.0
  3
DIMSTYLE_2
100
AcDbAlignedDimension
 13
102.8894896271
 23
175.485691076
 14
115.8894896271
 24
151.189150916
100
AcDbRotatedDimension
  0
DIMENSION
  5
454
100
AcDbEntity
  8
0
100
AcDbDimension
 62
2
  6
CONTINUOUS
  2
*D8
 10
97.8894896271
 20
281.189150916
 11
106.9943119936
 21
281.189150916
 70
160
 71
2
 72
2
 41
0.9
 42
18.0
  3
DIMSTYLE_2
100
AcDbAlignedDimension
 13
115.8894896271
 23
271.189150916
 14
97.8894896271
 24
267.239150916
 50
180.0
100
AcDbRotatedDimension
  0
DIMENSION
  5
455
100
AcDbEntity
  8
0
100
AcDbDimension
 62
2
  6
CONTINUOUS
  2
*D9
 10
32.9636336608
 20
288.189150916
 11
27.3314630715
 21
288.189150916
 70
160
 71
2
 72
2
 41
0.9
 42
11.0
  3
DIMSTYLE_2
100
AcDbAlignedDimension
 13
21.9636336608
 23
271.189150916
 14
32.9636336608
 24
268.139150916
100
AcDbRotatedDimension
  0
DIMENSION
  5
456
100
AcDbEntity
  8
0
100
AcDbDimension
 62
2
  6
CONTINUOUS
  2
*D10
 10
42.9636336608
 20
153.239150916
 11
42.9636336608
 21
161.189150916
 70
160
 71
2
 72
2
 41
0.9
 42
15.9
  1
%%c<>
  3
DIMSTYLE_3
100
AcDbAlignedDimension
 13
31.9636336608
 23
169.139150916
 14
31.9636336608
 24
153.239150916
 50
270.0
100
AcDbRotatedDimension
  0
DIMENSION
  5
457
100
AcDbEntity
  8
0
100
AcDbDimension
 62
2
  6
CONTINUOUS
  2
*D11
 10
95.8894896271
 20
159.189150916
 11
82.3820048663
 21
148.0876273528
 70
164
 71
3
 72
2
 41
0.9
 42
8.0
  1
R<>
  3
DIMSTYLE_4
100
AcDbRadialDimension
 15
90.2894215717
 25
153.4760748816
  0
DIMENSION
  5
458
100
AcDbEntity
  8
0
100
AcDbDimension
 62
2
  6
CONTINUOUS
  2
*D12
 10
24.9636336608
 20
125.7497516418
 11
16.7997854456
 21
125.7497516418
 70
160
 71
3
 72
2
 41
0.9
 42
3.0
  3
DIMSTYLE_5
100
AcDbAlignedDimension
 13
21.9636336608
 23
115.7497516418
 14
24.9636336608
 24
115.7497516418
100
AcDbRotatedDimension
  0
TEXT
  5
459
100
AcDbEntity
  8
0
100
AcDbText
 62
5
  6
CONTINUOUS
 10
23.7533831562
 20
75.2261528593
  7
STANDARD
 40
5.0
  1
A-A
 72
5
 11
35.370483528
 21
75.2261528593
100
AcDbText
  0
INSERT
  5
45A
100
AcDbEntity
  8
0
100
AcDbBlockReference
 62
2
  6
CONTINUOUS
  2
SCHRIFTKOPF_PRODUKTABBIL_BL8
 10
31.0000000239
 20
34.9999999785
  0
LINE
  5
45B
100
AcDbEntity
  8
S-AXIS
100
AcDbLine
 62
7
  6
CENTER
 10
45.9636336608
 20
211.189150916
 11
18.9636336608
 21
211.189150916
  0
INSERT
  5
45C
100
AcDbEntity
  8
HATCHING_BL0
100
AcDbBlockReference
  2
HATCHING_BL0
 10
27.4636336608
 20
258.4665018063
  0
INSERT
  5
45D
100
AcDbEntity
  8
94797001000_BL1
100
AcDbBlockReference
  2
94797001000_BL1
 10
68.926561644
 20
179.5964679327
  0
INSERT
  5
45E
100
AcDbEntity
  8
93866300000_M_BL2
100
AcDbBlockReference
  2
93866300000_M_BL2
 10
61.801561644
 20
138.5694512789
  0
INSERT
  5
45F
100
AcDbEntity
  8
94528902000_M_BL3
100
AcDbBlockReference
  2
94528902000_M_BL3
 10
69.6779588185
 20
181.089150916
  0
INSERT
  5
460
100
AcDbEntity
  8
94528902000_M_BL4
100
AcDbBlockReference
  2
94528902000_M_BL4
 10
69.326561644
 20
172.2694512789
  0
INSERT
  5
461
100
AcDbEntity
  8
95056301000_BL5
100
AcDbBlockReference
  2
95056301000_BL5
 10
66.0125553824
 20
170.1020493513
  0
INSERT
  5
462
100
AcDbEntity
  8
93866300000_M_BL6
100
AcDbBlockReference
  2
93866300000_M_BL6
 10
61.801561644
 20
187.4444512789
  0
INSERT
  5
463
100
AcDbEntity
  8
91511100000_BL7
100
AcDbBlockReference
  2
91511100000_BL7
 10
29.6636336608
 20
100.7497516418
  0
ENDSEC
  0
SECTION
  2
OBJECTS
  0
DICTIONARY
  5
C
100
AcDbDictionary
280
0
281
1
  3
ACAD_GROUP
350
D
  3
ACAD_MLINESTYLE
350
17
  3
ACAD_LAYOUT
350
1A
  3
ACAD_PLOTSETTINGS
350
19
  3
ACAD_PLOTSTYLENAME
350
E
  0
DICTIONARY
  5
D
102
{ACAD_REACTORS
330
C
102
}
100
AcDbDictionary
280
0
281
1
  0
ACDBDICTIONARYWDFLT
  5
E
102
{ACAD_REACTORS
330
C
102
}
100
AcDbDictionary
281
1
  3
Normal
350
F
100
AcDbDictionaryWithDefault
340
F
  0
DICTIONARY
  5
17
102
{ACAD_REACTORS
330
C
102
}
100
AcDbDictionary
280
0
281
1
  3
Standard
350
18
  0
DICTIONARY
  5
19
102
{ACAD_REACTORS
330
C
102
}
100
AcDbDictionary
281
1
  0
DICTIONARY
  5
1A
102
{ACAD_REACTORS
330
C
102
}
100
AcDbDictionary
281
1
  3
Model
350
464
  3
Layout1
350
465
  0
ACDBPLACEHOLDER
  5
F
102
{ACAD_REACTORS
330
E
102
}
  0
MLINESTYLE
  5
18
102
{ACAD_REACTORS
330
17
102
}
100
AcDbMlineStyle
  2
STANDARD
 70
0
  3

 62
256
 51
90.0
 52
90.0
 71
2
 49
0.5
 62
256
  6
BYLAYER
 49
-0.5
 62
256
  6
BYLAYER
  0
LAYOUT
  5
464
102
{ACAD_REACTORS
330
1A
102
}
100
AcDbPlotSettings
  1

  2
none_device
  4

  6

 40
0.0
 41
0.0
 42
0.0
 43
0.0
 44
134.874
 45
298.0
 46
0.0
 47
0.0
 48
0.0
 49
0.0
140
0.0
141
0.0
142
1.0
143
1.0
 70
1024
 72
1
 73
0
 74
0
  7

 75
0
147
1.0
148
0.0
149
0.0
100
AcDbLayout
  1
Model
 70
0
 71
0
 10
0.0
 20
0.0
 11
134.874
 21
298.0
 12
0.0
 22
0.0
 32
0.0
 14
0.0
 24
0.0
 34
0.0
 15
0.0
 25
0.0
 35
0.0
146
0.0
 13
0.0
 23
0.0
 33
0.0
 16
1.0
 26
0.0
 36
0.0
 17
0.0
 27
1.0
 37
0.0
 76
0
330
213
345
0
346
0
  0
LAYOUT
  5
465
102
{ACAD_REACTORS
330
1A
102
}
100
AcDbPlotSettings
  1

  2
none_device
  4

  6

 40
0.0
 41
0.0
 42
0.0
 43
0.0
 44
134.874
 45
298.0
 46
0.0
 47
0.0
 48
0.0
 49
0.0
140
0.0
141
0.0
142
1.0
143
1.0
 70
0
 72
1
 73
0
 74
0
  7

 75
0
147
1.0
148
0.0
149
0.0
100
AcDbLayout
  1
Layout1
 70
0
 71
1
 10
0.0
 20
0.0
 11
134.874
 21
298.0
 12
0.0
 22
0.0
 32
0.0
 14
0.0
 24
0.0
 34
0.0
 15
0.0
 25
0.0
 35
0.0
146
0.0
 13
0.0
 23
0.0
 33
0.0
 16
1.0
 26
0.0
 36
0.0
 17
0.0
 27
1.0
 37
0.0
 76
0
330
214
345
0
346
0
  0
ENDSEC
  0
EOF
