999
DXF file: d:\tmp\workingDir\0000062575\te_680_3d_fd_q06_01.dxf
999
Pro/ENGINEER 2016380 by Parametric Technology Corporation
  0
SECTION
  2
HEADER
  9
$ACADVER
  1
AC1014
  9
$DWGCODEPAGE
  3
ANSI_1252
  9
$EXTMAX
 10
199.898
 20
200.0
 30
0.0
  9
$EXTMIN
 10
0.0
 20
0.0
 30
0.0
  9
$LIMMIN
 10
0.0
 20
0.0
  9
$LIMMAX
 10
199.898
 20
200.0
  9
$VIEWCTR
 10
99.949
 20
100.0
  9
$VIEWSIZE
 40
200.0
  9
$CLAYER
  8
0
  9
$LTSCALE
 40
13.037037037
  9
$CELTYPE
  6
BYLAYER
  9
$DIMSCALE
 40
1.0
  9
$DIMASZ
 40
3.5
  9
$DIMEXO
 40
0.0
  9
$DIMDLI
 40
9.0074074074
  9
$DIMEXE
 40
2.0
  9
$DIMCEN
 40
2.1333333333
  9
$DIMLFAC
 40
1.0
  9
$DIMBLK
  1
_ARROW_FILLED
  9
$DIMALT
 70
0
  9
$DIMALTF
 40
25.4
  9
$DIMTXT
 40
3.5
  9
$DIMTOL
 70
1
  9
$DIMLIM
 70
0
  9
$DIMTFAC
 40
1.0
  9
$DIMTP
 40
0.01
  9
$DIMTM
 40
0.01
  9
$DIMGAP
 40
0.625
  9
$AUNITS
 70
0
  9
$PDMODE
 70
0
  9
$PDSIZE
 40
0.04
  9
$HANDSEED
  5
424
  9
$TILEMODE
 70
1
  9
$MEASUREMENT
 70
1
  0
ENDSEC
  0
SECTION
  2
CLASSES
  0
ENDSEC
  0
SECTION
  2
TABLES
  0
TABLE
  2
VPORT
  5
8
100
AcDbSymbolTable
 70
2
  0
VPORT
  5
1F4
100
AcDbSymbolTableRecord
100
AcDbViewportTableRecord
  2
*ACTIVE
 70
0
 10
0.0
 20
0.0
 11
1.0
 21
1.0
 12
99.949
 22
100.0
 13
0.0
 23
0.0
 14
1.0
 24
1.0
 15
0.0
 25
0.0
 16
0.0
 26
0.0
 36
1.0
 17
0.0
 27
0.0
 37
0.0
 40
200.0
 41
0.99949
 42
50.0
 43
0.0
 44
0.0
 50
0.0
 51
0.0
 71
0
 72
100
 73
1
 74
1
 75
0
 76
0
 77
0
 78
0
  0
ENDTAB
  0
TABLE
  2
LTYPE
  5
5
100
AcDbSymbolTable
 70
6
  0
LTYPE
  5
14
100
AcDbSymbolTableRecord
100
AcDbLinetypeTableRecord
  2
BYBLOCK
 70
0
  3

 72
65
 73
0
 40
0.0
  0
LTYPE
  5
15
100
AcDbSymbolTableRecord
100
AcDbLinetypeTableRecord
  2
BYLAYER
 70
0
  3

 72
65
 73
0
 40
0.0
  0
LTYPE
  5
16
100
AcDbSymbolTableRecord
100
AcDbLinetypeTableRecord
  2
CONTINUOUS
 70
64
  3
Solid line
 72
65
 73
0
 40
0.0
  0
LTYPE
  5
1F5
100
AcDbSymbolTableRecord
100
AcDbLinetypeTableRecord
  2
CENTER
 70
64
  3
____ _ ____ _ ____ _ ____ _ ____ _ ____ _ ____
 72
65
 73
4
 40
0.6
 49
0.375
 74
0
 49
-0.075
 74
0
 49
0.075
 74
0
 49
-0.075
 74
0
  0
LTYPE
  5
1F6
100
AcDbSymbolTableRecord
100
AcDbLinetypeTableRecord
  2
HIDDEN
 70
64
  3
- - - - - - - - - - - - - - - - - - - -
 72
65
 73
2
 40
0.2
 49
0.1
 74
0
 49
-0.1
 74
0
  0
LTYPE
  5
1F7
100
AcDbSymbolTableRecord
100
AcDbLinetypeTableRecord
  2
PHANTOM
 70
64
  3
_____ _ _ _____ _ _ _____ _ _ _____
 72
65
 73
6
 40
0.8
 49
0.45
 74
0
 49
-0.05
 74
0
 49
0.1
 74
0
 49
-0.05
 74
0
 49
0.1
 74
0
 49
-0.05
 74
0
  0
LTYPE
  5
1F8
100
AcDbSymbolTableRecord
100
AcDbLinetypeTableRecord
  2
DOT
 70
64
  3
. . . . . . . . . . . . . . . . . . . .
 72
65
 73
2
 40
0.2
 49
0.1
 74
0
 49
-0.1
 74
0
  0
LTYPE
  5
1F9
100
AcDbSymbolTableRecord
100
AcDbLinetypeTableRecord
  2
DASHED
 70
64
  3
- - - - - - - - - - - - - - - - - - - -
 72
65
 73
2
 40
0.2
 49
0.1
 74
0
 49
-0.1
 74
0
  0
ENDTAB
  0
TABLE
  2
LAYER
  5
2
100
AcDbSymbolTable
 70
36
  0
LAYER
  5
10
100
AcDbSymbolTableRecord
100
AcDbLayerTableRecord
  2
0
 70
0
 62
7
  6
CONTINUOUS
  0
LAYER
  5
1FA
100
AcDbSymbolTableRecord
100
AcDbLayerTableRecord
  2
DEFAULT_1
 70
0
 62
7
  6
CENTER
  0
LAYER
  5
1FB
100
AcDbSymbolTableRecord
100
AcDbLayerTableRecord
  2
DEFAULT_2
 70
0
 62
8
  6
HIDDEN
  0
LAYER
  5
1FC
100
AcDbSymbolTableRecord
100
AcDbLayerTableRecord
  2
DEFAULT_3
 70
0
 62
7
  6
PHANTOM
  0
LAYER
  5
1FD
100
AcDbSymbolTableRecord
100
AcDbLayerTableRecord
  2
A_ACHSEN
 70
0
 62
7
  6
CONTINUOUS
  0
LAYER
  5
1FE
100
AcDbSymbolTableRecord
100
AcDbLayerTableRecord
  2
A_BASISEBENEN
 70
0
 62
7
  6
CONTINUOUS
  0
LAYER
  5
1FF
100
AcDbSymbolTableRecord
100
AcDbLayerTableRecord
  2
A_BEMASSUNGEN
 70
0
 62
7
  6
CONTINUOUS
  0
LAYER
  5
200
100
AcDbSymbolTableRecord
100
AcDbLayerTableRecord
  2
A_BOHRUNGEN
 70
0
 62
7
  6
CONTINUOUS
  0
LAYER
  5
201
100
AcDbSymbolTableRecord
100
AcDbLayerTableRecord
  2
A_EBENEN
 70
0
 62
7
  6
CONTINUOUS
  0
LAYER
  5
202
100
AcDbSymbolTableRecord
100
AcDbLayerTableRecord
  2
A_FASEN
 70
0
 62
7
  6
CONTINUOUS
  0
LAYER
  5
203
100
AcDbSymbolTableRecord
100
AcDbLayerTableRecord
  2
A_FLAECHEN
 70
0
 62
7
  6
CONTINUOUS
  0
LAYER
  5
204
100
AcDbSymbolTableRecord
100
AcDbLayerTableRecord
  2
A_FL_VERBAENDE
 70
0
 62
7
  6
CONTINUOUS
  0
LAYER
  5
205
100
AcDbSymbolTableRecord
100
AcDbLayerTableRecord
  2
A_KURVEN
 70
0
 62
7
  6
CONTINUOUS
  0
LAYER
  5
206
100
AcDbSymbolTableRecord
100
AcDbLayerTableRecord
  2
A_NOTIZEN_SYMB
 70
0
 62
7
  6
CONTINUOUS
  0
LAYER
  5
207
100
AcDbSymbolTableRecord
100
AcDbLayerTableRecord
  2
A_PUNKTE
 70
0
 62
7
  6
CONTINUOUS
  0
LAYER
  5
208
100
AcDbSymbolTableRecord
100
AcDbLayerTableRecord
  2
A_RUNDUNGEN
 70
0
 62
7
  6
CONTINUOUS
  0
LAYER
  5
209
100
AcDbSymbolTableRecord
100
AcDbLayerTableRecord
  2
BASISEBENEN
 70
0
 62
7
  6
CONTINUOUS
  0
LAYER
  5
20A
100
AcDbSymbolTableRecord
100
AcDbLayerTableRecord
  2
GRUNDEBENE
 70
0
 62
7
  6
CONTINUOUS
  0
LAYER
  5
20B
100
AcDbSymbolTableRecord
100
AcDbLayerTableRecord
  2
IMPORT
 70
0
 62
7
  6
CONTINUOUS
  0
LAYER
  5
20C
100
AcDbSymbolTableRecord
100
AcDbLayerTableRecord
  2
IMPORT_KE
 70
0
 62
7
  6
CONTINUOUS
  0
LAYER
  5
20D
100
AcDbSymbolTableRecord
100
AcDbLayerTableRecord
  2
INTFCLR_3
 70
0
 62
7
  6
CONTINUOUS
  0
LAYER
  5
20E
100
AcDbSymbolTableRecord
100
AcDbLayerTableRecord
  2
INTF_1
 70
0
 62
7
  6
CONTINUOUS
  0
LAYER
  5
20F
100
AcDbSymbolTableRecord
100
AcDbLayerTableRecord
  2
INTF_2
 70
0
 62
7
  6
CONTINUOUS
  0
LAYER
  5
210
100
AcDbSymbolTableRecord
100
AcDbLayerTableRecord
  2
INTF_3
 70
0
 62
7
  6
CONTINUOUS
  0
LAYER
  5
211
100
AcDbSymbolTableRecord
100
AcDbLayerTableRecord
  2
INTF_4
 70
0
 62
7
  6
CONTINUOUS
  0
LAYER
  5
212
100
AcDbSymbolTableRecord
100
AcDbLayerTableRecord
  2
INTF_MAGENTA
 70
0
 62
7
  6
CONTINUOUS
  0
LAYER
  5
213
100
AcDbSymbolTableRecord
100
AcDbLayerTableRecord
  2
INTF_YELLOW
 70
0
 62
7
  6
CONTINUOUS
  0
LAYER
  5
214
100
AcDbSymbolTableRecord
100
AcDbLayerTableRecord
  2
PROFIL
 70
0
 62
7
  6
CONTINUOUS
  0
LAYER
  5
215
100
AcDbSymbolTableRecord
100
AcDbLayerTableRecord
  2
QUER1
 70
0
 62
7
  6
CONTINUOUS
  0
LAYER
  5
216
100
AcDbSymbolTableRecord
100
AcDbLayerTableRecord
  2
QUER2
 70
0
 62
7
  6
CONTINUOUS
  0
LAYER
  5
217
100
AcDbSymbolTableRecord
100
AcDbLayerTableRecord
  2
QUER3
 70
0
 62
7
  6
CONTINUOUS
  0
LAYER
  5
218
100
AcDbSymbolTableRecord
100
AcDbLayerTableRecord
  2
SCHRAFFUR
 70
0
 62
7
  6
CONTINUOUS
  0
ENDTAB
  0
TABLE
  2
STYLE
  5
3
100
AcDbSymbolTable
 70
1
  0
STYLE
  5
11
100
AcDbSymbolTableRecord
100
AcDbTextStyleTableRecord
  2
STANDARD
 70
0
 40
0.0
 41
1.0
 50
0.0
 71
0
 42
0.2
  3
txt
  4

  0
STYLE
  5
219
100
AcDbSymbolTableRecord
100
AcDbTextStyleTableRecord
  2
TEXTSTYLE_1
 70
0
 40
0.0
 41
0.8
 50
0.0
 71
0
 42
0.2
  3
gdt
  4

  0
STYLE
  5
21A
100
AcDbSymbolTableRecord
100
AcDbTextStyleTableRecord
  2
TEXTSTYLE_2
 70
0
 40
0.0
 41
1.0
 50
0.0
 71
0
 42
0.2
  3
txt
  4

  0
ENDTAB
  0
TABLE
  2
VIEW
  5
6
100
AcDbSymbolTable
 70
0
  0
ENDTAB
  0
TABLE
  2
UCS
  5
7
100
AcDbSymbolTable
 70
0
  0
ENDTAB
  0
TABLE
  2
APPID
  5
9
100
AcDbSymbolTable
 70
1
  0
APPID
  5
21B
100
AcDbSymbolTableRecord
100
AcDbRegAppTableRecord
  2
ACAD
 70
0
  0
ENDTAB
  0
TABLE
  2
BLOCK_RECORD
  5
1
100
AcDbSymbolTable
 70
0
  0
BLOCK_RECORD
  5
1F
100
AcDbSymbolTableRecord
100
AcDbBlockTableRecord
  2
*MODEL_SPACE
  0
BLOCK_RECORD
  5
1B
100
AcDbSymbolTableRecord
100
AcDbBlockTableRecord
  2
*PAPER_SPACE
  0
BLOCK_RECORD
  5
21C
100
AcDbSymbolTableRecord
100
AcDbBlockTableRecord
  2
_ARROW_FILLED
  0
BLOCK_RECORD
  5
21D
100
AcDbSymbolTableRecord
100
AcDbBlockTableRecord
  2
*D0
  0
BLOCK_RECORD
  5
21E
100
AcDbSymbolTableRecord
100
AcDbBlockTableRecord
  2
*D1
  0
BLOCK_RECORD
  5
21F
100
AcDbSymbolTableRecord
100
AcDbBlockTableRecord
  2
*D2
  0
BLOCK_RECORD
  5
220
100
AcDbSymbolTableRecord
100
AcDbBlockTableRecord
  2
*D3
  0
BLOCK_RECORD
  5
221
100
AcDbSymbolTableRecord
100
AcDbBlockTableRecord
  2
*D4
  0
BLOCK_RECORD
  5
222
100
AcDbSymbolTableRecord
100
AcDbBlockTableRecord
  2
*D5
  0
BLOCK_RECORD
  5
223
100
AcDbSymbolTableRecord
100
AcDbBlockTableRecord
  2
*D6
  0
BLOCK_RECORD
  5
224
100
AcDbSymbolTableRecord
100
AcDbBlockTableRecord
  2
*D7
  0
BLOCK_RECORD
  5
225
100
AcDbSymbolTableRecord
100
AcDbBlockTableRecord
  2
*D8
  0
BLOCK_RECORD
  5
226
100
AcDbSymbolTableRecord
100
AcDbBlockTableRecord
  2
*D9
  0
ENDTAB
  0
TABLE
  2
DIMSTYLE
  5
A
100
AcDbSymbolTable
 70
1
  0
DIMSTYLE
105
227
100
AcDbSymbolTableRecord
100
AcDbDimStyleTableRecord
  2
STANDARD
 70
0
  3

  4

  5
_ARROW_FILLED
  6
_ARROW_FILLED
  7
_ARROW_FILLED
 40
1.0
 41
3.5
 42
0.0
 43
0.38
 44
2.0
 45
0.0
 46
0.0
 47
0.01
 48
0.01
140
3.5
141
0.09
142
0.0
143
25.4
144
1.0
145
0.0
146
1.0
147
0.625
 71
1.0
 72
0.0
 73
0
 74
0
 75
0
 76
0
 77
1
 78
8
170
0
171
1
172
0
173
0
174
0
175
0
176
0
177
0
178
5
270
2
271
2
272
2
273
2
274
2
275
0
280
0
281
0
282
0
283
1
284
8
285
0
286
0
287
3
288
0
340
11
  0
DIMSTYLE
105
228
100
AcDbSymbolTableRecord
100
AcDbDimStyleTableRecord
  2
DIMSTYLE_1
 70
0
  3

  4

  5
_ARROW_FILLED
  6
_ARROW_FILLED
  7
_ARROW_FILLED
 40
1.0
 41
3.5
 42
0.0
 43
0.38
 44
2.0
 45
0.0
 46
0.0
 47
0.1
 48
0.1
140
3.5
141
0.09
142
0.0
143
25.4
144
1.0
145
0.0
146
1.0
147
0.875
 71
0.0
 72
0.0
 73
0
 74
0
 75
0
 76
0
 77
1
 78
8
170
0
171
1
172
0
173
0
174
0
175
0
176
0
177
0
178
5
270
2
271
4
272
-1
273
2
274
2
275
0
280
0
281
0
282
0
283
1
284
8
285
0
286
0
287
3
288
0
340
21A
  0
DIMSTYLE
105
229
100
AcDbSymbolTableRecord
100
AcDbDimStyleTableRecord
  2
DIMSTYLE_2
 70
0
  3

  4

  5
_ARROW_FILLED
  6
_ARROW_FILLED
  7
_ARROW_FILLED
 40
1.0
 41
3.5
 42
0.0
 43
0.38
 44
2.0
 45
0.0
 46
0.0
 47
0.3
 48
0.3
140
3.5
141
0.09
142
0.0
143
25.4
144
1.0
145
0.0
146
1.0
147
0.875
 71
0.0
 72
0.0
 73
0
 74
0
 75
0
 76
0
 77
1
 78
8
170
0
171
1
172
0
173
0
174
0
175
0
176
0
177
0
178
5
270
2
271
4
272
-1
273
2
274
2
275
0
280
0
281
0
282
0
283
1
284
8
285
0
286
0
287
3
288
0
340
21A
  0
DIMSTYLE
105
22A
100
AcDbSymbolTableRecord
100
AcDbDimStyleTableRecord
  2
DIMSTYLE_3
 70
0
  3

  4

  5
_ARROW_FILLED
  6
_ARROW_FILLED
  7
_ARROW_FILLED
 40
1.0
 41
3.5
 42
0.0
 43
0.38
 44
2.0
 45
0.0
 46
0.0
 47
0.1
 48
0.1
140
3.5
141
0.09
142
0.0
143
25.4
144
1.0
145
0.0
146
1.0
147
0.875
 71
0.0
 72
0.0
 73
0
 74
0
 75
0
 76
0
 77
1
 78
8
170
0
171
1
172
0
173
0
174
0
175
0
176
0
177
0
178
5
270
2
271
2
272
-1
273
2
274
2
275
0
280
0
281
0
282
0
283
1
284
8
285
0
286
0
287
3
288
0
340
21A
  0
DIMSTYLE
105
22B
100
AcDbSymbolTableRecord
100
AcDbDimStyleTableRecord
  2
DIMSTYLE_4
 70
0
  3

  4

  5
_ARROW_FILLED
  6
_ARROW_FILLED
  7
_ARROW_FILLED
 40
1.0
 41
3.5
 42
0.0
 43
0.38
 44
2.0
 45
0.0
 46
0.0
 47
0.2
 48
0.2
140
3.5
141
0.09
142
0.0
143
25.4
144
1.0
145
0.0
146
1.0
147
0.875
 71
0.0
 72
0.0
 73
0
 74
0
 75
0
 76
0
 77
1
 78
8
170
0
171
1
172
0
173
0
174
0
175
0
176
0
177
0
178
5
270
2
271
4
272
-1
273
2
274
2
275
0
280
0
281
0
282
0
283
1
284
8
285
0
286
0
287
3
288
0
340
21A
  0
DIMSTYLE
105
22C
100
AcDbSymbolTableRecord
100
AcDbDimStyleTableRecord
  2
DIMSTYLE_5
 70
0
  3

  4

  5
_ARROW_FILLED
  6
_ARROW_FILLED
  7
_ARROW_FILLED
 40
1.0
 41
3.5
 42
0.0
 43
0.38
 44
2.0
 45
0.0
 46
0.0
 47
0.1
 48
0.1
140
3.5
141
0.09
142
0.0
143
25.4
144
1.0
145
0.0
146
1.0
147
0.875
 71
0.0
 72
0.0
 73
0
 74
0
 75
0
 76
0
 77
1
 78
8
170
0
171
1
172
0
173
0
174
0
175
0
176
0
177
0
178
5
270
2
271
1
272
-1
273
2
274
2
275
0
280
0
281
0
282
0
283
1
284
8
285
0
286
0
287
3
288
0
340
21A
  0
DIMSTYLE
105
22D
100
AcDbSymbolTableRecord
100
AcDbDimStyleTableRecord
  2
DIMSTYLE_6
 70
0
  3

  4

  5
_ARROW_FILLED
  6
_ARROW_FILLED
  7
_ARROW_FILLED
 40
1.0
 41
3.5
 42
0.0
 43
0.38
 44
2.0
 45
0.0
 46
0.0
 47
0.2
 48
0.2
140
3.5
141
0.09
142
0.0
143
25.4
144
1.0
145
0.0
146
1.0
147
0.875
 71
0.0
 72
0.0
 73
0
 74
0
 75
0
 76
0
 77
1
 78
8
170
0
171
1
172
0
173
0
174
0
175
0
176
0
177
0
178
5
270
2
271
3
272
-1
273
2
274
2
275
0
280
0
281
0
282
0
283
1
284
8
285
0
286
0
287
3
288
0
340
21A
  0
ENDTAB
  0
ENDSEC
  0
SECTION
  2
BLOCKS
  0
BLOCK
  5
20
100
AcDbEntity
  8
0
100
AcDbBlockBegin
  2
*MODEL_SPACE
 70
0
 10
0.0
 20
0.0
 30
0.0
  3
*MODEL_SPACE
  1

  0
ENDBLK
  5
21
100
AcDbEntity
  8
0
100
AcDbBlockEnd
  0
BLOCK
  5
1C
100
AcDbEntity
  8
0
100
AcDbBlockBegin
  2
*PAPER_SPACE
 70
0
 10
0.0
 20
0.0
 30
0.0
  3
*PAPER_SPACE
  1

  0
ENDBLK
  5
1D
100
AcDbEntity
  8
0
100
AcDbBlockEnd
  0
BLOCK
  5
22E
100
AcDbEntity
  8
0
100
AcDbBlockBegin
  2
_ARROW_FILLED
 70
64
 10
0.0
 20
0.0
  3
_ARROW_FILLED
  1

  0
SOLID
  5
22F
100
AcDbEntity
  8
0
  6
BYBLOCK
 62
0
100
AcDbTrace
 10
0.0
 20
0.0
 11
-1.0
 21
0.1428571429
 12
-1.0
 22
-0.1428571429
 13
-1.0
 23
-0.1428571429
  0
ENDBLK
  5
230
100
AcDbEntity
  8
0
  6
BYBLOCK
 62
0
100
AcDbBlockEnd
  0
BLOCK
  5
231
100
AcDbEntity
  8
A_BEMASSUNGEN
100
AcDbBlockBegin
 62
2
  6
CONTINUOUS
  2
*D0
 70
65
 10
0.0
 20
0.0
  3
*D0
  1

  0
MTEXT
  5
232
100
AcDbEntity
  8
A_BEMASSUNGEN
100
AcDbMText
 62
5
  6
CONTINUOUS
  7
TEXTSTYLE_2
 71
3
 72
1
 10
179.4332370084
 20
51.0336710083
 30
0.0
 11
0.0
 21
1.0
 31
0.0
  1
5
 40
3.5
 41
3.75
  0
LINE
  5
233
100
AcDbEntity
  8
A_BEMASSUNGEN
100
AcDbLine
 62
2
  6
CONTINUOUS
 10
166.7154154807
 20
56.6756177765
 11
185.808531266
 21
56.6746218021
  0
LINE
  5
234
100
AcDbEntity
  8
A_BEMASSUNGEN
100
AcDbLine
 62
2
  6
CONTINUOUS
 10
100.7156763908
 20
61.6790605975
 11
185.8087920863
 21
61.6746217953
  0
LINE
  5
235
100
AcDbEntity
  8
A_BEMASSUNGEN
100
AcDbLine
 62
2
  6
CONTINUOUS
 10
183.8085312687
 20
56.6747261302
 11
183.8082370084
 21
48.5336710083
  0
LINE
  5
236
100
AcDbEntity
  8
A_BEMASSUNGEN
100
AcDbLine
 62
2
  6
CONTINUOUS
 10
183.8082370084
 20
48.5336710083
 11
183.8086616789
 21
59.1747261268
  0
LINE
  5
237
100
AcDbEntity
  8
A_BEMASSUNGEN
100
AcDbLine
 62
2
  6
CONTINUOUS
 10
183.808792089
 20
61.6747261234
 11
183.8091833195
 21
69.1747261132
  0
LINE
  5
238
100
AcDbEntity
  8
A_BEMASSUNGEN
100
AcDbLine
 62
2
  6
CONTINUOUS
 10
183.8091833195
 20
69.1747261132
 11
183.8086616789
 21
59.1747261268
  0
INSERT
  5
239
100
AcDbEntity
  8
A_BEMASSUNGEN
100
AcDbBlockReference
 62
2
  6
CONTINUOUS
  2
_ARROW_FILLED
 10
183.8085312687
 20
56.6747261302
 41
3.5
 42
3.5
 43
3.5
 50
89.9979290308
  0
INSERT
  5
23A
100
AcDbEntity
  8
A_BEMASSUNGEN
100
AcDbBlockReference
 62
2
  6
CONTINUOUS
  2
_ARROW_FILLED
 10
183.808792089
 20
61.6747261234
 41
3.5
 42
3.5
 43
3.5
 50
269.9970112197
  0
ENDBLK
  5
23B
100
AcDbEntity
  8
0
  6
BYBLOCK
 62
0
100
AcDbBlockEnd
  0
BLOCK
  5
23C
100
AcDbEntity
  8
A_BEMASSUNGEN
100
AcDbBlockBegin
 62
2
  6
CONTINUOUS
  2
*D1
 70
65
 10
0.0
 20
0.0
  3
*D1
  1

  0
MTEXT
  5
23D
100
AcDbEntity
  8
A_BEMASSUNGEN
100
AcDbMText
 62
5
  6
CONTINUOUS
  7
TEXTSTYLE_2
 71
2
 72
1
 10
179.4332369435
 20
82.0247261801
 30
0.0
 11
0.0
 21
1.0
 31
0.0
  1
40.7
 40
3.5
 41
15.375
  0
LINE
  5
23E
100
AcDbEntity
  8
A_BEMASSUNGEN
100
AcDbLine
 62
2
  6
CONTINUOUS
 10
100.7156763908
 20
61.6790605975
 11
185.8071754022
 21
61.6746218797
  0
LINE
  5
23F
100
AcDbEntity
  8
A_BEMASSUNGEN
100
AcDbLine
 62
2
  6
CONTINUOUS
 10
100.7177994679
 20
102.3790605421
 11
185.8092984793
 21
102.3746218243
  0
LINE
  5
240
100
AcDbEntity
  8
A_BEMASSUNGEN
100
AcDbLine
 62
2
  6
CONTINUOUS
 10
183.8071754049
 20
61.6747262078
 11
183.8082369435
 21
82.0247261801
  0
LINE
  5
241
100
AcDbEntity
  8
A_BEMASSUNGEN
100
AcDbLine
 62
2
  6
CONTINUOUS
 10
183.809298482
 20
102.3747261524
 11
183.8082369435
 21
82.0247261801
  0
INSERT
  5
242
100
AcDbEntity
  8
A_BEMASSUNGEN
100
AcDbBlockReference
 62
2
  6
CONTINUOUS
  2
_ARROW_FILLED
 10
183.8071754049
 20
61.6747262078
 41
3.5
 42
3.5
 43
3.5
 50
269.9970112197
  0
INSERT
  5
243
100
AcDbEntity
  8
A_BEMASSUNGEN
100
AcDbBlockReference
 62
2
  6
CONTINUOUS
  2
_ARROW_FILLED
 10
183.809298482
 20
102.3747261524
 41
3.5
 42
3.5
 43
3.5
 50
89.9970112197
  0
ENDBLK
  5
244
100
AcDbEntity
  8
0
  6
BYBLOCK
 62
0
100
AcDbBlockEnd
  0
BLOCK
  5
245
100
AcDbEntity
  8
A_BEMASSUNGEN
100
AcDbBlockBegin
 62
2
  6
CONTINUOUS
  2
*D2
 70
65
 10
0.0
 20
0.0
  3
*D2
  1

  0
MTEXT
  5
246
100
AcDbEntity
  8
A_BEMASSUNGEN
100
AcDbMText
 62
5
  6
CONTINUOUS
  7
TEXTSTYLE_2
 71
3
 72
1
 10
48.9637642076
 20
73.5926940833
 30
0.0
 11
0.0
 21
1.0
 31
0.0
  1
6
 40
3.5
 41
4.125
  0
LINE
  5
247
100
AcDbEntity
  8
A_BEMASSUNGEN
100
AcDbLine
 62
2
  6
CONTINUOUS
 10
65.2164588999
 20
76.6809124011
 11
51.3387642076
 21
76.6809124011
  0
LINE
  5
248
100
AcDbEntity
  8
A_BEMASSUNGEN
100
AcDbLine
 62
2
  6
CONTINUOUS
 10
53.3387642076
 20
82.6807298397
 11
53.3387642076
 21
90.1807298397
  0
LINE
  5
249
100
AcDbEntity
  8
A_BEMASSUNGEN
100
AcDbLine
 62
2
  6
CONTINUOUS
 10
53.3387642076
 20
90.1807298397
 11
53.3387642076
 21
79.6808211204
  0
LINE
  5
24A
100
AcDbEntity
  8
A_BEMASSUNGEN
100
AcDbLine
 62
2
  6
CONTINUOUS
 10
53.3387642076
 20
76.6809124011
 11
53.3387642076
 21
70.8426940833
  0
LINE
  5
24B
100
AcDbEntity
  8
A_BEMASSUNGEN
100
AcDbLine
 62
2
  6
CONTINUOUS
 10
53.3387642076
 20
70.8426940833
 11
53.3387642076
 21
79.6808211204
  0
INSERT
  5
24C
100
AcDbEntity
  8
A_BEMASSUNGEN
100
AcDbBlockReference
 62
2
  6
CONTINUOUS
  2
_ARROW_FILLED
 10
53.3387642076
 20
82.6807298397
 41
3.5
 42
3.5
 43
3.5
 50
270.0
  0
INSERT
  5
24D
100
AcDbEntity
  8
A_BEMASSUNGEN
100
AcDbBlockReference
 62
2
  6
CONTINUOUS
  2
_ARROW_FILLED
 10
53.3387642076
 20
76.6809124011
 41
3.5
 42
3.5
 43
3.5
 50
90.0
  0
ENDBLK
  5
24E
100
AcDbEntity
  8
0
  6
BYBLOCK
 62
0
100
AcDbBlockEnd
  0
BLOCK
  5
24F
100
AcDbEntity
  8
A_BEMASSUNGEN
100
AcDbBlockBegin
 62
2
  6
CONTINUOUS
  2
*D3
 70
65
 10
0.0
 20
0.0
  3
*D3
  1

  0
MTEXT
  5
250
100
AcDbEntity
  8
A_BEMASSUNGEN
100
AcDbMText
 62
5
  6
CONTINUOUS
  7
TEXTSTYLE_2
 71
3
 72
1
 10
5.1371186023
 20
76.5556878397
 30
0.0
 11
0.0
 21
1.0
 31
0.0
  1
6
 40
3.5
 41
4.125
  0
LINE
  5
251
100
AcDbEntity
  8
A_BEMASSUNGEN
100
AcDbLine
 62
2
  6
CONTINUOUS
 10
18.215968553
 20
82.6807298397
 11
7.5121186023
 21
82.6807298397
  0
LINE
  5
252
100
AcDbEntity
  8
A_BEMASSUNGEN
100
AcDbLine
 62
2
  6
CONTINUOUS
 10
43.215968553
 20
88.6807298397
 11
7.5121186023
 21
88.6807298397
  0
LINE
  5
253
100
AcDbEntity
  8
A_BEMASSUNGEN
100
AcDbLine
 62
2
  6
CONTINUOUS
 10
9.5121186023
 20
82.6807298397
 11
9.5121186023
 21
73.8056878397
  0
LINE
  5
254
100
AcDbEntity
  8
A_BEMASSUNGEN
100
AcDbLine
 62
2
  6
CONTINUOUS
 10
9.5121186023
 20
73.8056878397
 11
9.5121186023
 21
85.6807298397
  0
LINE
  5
255
100
AcDbEntity
  8
A_BEMASSUNGEN
100
AcDbLine
 62
2
  6
CONTINUOUS
 10
9.5121186023
 20
88.6807298397
 11
9.5121186023
 21
96.1807298397
  0
LINE
  5
256
100
AcDbEntity
  8
A_BEMASSUNGEN
100
AcDbLine
 62
2
  6
CONTINUOUS
 10
9.5121186023
 20
96.1807298397
 11
9.5121186023
 21
85.6807298397
  0
INSERT
  5
257
100
AcDbEntity
  8
A_BEMASSUNGEN
100
AcDbBlockReference
 62
2
  6
CONTINUOUS
  2
_ARROW_FILLED
 10
9.5121186023
 20
82.6807298397
 41
3.5
 42
3.5
 43
3.5
 50
90.0
  0
INSERT
  5
258
100
AcDbEntity
  8
A_BEMASSUNGEN
100
AcDbBlockReference
 62
2
  6
CONTINUOUS
  2
_ARROW_FILLED
 10
9.5121186023
 20
88.6807298397
 41
3.5
 42
3.5
 43
3.5
 50
270.0
  0
ENDBLK
  5
259
100
AcDbEntity
  8
0
  6
BYBLOCK
 62
0
100
AcDbBlockEnd
  0
BLOCK
  5
25A
100
AcDbEntity
  8
A_BEMASSUNGEN
100
AcDbBlockBegin
 62
2
  6
CONTINUOUS
  2
*D4
 70
65
 10
0.0
 20
0.0
  3
*D4
  1

  0
MTEXT
  5
25B
100
AcDbEntity
  8
A_BEMASSUNGEN
100
AcDbMText
 62
5
  6
CONTINUOUS
  7
TEXTSTYLE_2
 71
2
 72
1
 10
5.1371186023
 20
103.6807298397
 30
0.0
 11
0.0
 21
1.0
 31
0.0
  1
30
 40
3.5
 41
7.875
  0
LINE
  5
25C
100
AcDbEntity
  8
A_BEMASSUNGEN
100
AcDbLine
 62
2
  6
CONTINUOUS
 10
43.215968553
 20
88.6807298397
 11
7.5121186023
 21
88.6807298397
  0
LINE
  5
25D
100
AcDbEntity
  8
A_BEMASSUNGEN
100
AcDbLine
 62
2
  6
CONTINUOUS
 10
43.215968553
 20
118.6807298397
 11
7.5121186023
 21
118.6807298397
  0
LINE
  5
25E
100
AcDbEntity
  8
A_BEMASSUNGEN
100
AcDbLine
 62
2
  6
CONTINUOUS
 10
9.5121186023
 20
88.6807298397
 11
9.5121186023
 21
103.6807298397
  0
LINE
  5
25F
100
AcDbEntity
  8
A_BEMASSUNGEN
100
AcDbLine
 62
2
  6
CONTINUOUS
 10
9.5121186023
 20
118.6807298397
 11
9.5121186023
 21
103.6807298397
  0
INSERT
  5
260
100
AcDbEntity
  8
A_BEMASSUNGEN
100
AcDbBlockReference
 62
2
  6
CONTINUOUS
  2
_ARROW_FILLED
 10
9.5121186023
 20
88.6807298397
 41
3.5
 42
3.5
 43
3.5
 50
270.0
  0
INSERT
  5
261
100
AcDbEntity
  8
A_BEMASSUNGEN
100
AcDbBlockReference
 62
2
  6
CONTINUOUS
  2
_ARROW_FILLED
 10
9.5121186023
 20
118.6807298397
 41
3.5
 42
3.5
 43
3.5
 50
90.0
  0
ENDBLK
  5
262
100
AcDbEntity
  8
0
  6
BYBLOCK
 62
0
100
AcDbBlockEnd
  0
BLOCK
  5
263
100
AcDbEntity
  8
A_BEMASSUNGEN
100
AcDbBlockBegin
 62
2
  6
CONTINUOUS
  2
*D5
 70
65
 10
0.0
 20
0.0
  3
*D5
  1

  0
MTEXT
  5
264
100
AcDbEntity
  8
A_BEMASSUNGEN
100
AcDbMText
 62
5
  6
CONTINUOUS
  7
TEXTSTYLE_2
 71
1
 72
1
 10
87.3575560907
 20
172.2688188781
 30
0.0
 11
1.0
 21
0.0
 31
0.0
  1
5
 40
3.5
 41
3.75
  0
LINE
  5
265
100
AcDbEntity
  8
A_BEMASSUNGEN
100
AcDbLine
 62
2
  6
CONTINUOUS
 10
81.2181802921
 20
109.6800777313
 11
81.2213213018
 21
169.8941389718
  0
LINE
  5
266
100
AcDbEntity
  8
A_BEMASSUNGEN
100
AcDbLine
 62
2
  6
CONTINUOUS
 10
76.215968553
 20
118.0807298397
 11
76.2186713643
 21
169.8943999303
  0
LINE
  5
267
100
AcDbEntity
  8
A_BEMASSUNGEN
100
AcDbLine
 62
2
  6
CONTINUOUS
 10
81.2212169737
 20
167.8941389745
 11
89.8575560907
 21
167.8938188781
  0
LINE
  5
268
100
AcDbEntity
  8
A_BEMASSUNGEN
100
AcDbLine
 62
2
  6
CONTINUOUS
 10
89.8575560907
 20
167.8938188781
 11
78.7198920049
 21
167.8942694537
  0
LINE
  5
269
100
AcDbEntity
  8
A_BEMASSUNGEN
100
AcDbLine
 62
2
  6
CONTINUOUS
 10
76.2185670362
 20
167.894399933
 11
68.7185670464
 21
167.8947911634
  0
LINE
  5
26A
100
AcDbEntity
  8
A_BEMASSUNGEN
100
AcDbLine
 62
2
  6
CONTINUOUS
 10
68.7185670464
 20
167.8947911634
 11
78.7198920049
 21
167.8942694537
  0
INSERT
  5
26B
100
AcDbEntity
  8
A_BEMASSUNGEN
100
AcDbBlockReference
 62
2
  6
CONTINUOUS
  2
_ARROW_FILLED
 10
81.2212169737
 20
167.8941389745
 41
3.5
 42
3.5
 43
3.5
 50
179.9978763954
  0
INSERT
  5
26C
100
AcDbEntity
  8
A_BEMASSUNGEN
100
AcDbBlockReference
 62
2
  6
CONTINUOUS
  2
_ARROW_FILLED
 10
76.2185670362
 20
167.894399933
 41
3.5
 42
3.5
 43
3.5
 50
359.9970112197
  0
ENDBLK
  5
26D
100
AcDbEntity
  8
0
  6
BYBLOCK
 62
0
100
AcDbBlockEnd
  0
BLOCK
  5
26E
100
AcDbEntity
  8
A_BEMASSUNGEN
100
AcDbBlockBegin
 62
2
  6
CONTINUOUS
  2
*D6
 70
65
 10
0.0
 20
0.0
  3
*D6
  1

  0
MTEXT
  5
26F
100
AcDbEntity
  8
A_BEMASSUNGEN
100
AcDbMText
 62
5
  6
CONTINUOUS
  7
TEXTSTYLE_2
 71
2
 72
1
 10
59.715968553
 20
172.2699288995
 30
0.0
 11
1.0
 21
0.0
 31
0.0
  1
33
 40
3.5
 41
7.5
  0
LINE
  5
270
100
AcDbEntity
  8
A_BEMASSUNGEN
100
AcDbLine
 62
2
  6
CONTINUOUS
 10
76.215968553
 20
118.0807298397
 11
76.215968553
 21
169.8949288995
  0
LINE
  5
271
100
AcDbEntity
  8
A_BEMASSUNGEN
100
AcDbLine
 62
2
  6
CONTINUOUS
 10
43.215968553
 20
118.6807298397
 11
43.215968553
 21
169.8949288995
  0
LINE
  5
272
100
AcDbEntity
  8
A_BEMASSUNGEN
100
AcDbLine
 62
2
  6
CONTINUOUS
 10
76.215968553
 20
167.8949288995
 11
59.715968553
 21
167.8949288995
  0
LINE
  5
273
100
AcDbEntity
  8
A_BEMASSUNGEN
100
AcDbLine
 62
2
  6
CONTINUOUS
 10
43.215968553
 20
167.8949288995
 11
59.715968553
 21
167.8949288995
  0
INSERT
  5
274
100
AcDbEntity
  8
A_BEMASSUNGEN
100
AcDbBlockReference
 62
2
  6
CONTINUOUS
  2
_ARROW_FILLED
 10
76.215968553
 20
167.8949288995
 41
3.5
 42
3.5
 43
3.5
  0
INSERT
  5
275
100
AcDbEntity
  8
A_BEMASSUNGEN
100
AcDbBlockReference
 62
2
  6
CONTINUOUS
  2
_ARROW_FILLED
 10
43.215968553
 20
167.8949288995
 41
3.5
 42
3.5
 43
3.5
 50
180.0
  0
ENDBLK
  5
276
100
AcDbEntity
  8
0
  6
BYBLOCK
 62
0
100
AcDbBlockEnd
  0
BLOCK
  5
277
100
AcDbEntity
  8
A_BEMASSUNGEN
100
AcDbBlockBegin
 62
2
  6
CONTINUOUS
  2
*D7
 70
65
 10
0.0
 20
0.0
  3
*D7
  1

  0
MTEXT
  5
278
100
AcDbEntity
  8
A_BEMASSUNGEN
100
AcDbMText
 62
5
  6
CONTINUOUS
  7
TEXTSTYLE_2
 71
2
 72
1
 10
72.2150924784
 20
54.8610361435
 30
0.0
 11
1.0
 21
0.0
 31
0.0
  1
18
 40
3.5
 41
7.125
  0
LINE
  5
279
100
AcDbEntity
  8
A_BEMASSUNGEN
100
AcDbLine
 62
2
  6
CONTINUOUS
 10
63.2156816582
 20
61.7810167495
 11
63.2149881626
 21
48.4865056227
  0
LINE
  5
27A
100
AcDbEntity
  8
A_BEMASSUNGEN
100
AcDbLine
 62
2
  6
CONTINUOUS
 10
81.2168292489
 20
83.7801920466
 11
81.2149881381
 21
48.4855666697
  0
LINE
  5
27B
100
AcDbEntity
  8
A_BEMASSUNGEN
100
AcDbLine
 62
2
  6
CONTINUOUS
 10
63.2150924907
 20
50.48650562
 11
72.2150924784
 21
50.4860361435
  0
LINE
  5
27C
100
AcDbEntity
  8
A_BEMASSUNGEN
100
AcDbLine
 62
2
  6
CONTINUOUS
 10
81.2150924662
 20
50.485566667
 11
72.2150924784
 21
50.4860361435
  0
INSERT
  5
27D
100
AcDbEntity
  8
A_BEMASSUNGEN
100
AcDbBlockReference
 62
2
  6
CONTINUOUS
  2
_ARROW_FILLED
 10
63.2150924907
 20
50.48650562
 41
3.5
 42
3.5
 43
3.5
 50
179.9970112197
  0
INSERT
  5
27E
100
AcDbEntity
  8
A_BEMASSUNGEN
100
AcDbBlockReference
 62
2
  6
CONTINUOUS
  2
_ARROW_FILLED
 10
81.2150924662
 20
50.485566667
 41
3.5
 42
3.5
 43
3.5
 50
359.9970112197
  0
ENDBLK
  5
27F
100
AcDbEntity
  8
0
  6
BYBLOCK
 62
0
100
AcDbBlockEnd
  0
BLOCK
  5
280
100
AcDbEntity
  8
A_BEMASSUNGEN
100
AcDbBlockBegin
 62
2
  6
CONTINUOUS
  2
*D8
 70
65
 10
0.0
 20
0.0
  3
*D8
  1

  0
MTEXT
  5
281
100
AcDbEntity
  8
A_BEMASSUNGEN
100
AcDbMText
 62
5
  6
CONTINUOUS
  7
TEXTSTYLE_2
 71
2
 72
1
 10
79.4652620079
 20
46.1548942107
 30
0.0
 11
1.0
 21
0.0
 31
0.0
  1
37.5
 40
3.5
 41
14.625
  0
LINE
  5
282
100
AcDbEntity
  8
A_BEMASSUNGEN
100
AcDbLine
 62
2
  6
CONTINUOUS
 10
63.2156816582
 20
61.7810167495
 11
63.2145340346
 21
39.7807419119
  0
LINE
  5
283
100
AcDbEntity
  8
A_BEMASSUNGEN
100
AcDbLine
 62
2
  6
CONTINUOUS
 10
100.7156763908
 20
61.6790605975
 11
100.7145339836
 21
39.7787857597
  0
LINE
  5
284
100
AcDbEntity
  8
A_BEMASSUNGEN
100
AcDbLine
 62
2
  6
CONTINUOUS
 10
63.2146383627
 20
41.7807419091
 11
81.9646383372
 21
41.7797638331
  0
LINE
  5
285
100
AcDbEntity
  8
A_BEMASSUNGEN
100
AcDbLine
 62
2
  6
CONTINUOUS
 10
100.7146383117
 20
41.778785757
 11
81.9646383372
 21
41.7797638331
  0
INSERT
  5
286
100
AcDbEntity
  8
A_BEMASSUNGEN
100
AcDbBlockReference
 62
2
  6
CONTINUOUS
  2
_ARROW_FILLED
 10
63.2146383627
 20
41.7807419091
 41
3.5
 42
3.5
 43
3.5
 50
179.9970112197
  0
INSERT
  5
287
100
AcDbEntity
  8
A_BEMASSUNGEN
100
AcDbBlockReference
 62
2
  6
CONTINUOUS
  2
_ARROW_FILLED
 10
100.7146383117
 20
41.778785757
 41
3.5
 42
3.5
 43
3.5
 50
359.9970112197
  0
ENDBLK
  5
288
100
AcDbEntity
  8
0
  6
BYBLOCK
 62
0
100
AcDbBlockEnd
  0
BLOCK
  5
289
100
AcDbEntity
  8
A_BEMASSUNGEN
100
AcDbBlockBegin
 62
2
  6
CONTINUOUS
  2
*D9
 70
65
 10
0.0
 20
0.0
  3
*D9
  1

  0
MTEXT
  5
28A
100
AcDbEntity
  8
A_BEMASSUNGEN
100
AcDbMText
 62
5
  6
CONTINUOUS
  7
TEXTSTYLE_2
 71
2
 72
1
 10
37.6543408644
 20
69.680795052
 30
0.0
 11
0.0
 21
1.0
 31
0.0
  1
26
 40
3.5
 41
8.25
  0
LINE
  5
28B
100
AcDbEntity
  8
A_BEMASSUNGEN
100
AcDbLine
 62
2
  6
CONTINUOUS
 10
66.2154156174
 20
56.6808602643
 11
40.0293408644
 21
56.6808602643
  0
LINE
  5
28C
100
AcDbEntity
  8
A_BEMASSUNGEN
100
AcDbLine
 62
2
  6
CONTINUOUS
 10
42.0293408644
 20
82.6807298397
 11
42.0293408644
 21
69.680795052
  0
LINE
  5
28D
100
AcDbEntity
  8
A_BEMASSUNGEN
100
AcDbLine
 62
2
  6
CONTINUOUS
 10
42.0293408644
 20
56.6808602643
 11
42.0293408644
 21
69.680795052
  0
INSERT
  5
28E
100
AcDbEntity
  8
A_BEMASSUNGEN
100
AcDbBlockReference
 62
2
  6
CONTINUOUS
  2
_ARROW_FILLED
 10
42.0293408644
 20
82.6807298397
 41
3.5
 42
3.5
 43
3.5
 50
90.0
  0
INSERT
  5
28F
100
AcDbEntity
  8
A_BEMASSUNGEN
100
AcDbBlockReference
 62
2
  6
CONTINUOUS
  2
_ARROW_FILLED
 10
42.0293408644
 20
56.6808602643
 41
3.5
 42
3.5
 43
3.5
 50
270.0
  0
ENDBLK
  5
290
100
AcDbEntity
  8
0
  6
BYBLOCK
 62
0
100
AcDbBlockEnd
  0
ENDSEC
  0
SECTION
  2
ENTITIES
  0
DIMENSION
  5
291
100
AcDbEntity
  8
A_BEMASSUNGEN
100
AcDbDimension
 62
2
  6
CONTINUOUS
  2
*D0
 10
183.808792089
 20
61.6747261234
 11
183.8082641137
 21
49.2835694418
 70
160
  3
DIMSTYLE_1
100
AcDbAlignedDimension
 13
166.7154154807
 23
56.6756177765
 14
100.7156763908
 24
61.6790605975
 50
89.9970112197
100
AcDbRotatedDimension
  0
DIMENSION
  5
292
100
AcDbEntity
  8
A_BEMASSUNGEN
100
AcDbDimension
 62
2
  6
CONTINUOUS
  2
*D1
 10
183.809298482
 20
102.3747261524
 11
183.8082108539
 21
81.5245826315
 70
160
  3
DIMSTYLE_2
100
AcDbAlignedDimension
 13
100.7156763908
 23
61.6790605975
 14
100.7177994679
 24
102.3790605421
 50
89.9970112197
100
AcDbRotatedDimension
  0
DIMENSION
  5
293
100
AcDbEntity
  8
A_BEMASSUNGEN
100
AcDbDimension
 62
2
  6
CONTINUOUS
  2
*D2
 10
53.3387642076
 20
76.6809124011
 11
53.3387642076
 21
71.717694054
 70
160
  3
DIMSTYLE_3
100
AcDbAlignedDimension
 13
74.215968553
 23
82.6807298397
 14
65.2164588999
 24
76.6809124011
 50
270.0
100
AcDbRotatedDimension
  0
DIMENSION
  5
294
100
AcDbEntity
  8
A_BEMASSUNGEN
100
AcDbDimension
 62
2
  6
CONTINUOUS
  2
*D3
 10
9.5121186023
 20
88.6807298397
 11
9.5121186023
 21
74.680687727
 70
160
  3
DIMSTYLE_1
100
AcDbAlignedDimension
 13
18.215968553
 23
82.6807298397
 14
43.215968553
 24
88.6807298397
 50
90.0
100
AcDbRotatedDimension
  0
DIMENSION
  5
295
100
AcDbEntity
  8
A_BEMASSUNGEN
100
AcDbDimension
 62
2
  6
CONTINUOUS
  2
*D4
 10
9.5121186023
 20
118.6807298397
 11
9.5121186023
 21
103.180729727
 70
160
  3
DIMSTYLE_4
100
AcDbAlignedDimension
 13
43.215968553
 23
88.6807298397
 14
43.215968553
 24
118.6807298397
 50
90.0
100
AcDbRotatedDimension
  0
DIMENSION
  5
296
100
AcDbEntity
  8
A_BEMASSUNGEN
100
AcDbDimension
 62
2
  6
CONTINUOUS
  2
*D5
 10
76.2185670362
 20
167.894399933
 11
88.1074602906
 21
167.8938837435
 70
160
  3
DIMSTYLE_5
100
AcDbAlignedDimension
 13
81.2181802921
 23
109.6800777313
 14
76.215968553
 24
118.0807298397
 50
179.9970112197
100
AcDbRotatedDimension
  0
DIMENSION
  5
297
100
AcDbEntity
  8
A_BEMASSUNGEN
100
AcDbDimension
 62
2
  6
CONTINUOUS
  2
*D6
 10
43.215968553
 20
167.8949288995
 11
59.2159704861
 21
167.8949288995
 70
160
  3
DIMSTYLE_2
100
AcDbAlignedDimension
 13
76.215968553
 23
118.0807298397
 14
43.215968553
 24
118.6807298397
 50
180.0
100
AcDbRotatedDimension
  0
DIMENSION
  5
298
100
AcDbEntity
  8
A_BEMASSUNGEN
100
AcDbDimension
 62
2
  6
CONTINUOUS
  2
*D7
 10
81.2150924662
 20
50.485566667
 11
71.7149582675
 21
50.4860622325
 70
160
  3
DIMSTYLE_4
100
AcDbAlignedDimension
 13
63.2156816582
 23
61.7810167495
 14
81.2168292489
 24
83.7801920466
 50
359.9970112197
100
AcDbRotatedDimension
  0
DIMENSION
  5
299
100
AcDbEntity
  8
A_BEMASSUNGEN
100
AcDbDimension
 62
2
  6
CONTINUOUS
  2
*D8
 10
100.7146383117
 20
41.778785757
 11
78.9651246448
 21
41.7799202999
 70
160
  3
DIMSTYLE_2
100
AcDbAlignedDimension
 13
63.2156816582
 23
61.7810167495
 14
100.7156763908
 24
61.6790605975
 50
359.9970112197
100
AcDbRotatedDimension
  0
DIMENSION
  5
29A
100
AcDbEntity
  8
A_BEMASSUNGEN
100
AcDbDimension
 62
2
  6
CONTINUOUS
  2
*D9
 10
42.0293408644
 20
56.6808602643
 11
42.0293408644
 21
69.1807945376
 70
160
  3
DIMSTYLE_6
100
AcDbAlignedDimension
 13
74.215968553
 23
82.6807298397
 14
66.2154156174
 24
56.6808602643
 50
270.0
100
AcDbRotatedDimension
  0
LINE
  5
29B
100
AcDbEntity
  8
0
100
AcDbLine
 62
7
  6
CONTINUOUS
 10
16.215968553
 20
84.6807298397
 11
16.215968553
 21
103.0064938397
  0
LINE
  5
29C
100
AcDbEntity
  8
0
100
AcDbLine
 62
7
  6
CONTINUOUS
 10
16.215968553
 20
156.5198288397
 11
16.215968553
 21
158.6807298397
  0
LINE
  5
29D
100
AcDbEntity
  8
0
100
AcDbLine
 62
7
  6
CONTINUOUS
 10
16.715968553
 20
119.3506018397
 11
16.715968553
 21
134.0108578397
  0
LINE
  5
29E
100
AcDbEntity
  8
0
100
AcDbLine
 62
7
  6
CONTINUOUS
 10
20.215968553
 20
149.3287468397
 11
20.215968553
 21
154.1363218397
  0
LINE
  5
29F
100
AcDbEntity
  8
0
100
AcDbLine
 62
7
  6
CONTINUOUS
 10
26.215968553
 20
104.8781228397
 11
26.215968553
 21
117.4833358397
  0
LINE
  5
2A0
100
AcDbEntity
  8
0
100
AcDbLine
 62
7
  6
CONTINUOUS
 10
26.215968553
 20
135.8781228397
 11
26.215968553
 21
148.4833358397
  0
LINE
  5
2A1
100
AcDbEntity
  8
0
100
AcDbLine
 62
7
  6
CONTINUOUS
 10
43.215968553
 20
88.6807298397
 11
43.215968553
 21
118.6807298397
  0
LINE
  5
2A2
100
AcDbEntity
  8
0
100
AcDbLine
 62
7
  6
CONTINUOUS
 10
43.715968553
 20
116.1807298397
 11
43.715968553
 21
110.1807298397
  0
LINE
  5
2A3
100
AcDbEntity
  8
0
100
AcDbLine
 62
7
  6
CONTINUOUS
 10
43.715968553
 20
100.3307298397
 11
43.715968553
 21
93.3307298397
  0
LINE
  5
2A4
100
AcDbEntity
  8
0
100
AcDbLine
 62
7
  6
CONTINUOUS
 10
45.965968553
 20
103.6807298397
 11
45.965968553
 21
109.6807298397
  0
LINE
  5
2A5
100
AcDbEntity
  8
0
100
AcDbLine
 62
7
  6
CONTINUOUS
 10
48.215968553
 20
101.4307298397
 11
48.215968553
 21
111.9307298397
  0
LINE
  5
2A6
100
AcDbEntity
  8
0
100
AcDbLine
 62
7
  6
CONTINUOUS
 10
49.215968553
 20
88.8632015405
 11
49.215968553
 21
118.4982581389
  0
LINE
  5
2A7
100
AcDbEntity
  8
A_FASEN
100
AcDbLine
 62
7
  6
CONTINUOUS
 10
49.715968553
 20
93.3807298397
 11
49.715968553
 21
100.3807298397
  0
LINE
  5
2A8
100
AcDbEntity
  8
0
100
AcDbLine
 62
7
  6
CONTINUOUS
 10
50.715968553
 20
100.3807298397
 11
50.715968553
 21
93.3807298397
  0
LINE
  5
2A9
100
AcDbEntity
  8
0
100
AcDbLine
 62
7
  6
CONTINUOUS
 10
169.541957491
 20
60.3211783092
 11
172.8024597173
 21
60.8959172715
  0
LINE
  5
2AA
100
AcDbEntity
  8
0
100
AcDbLine
 62
7
  6
CONTINUOUS
 10
52.015968553
 20
91.8657965544
 11
52.015968553
 21
115.4956631249
  0
LINE
  5
2AB
100
AcDbEntity
  8
0
100
AcDbLine
 62
7
  6
CONTINUOUS
 10
53.715968553
 20
110.7807298397
 11
53.715968553
 21
106.7807298397
  0
LINE
  5
2AC
100
AcDbEntity
  8
0
100
AcDbLine
 62
7
  6
CONTINUOUS
 10
53.715968553
 20
100.2807298397
 11
53.715968553
 21
96.2807298397
  0
LINE
  5
2AD
100
AcDbEntity
  8
0
100
AcDbLine
 62
7
  6
CONTINUOUS
 10
54.215968553
 20
95.7807298397
 11
54.215968553
 21
100.7807298397
  0
LINE
  5
2AE
100
AcDbEntity
  8
0
100
AcDbLine
 62
7
  6
CONTINUOUS
 10
54.215968553
 20
106.2807298397
 11
54.215968553
 21
111.2807298397
  0
LINE
  5
2AF
100
AcDbEntity
  8
0
100
AcDbLine
 62
7
  6
CONTINUOUS
 10
55.215968553
 20
92.0116899741
 11
55.215968553
 21
106.2807298397
  0
LINE
  5
2B0
100
AcDbEntity
  8
0
100
AcDbLine
 62
7
  6
CONTINUOUS
 10
55.215968553
 20
111.2807298397
 11
55.215968553
 21
115.3497697052
  0
LINE
  5
2B1
100
AcDbEntity
  8
0
100
AcDbLine
 62
7
  6
CONTINUOUS
 10
66.2154156174
 20
56.6808602643
 11
166.7154154807
 21
56.6756177765
  0
LINE
  5
2B2
100
AcDbEntity
  8
0
100
AcDbLine
 62
7
  6
CONTINUOUS
 10
100.7156763908
 20
61.6790605975
 11
63.2156764418
 21
61.6810167496
  0
LINE
  5
2B3
100
AcDbEntity
  8
0
100
AcDbLine
 62
7
  6
CONTINUOUS
 10
43.215968553
 20
100.8307298397
 11
43.715968553
 21
100.3307298397
  0
LINE
  5
2B4
100
AcDbEntity
  8
0
100
AcDbLine
 62
7
  6
CONTINUOUS
 10
60.215968553
 20
92.8181731573
 11
60.215968553
 21
104.3432865221
  0
LINE
  5
2B5
100
AcDbEntity
  8
0
100
AcDbLine
 62
7
  6
CONTINUOUS
 10
61.515968553
 20
117.0655351849
 11
61.515968553
 21
116.9057298397
  0
LINE
  5
2B6
100
AcDbEntity
  8
0
100
AcDbLine
 62
7
  6
CONTINUOUS
 10
61.515968553
 20
90.4557298397
 11
61.515968553
 21
90.2959244945
  0
LINE
  5
2B7
100
AcDbEntity
  8
A_FASEN
100
AcDbLine
 62
7
  6
CONTINUOUS
 10
62.215968553
 20
100.3807298397
 11
62.215968553
 21
93.3807298397
  0
LINE
  5
2B8
100
AcDbEntity
  8
QUER2
100
AcDbLine
 62
7
  6
CONTINUOUS
 10
62.715968553
 20
115.0807298397
 11
62.715968553
 21
112.8807298397
  0
LINE
  5
2B9
100
AcDbEntity
  8
QUER2
100
AcDbLine
 62
7
  6
CONTINUOUS
 10
62.715968553
 20
104.6807298397
 11
62.715968553
 21
92.0807298397
  0
LINE
  5
2BA
100
AcDbEntity
  8
0
100
AcDbLine
 62
7
  6
CONTINUOUS
 10
62.715968553
 20
90.4592716498
 11
62.715968553
 21
92.8807298397
  0
LINE
  5
2BB
100
AcDbEntity
  8
0
100
AcDbLine
 62
7
  6
CONTINUOUS
 10
62.715968553
 20
100.8807298397
 11
62.715968553
 21
106.2807298397
  0
LINE
  5
2BC
100
AcDbEntity
  8
0
100
AcDbLine
 62
7
  6
CONTINUOUS
 10
62.715968553
 20
111.2807298397
 11
62.715968553
 21
116.9021880296
  0
LINE
  5
2BD
100
AcDbEntity
  8
0
100
AcDbLine
 62
7
  6
CONTINUOUS
 10
63.2163545745
 20
74.6810167319
 11
63.2163076269
 21
73.7810167332
  0
LINE
  5
2BE
100
AcDbEntity
  8
0
100
AcDbLine
 62
7
  6
CONTINUOUS
 10
63.2156816582
 20
61.7810167495
 11
63.2155721137
 21
59.6810167523
  0
LINE
  5
2BF
100
AcDbEntity
  8
A_RUNDUNGEN
100
AcDbLine
 62
7
  6
CONTINUOUS
 10
63.2156816582
 20
61.7810167495
 11
63.2163076269
 21
73.7810167332
  0
LINE
  5
2C0
100
AcDbEntity
  8
0
100
AcDbLine
 62
7
  6
CONTINUOUS
 10
48.215968553
 20
111.9307298397
 11
45.965968553
 21
109.6807298397
  0
LINE
  5
2C1
100
AcDbEntity
  8
0
100
AcDbLine
 62
7
  6
CONTINUOUS
 10
87.2157859537
 20
63.7797648094
 11
80.2157077171
 21
62.2801299598
  0
LINE
  5
2C2
100
AcDbEntity
  8
A_RUNDUNGEN
100
AcDbLine
 62
7
  6
CONTINUOUS
 10
79.9553752445
 20
62.2243586334
 11
80.2157077171
 21
62.2801299598
  0
LINE
  5
2C3
100
AcDbEntity
  8
0
100
AcDbLine
 62
7
  6
CONTINUOUS
 10
98.7261632366
 20
61.9650984743
 11
80.2156862783
 21
61.8691425657
  0
LINE
  5
2C4
100
AcDbEntity
  8
A_RUNDUNGEN
100
AcDbLine
 62
7
  6
CONTINUOUS
 10
63.2156816582
 20
61.7810167495
 11
68.3404986631
 21
61.8075831353
  0
LINE
  5
2C5
100
AcDbEntity
  8
A_RUNDUNGEN
100
AcDbLine
 62
7
  6
CONTINUOUS
 10
69.1501410291
 20
61.8117802162
 11
80.2156862783
 21
61.8691425657
  0
LINE
  5
2C6
100
AcDbEntity
  8
QUER2
100
AcDbLine
 62
7
  6
CONTINUOUS
 10
68.715968553
 20
62.2807298397
 11
75.715968553
 21
62.2807298397
  0
LINE
  5
2C7
100
AcDbEntity
  8
A_ACHSEN
100
AcDbLine
 62
7
  6
CENTER
 10
61.4636117125
 20
67.2807298397
 11
75.9683253936
 21
67.2807298397
  0
LINE
  5
2C8
100
AcDbEntity
  8
0
100
AcDbLine
 62
7
  6
CONTINUOUS
 10
92.2157859469
 20
63.7795039891
 11
87.2157859537
 21
63.7797648094
  0
LINE
  5
2C9
100
AcDbEntity
  8
0
100
AcDbLine
 62
7
  6
CONTINUOUS
 10
48.215968553
 20
101.4307298397
 11
45.965968553
 21
103.6807298397
  0
LINE
  5
2CA
100
AcDbEntity
  8
0
100
AcDbLine
 62
7
  6
CONTINUOUS
 10
54.215968553
 20
95.7807298397
 11
53.715968553
 21
96.2807298397
  0
LINE
  5
2CB
100
AcDbEntity
  8
0
100
AcDbLine
 62
7
  6
CONTINUOUS
 10
49.215968553
 20
100.8807298397
 11
49.715968553
 21
100.3807298397
  0
LINE
  5
2CC
100
AcDbEntity
  8
0
100
AcDbLine
 62
7
  6
CONTINUOUS
 10
62.715968553
 20
92.8807298397
 11
62.215968553
 21
93.3807298397
  0
LINE
  5
2CD
100
AcDbEntity
  8
QUER2
100
AcDbLine
 62
7
  6
CONTINUOUS
 10
66.8913099971
 20
78.6512379388
 11
66.7865161234
 21
79.9554846759
  0
LINE
  5
2CE
100
AcDbEntity
  8
DEFAULT_2
100
AcDbLine
 62
8
  6
HIDDEN
 10
65.715968553
 20
111.2807298397
 11
65.715968553
 21
106.2807298397
  0
LINE
  5
2CF
100
AcDbEntity
  8
A_RUNDUNGEN
100
AcDbLine
 62
7
  6
CONTINUOUS
 10
65.715968553
 20
112.7307297987
 11
65.715968553
 21
104.8307298807
  0
LINE
  5
2D0
100
AcDbEntity
  8
QUER2
100
AcDbLine
 62
7
  6
CONTINUOUS
 10
65.715968553
 20
102.9807298397
 11
65.715968553
 21
104.9380358531
  0
LINE
  5
2D1
100
AcDbEntity
  8
QUER2
100
AcDbLine
 62
7
  6
CONTINUOUS
 10
65.715968553
 20
112.7307297994
 11
65.715968553
 21
114.5807298397
  0
LINE
  5
2D2
100
AcDbEntity
  8
0
100
AcDbLine
 62
7
  6
CONTINUOUS
 10
66.615968553
 20
117.1100422106
 11
66.615968553
 21
116.936222814
  0
LINE
  5
2D3
100
AcDbEntity
  8
0
100
AcDbLine
 62
7
  6
CONTINUOUS
 10
66.615968553
 20
90.4252368654
 11
66.615968553
 21
90.2514174688
  0
LINE
  5
2D4
100
AcDbEntity
  8
0
100
AcDbLine
 62
7
  6
CONTINUOUS
 10
67.6345711334
 20
116.945112024
 11
67.6345711334
 21
115.3807298397
  0
LINE
  5
2D5
100
AcDbEntity
  8
0
100
AcDbLine
 62
7
  6
CONTINUOUS
 10
67.6345711334
 20
91.7807298397
 11
67.6345711334
 21
90.4163476554
  0
LINE
  5
2D6
100
AcDbEntity
  8
0
100
AcDbLine
 62
7
  6
CONTINUOUS
 10
67.715968553
 20
127.6807298397
 11
67.715968553
 21
122.6807298397
  0
LINE
  5
2D7
100
AcDbEntity
  8
A_ACHSEN
100
AcDbLine
 62
7
  6
CENTER
 10
68.715968553
 20
60.0283729992
 11
68.715968553
 21
74.5330866802
  0
LINE
  5
2D8
100
AcDbEntity
  8
DEFAULT_2
100
AcDbLine
 62
8
  6
HIDDEN
 10
70.715968553
 20
111.0286456584
 11
70.715968553
 21
106.532814021
  0
LINE
  5
2D9
100
AcDbEntity
  8
A_RUNDUNGEN
100
AcDbLine
 62
7
  6
CONTINUOUS
 10
70.715968553
 20
112.7307288885
 11
70.715968553
 21
104.8307307909
  0
LINE
  5
2DA
100
AcDbEntity
  8
0
100
AcDbLine
 62
7
  6
CONTINUOUS
 10
54.215968553
 20
111.2807298397
 11
53.715968553
 21
110.7807298397
  0
LINE
  5
2DB
100
AcDbEntity
  8
A_RUNDUNGEN
100
AcDbLine
 62
7
  6
CONTINUOUS
 10
94.2425013152
 20
74.0501596489
 11
93.7631510743
 21
74.0460014294
  0
LINE
  5
2DC
100
AcDbEntity
  8
A_RUNDUNGEN
100
AcDbLine
 62
7
  6
CONTINUOUS
 10
77.9266568993
 20
73.9086245968
 11
63.2163076269
 21
73.7810167332
  0
LINE
  5
2DD
100
AcDbEntity
  8
QUER2
100
AcDbLine
 62
7
  6
CONTINUOUS
 10
75.715968553
 20
72.2807298397
 11
68.715968553
 21
72.2807298397
  0
LINE
  5
2DE
100
AcDbEntity
  8
0
100
AcDbLine
 62
7
  6
CONTINUOUS
 10
97.2163075806
 20
73.7792431552
 11
95.2163075834
 21
73.7793474833
  0
LINE
  5
2DF
100
AcDbEntity
  8
0
100
AcDbLine
 62
7
  6
CONTINUOUS
 10
54.215968553
 20
106.2807298397
 11
53.715968553
 21
106.7807298397
  0
LINE
  5
2E0
100
AcDbEntity
  8
0
100
AcDbLine
 62
7
  6
CONTINUOUS
 10
71.715968553
 20
116.9807298397
 11
71.715968553
 21
115.0807298397
  0
LINE
  5
2E1
100
AcDbEntity
  8
0
100
AcDbLine
 62
7
  6
CONTINUOUS
 10
71.715968553
 20
91.7807298397
 11
71.715968553
 21
90.3807298397
  0
LINE
  5
2E2
100
AcDbEntity
  8
QUER2
100
AcDbLine
 62
7
  6
CONTINUOUS
 10
71.715968553
 20
103.2807298397
 11
71.715968553
 21
115.0807298397
  0
LINE
  5
2E3
100
AcDbEntity
  8
0
100
AcDbLine
 62
7
  6
CONTINUOUS
 10
74.515968553
 20
118.6307298397
 11
74.515968553
 21
118.5772388267
  0
LINE
  5
2E4
100
AcDbEntity
  8
0
100
AcDbLine
 62
7
  6
CONTINUOUS
 10
74.515968553
 20
88.7307298397
 11
74.515968553
 21
88.7842208527
  0
LINE
  5
2E5
100
AcDbEntity
  8
A_RUNDUNGEN
100
AcDbLine
 62
7
  6
CONTINUOUS
 10
74.515968553
 20
103.1407120294
 11
74.515968553
 21
104.2203601784
  0
LINE
  5
2E6
100
AcDbEntity
  8
A_RUNDUNGEN
100
AcDbLine
 62
7
  6
CONTINUOUS
 10
74.715968553
 20
117.1807298397
 11
74.715968553
 21
101.7807298397
  0
LINE
  5
2E7
100
AcDbEntity
  8
A_RUNDUNGEN
100
AcDbLine
 62
7
  6
CONTINUOUS
 10
74.715968553
 20
91.7807298397
 11
74.715968553
 21
90.1807298397
  0
LINE
  5
2E8
100
AcDbEntity
  8
0
100
AcDbLine
 62
7
  6
CONTINUOUS
 10
74.715968553
 20
88.7807298397
 11
74.715968553
 21
90.1807298397
  0
LINE
  5
2E9
100
AcDbEntity
  8
0
100
AcDbLine
 62
7
  6
CONTINUOUS
 10
74.715968553
 20
117.1807298397
 11
74.715968553
 21
118.5807298397
  0
LINE
  5
2EA
100
AcDbEntity
  8
A_RUNDUNGEN
100
AcDbLine
 62
7
  6
CONTINUOUS
 10
76.215968553
 20
118.5807298397
 11
76.215968553
 21
101.7449691339
  0
LINE
  5
2EB
100
AcDbEntity
  8
A_RUNDUNGEN
100
AcDbLine
 62
7
  6
CONTINUOUS
 10
76.215968553
 20
91.7397162274
 11
76.215968553
 21
88.7807298397
  0
LINE
  5
2EC
100
AcDbEntity
  8
0
100
AcDbLine
 62
7
  6
CONTINUOUS
 10
76.215968553
 20
84.6807298397
 11
76.215968553
 21
88.79900932
  0
LINE
  5
2ED
100
AcDbEntity
  8
0
100
AcDbLine
 62
7
  6
CONTINUOUS
 10
76.215968553
 20
118.5624503594
 11
76.215968553
 21
122.6807298397
  0
LINE
  5
2EE
100
AcDbEntity
  8
QUER2
100
AcDbLine
 62
7
  6
CONTINUOUS
 10
73.3055063178
 20
81.0088474955
 11
73.217184487
 21
79.5269941
  0
LINE
  5
2EF
100
AcDbEntity
  8
DEFAULT_2
100
AcDbLine
 62
8
  6
HIDDEN
 10
67.416968553
 20
108.7807298397
 11
68.7148033257
 21
111.0286456058
  0
LINE
  5
2F0
100
AcDbEntity
  8
0
100
AcDbLine
 62
7
  6
CONTINUOUS
 10
43.215968553
 20
92.8307298397
 11
43.715968553
 21
93.3307298397
  0
LINE
  5
2F1
100
AcDbEntity
  8
0
100
AcDbLine
 62
7
  6
CONTINUOUS
 10
54.215968553
 20
100.7807298397
 11
53.715968553
 21
100.2807298397
  0
LINE
  5
2F2
100
AcDbEntity
  8
0
100
AcDbLine
 62
7
  6
CONTINUOUS
 10
49.215968553
 20
92.8807298397
 11
49.715968553
 21
93.3807298397
  0
LINE
  5
2F3
100
AcDbEntity
  8
QUER2
100
AcDbLine
 62
7
  6
CONTINUOUS
 10
84.6092702679
 20
75.9741342512
 11
85.5481313034
 21
76.1396807829
  0
LINE
  5
2F4
100
AcDbEntity
  8
0
100
AcDbLine
 62
7
  6
CONTINUOUS
 10
65.2164588999
 20
76.6809124011
 11
74.9288895756
 21
76.6804057613
  0
LINE
  5
2F5
100
AcDbEntity
  8
0
100
AcDbLine
 62
7
  6
CONTINUOUS
 10
77.6905592472
 20
76.6802617014
 11
82.5855732327
 21
76.6800063576
  0
LINE
  5
2F6
100
AcDbEntity
  8
0
100
AcDbLine
 62
7
  6
CONTINUOUS
 10
85.4403861015
 20
81.6798574458
 11
85.2414366954
 21
81.6798678238
  0
LINE
  5
2F7
100
AcDbEntity
  8
0
100
AcDbLine
 62
7
  6
CONTINUOUS
 10
84.2264586672
 20
81.6799207692
 11
81.2167196985
 21
81.6800777694
  0
LINE
  5
2F8
100
AcDbEntity
  8
A_RUNDUNGEN
100
AcDbLine
 62
7
  6
CONTINUOUS
 10
81.2167770789
 20
82.7800777679
 11
83.9353918641
 21
82.7087464229
  0
LINE
  5
2F9
100
AcDbEntity
  8
A_RUNDUNGEN
100
AcDbLine
 62
7
  6
CONTINUOUS
 10
85.0190611536
 20
82.6803129765
 11
85.4242278857
 21
82.6696821626
  0
LINE
  5
2FA
100
AcDbEntity
  8
0
100
AcDbLine
 62
7
  6
CONTINUOUS
 10
100.7159163454
 20
66.2790605912
 11
100.2159424282
 21
66.7790866726
  0
LINE
  5
2FB
100
AcDbEntity
  8
DEFAULT_2
100
AcDbLine
 62
8
  6
HIDDEN
 10
67.416968553
 20
108.7807298397
 11
68.7148034826
 21
106.5328138019
  0
LINE
  5
2FC
100
AcDbEntity
  8
0
100
AcDbLine
 62
7
  6
CONTINUOUS
 10
80.2157077171
 20
62.2801299598
 11
80.2156862783
 21
61.8691425657
  0
LINE
  5
2FD
100
AcDbEntity
  8
0
100
AcDbLine
 62
7
  6
CONTINUOUS
 10
81.2167770789
 20
82.7800777679
 11
81.2167196985
 21
81.6800777694
  0
LINE
  5
2FE
100
AcDbEntity
  8
A_RUNDUNGEN
100
AcDbLine
 62
7
  6
CONTINUOUS
 10
81.2167770789
 20
82.7800777679
 11
81.2169257205
 21
85.6295798079
  0
LINE
  5
2FF
100
AcDbEntity
  8
A_RUNDUNGEN
100
AcDbLine
 62
7
  6
CONTINUOUS
 10
81.2169857352
 20
86.7800777624
 11
81.2171560918
 21
90.0458643031
  0
LINE
  5
300
100
AcDbEntity
  8
0
100
AcDbLine
 62
7
  6
CONTINUOUS
 10
81.2177272068
 20
100.9943032672
 11
81.2181802921
 21
109.6800777313
  0
LINE
  5
301
100
AcDbEntity
  8
0
100
AcDbLine
 62
7
  6
CONTINUOUS
 10
81.2181802921
 20
109.6800777313
 11
82.1088480655
 21
119.8543427566
  0
LINE
  5
302
100
AcDbEntity
  8
0
100
AcDbLine
 62
7
  6
CONTINUOUS
 10
62.715968553
 20
100.8807298397
 11
62.215968553
 21
100.3807298397
  0
LINE
  5
303
100
AcDbEntity
  8
0
100
AcDbLine
 62
7
  6
CONTINUOUS
 10
81.2169857352
 20
86.7800777624
 11
84.151136309
 21
86.8567580373
  0
LINE
  5
304
100
AcDbEntity
  8
A_RUNDUNGEN
100
AcDbLine
 62
7
  6
CONTINUOUS
 10
81.2169857352
 20
86.7800777624
 11
84.151136309
 21
86.8567580373
  0
LINE
  5
305
100
AcDbEntity
  8
0
100
AcDbLine
 62
7
  6
CONTINUOUS
 10
94.7661910986
 20
87.1341689262
 11
95.2170048396
 21
87.1459503671
  0
LINE
  5
306
100
AcDbEntity
  8
A_RUNDUNGEN
100
AcDbLine
 62
7
  6
CONTINUOUS
 10
94.7661910986
 20
87.1341689262
 11
95.2170048396
 21
87.1459503671
  0
LINE
  5
307
100
AcDbEntity
  8
0
100
AcDbLine
 62
7
  6
CONTINUOUS
 10
74.215968553
 20
82.6807298397
 11
18.215968553
 21
82.6807298397
  0
LINE
  5
308
100
AcDbEntity
  8
0
100
AcDbLine
 62
7
  6
CONTINUOUS
 10
43.215968553
 20
88.6807298397
 11
76.215968553
 21
88.6807298397
  0
LINE
  5
309
100
AcDbEntity
  8
A_RUNDUNGEN
100
AcDbLine
 62
7
  6
CONTINUOUS
 10
76.215968553
 20
88.7807298397
 11
74.715968553
 21
88.7807298397
  0
LINE
  5
30A
100
AcDbEntity
  8
0
100
AcDbLine
 62
7
  6
CONTINUOUS
 10
100.216750971
 20
82.2790866515
 11
100.7167509704
 21
82.2790605695
  0
LINE
  5
30B
100
AcDbEntity
  8
0
100
AcDbLine
 62
7
  6
CONTINUOUS
 10
100.2168031351
 20
83.2790866501
 11
100.7168031344
 21
83.2790605681
  0
LINE
  5
30C
100
AcDbEntity
  8
0
100
AcDbLine
 62
7
  6
CONTINUOUS
 10
100.216933388
 20
85.7760722397
 11
100.7169333873
 21
85.7760461577
  0
LINE
  5
30D
100
AcDbEntity
  8
0
100
AcDbLine
 62
7
  6
CONTINUOUS
 10
100.2169935029
 20
86.9284930263
 11
100.7169935023
 21
86.9284669443
  0
LINE
  5
30E
100
AcDbEntity
  8
0
100
AcDbLine
 62
7
  6
CONTINUOUS
 10
100.2170335786
 20
87.6967550157
 11
100.7170335779
 21
87.6967289336
  0
LINE
  5
30F
100
AcDbEntity
  8
A_RUNDUNGEN
100
AcDbLine
 62
7
  6
CONTINUOUS
 10
74.515968553
 20
88.7307298397
 11
49.215968553
 21
88.8632015405
  0
LINE
  5
310
100
AcDbEntity
  8
0
100
AcDbLine
 62
7
  6
CONTINUOUS
 10
45.2054966254
 20
88.8842005143
 11
49.215968553
 21
88.8632015405
  0
LINE
  5
311
100
AcDbEntity
  8
0
100
AcDbLine
 62
7
  6
CONTINUOUS
 10
50.6897899434
 20
89.2001083473
 11
74.715968553
 21
88.7807298397
  0
LINE
  5
312
100
AcDbEntity
  8
QUER2
100
AcDbLine
 62
7
  6
CONTINUOUS
 10
81.7315342636
 20
72.3164035377
 11
81.8569811126
 21
73.1024844391
  0
LINE
  5
313
100
AcDbEntity
  8
QUER2
100
AcDbLine
 62
7
  6
CONTINUOUS
 10
81.6070176098
 20
72.1985670893
 11
81.7725641415
 21
73.1374281248
  0
LINE
  5
314
100
AcDbEntity
  8
DEFAULT_2
100
AcDbLine
 62
8
  6
HIDDEN
 10
70.6442014187
 20
110.1296876166
 11
70.6053658006
 21
110.1109598233
  0
LINE
  5
315
100
AcDbEntity
  8
A_RUNDUNGEN
100
AcDbLine
 62
7
  6
CONTINUOUS
 10
53.515968553
 20
90.4557298397
 11
61.7028787498
 21
90.4557298397
  0
LINE
  5
316
100
AcDbEntity
  8
QUER2
100
AcDbLine
 62
7
  6
CONTINUOUS
 10
63.015968553
 20
91.7807298397
 11
75.715968553
 21
91.7807298397
  0
LINE
  5
317
100
AcDbEntity
  8
0
100
AcDbLine
 62
7
  6
CONTINUOUS
 10
52.015968553
 20
93.3807298397
 11
49.715968553
 21
93.3807298397
  0
LINE
  5
318
100
AcDbEntity
  8
0
100
AcDbLine
 62
7
  6
CONTINUOUS
 10
60.215968553
 20
93.3807298397
 11
62.215968553
 21
93.3807298397
  0
LINE
  5
319
100
AcDbEntity
  8
0
100
AcDbLine
 62
7
  6
CONTINUOUS
 10
55.215968553
 20
95.7807298397
 11
54.215968553
 21
95.7807298397
  0
LINE
  5
31A
100
AcDbEntity
  8
0
100
AcDbLine
 62
7
  6
CONTINUOUS
 10
100.2171638315
 20
90.1937406053
 11
100.7171638308
 21
90.1937145232
  0
LINE
  5
31B
100
AcDbEntity
  8
0
100
AcDbLine
 62
7
  6
CONTINUOUS
 10
100.2172204476
 20
91.2790866392
 11
100.7172204469
 21
91.2790605572
  0
LINE
  5
31C
100
AcDbEntity
  8
0
100
AcDbLine
 62
7
  6
CONTINUOUS
 10
97.717298697
 20
92.7792170473
 11
95.2172987004
 21
92.7793474575
  0
LINE
  5
31D
100
AcDbEntity
  8
0
100
AcDbLine
 62
7
  6
CONTINUOUS
 10
97.7173247791
 20
93.2792170467
 11
97.2173247798
 21
93.2792431287
  0
LINE
  5
31E
100
AcDbEntity
  8
0
100
AcDbLine
 62
7
  6
CONTINUOUS
 10
97.7173292186
 20
93.3643234268
 11
97.2173292192
 21
93.3643495089
  0
LINE
  5
31F
100
AcDbEntity
  8
0
100
AcDbLine
 62
7
  6
CONTINUOUS
 10
97.7173380976
 20
93.5345361946
 11
97.2173380982
 21
93.5345622766
  0
LINE
  5
320
100
AcDbEntity
  8
0
100
AcDbLine
 62
7
  6
CONTINUOUS
 10
97.7173558555
 20
93.8749617153
 11
97.2173558562
 21
93.8749877973
  0
LINE
  5
321
100
AcDbEntity
  8
0
100
AcDbLine
 62
7
  6
CONTINUOUS
 10
97.7173736135
 20
94.2153872658
 11
97.2173736142
 21
94.2154133478
  0
LINE
  5
322
100
AcDbEntity
  8
0
100
AcDbLine
 62
7
  6
CONTINUOUS
 10
97.717395811
 20
94.6409191293
 11
97.2173958117
 21
94.6409452114
  0
LINE
  5
323
100
AcDbEntity
  8
0
100
AcDbLine
 62
7
  6
CONTINUOUS
 10
74.715968553
 20
90.1807298397
 11
53.5028787498
 21
90.3658536698
  0
LINE
  5
324
100
AcDbEntity
  8
0
100
AcDbLine
 62
7
  6
CONTINUOUS
 10
71.715968553
 20
90.3807298397
 11
67.6345711334
 21
90.4163476554
  0
LINE
  5
325
100
AcDbEntity
  8
A_RUNDUNGEN
100
AcDbLine
 62
7
  6
CONTINUOUS
 10
67.6345711334
 20
90.4163476554
 11
62.715968553
 21
90.4592716498
  0
LINE
  5
326
100
AcDbEntity
  8
0
100
AcDbLine
 62
7
  6
CONTINUOUS
 10
56.7028787498
 20
90.5117470895
 11
62.715968553
 21
90.4592716498
  0
LINE
  5
327
100
AcDbEntity
  8
0
100
AcDbLine
 62
7
  6
CONTINUOUS
 10
60.215968553
 20
93.8432865221
 11
55.215968553
 21
94.2807298397
  0
LINE
  5
328
100
AcDbEntity
  8
0
100
AcDbLine
 62
7
  6
CONTINUOUS
 10
55.215968553
 20
100.1807298397
 11
60.215968553
 21
99.7432865221
  0
LINE
  5
329
100
AcDbEntity
  8
0
100
AcDbLine
 62
7
  6
CONTINUOUS
 10
81.2177577632
 20
101.5800777423
 11
86.6667525614
 21
100.1630356342
  0
LINE
  5
32A
100
AcDbEntity
  8
DEFAULT_2
100
AcDbLine
 62
8
  6
HIDDEN
 10
70.6053658006
 20
107.4504998561
 11
70.6442263619
 21
107.43177201
  0
LINE
  5
32B
100
AcDbEntity
  8
0
100
AcDbLine
 62
7
  6
CONTINUOUS
 10
94.215968553
 20
146.2688928397
 11
94.215968553
 21
129.6807298397
  0
LINE
  5
32C
100
AcDbEntity
  8
0
100
AcDbLine
 62
7
  6
CONTINUOUS
 10
95.2163075834
 20
73.7793474833
 11
95.2172987004
 21
92.7793474575
  0
LINE
  5
32D
100
AcDbEntity
  8
0
100
AcDbLine
 62
7
  6
CONTINUOUS
 10
97.2160467604
 20
68.779243162
 11
97.2175918488
 21
98.3990330702
  0
LINE
  5
32E
100
AcDbEntity
  8
0
100
AcDbLine
 62
7
  6
CONTINUOUS
 10
97.717298697
 20
92.7792170473
 11
97.7175855994
 21
98.2792170399
  0
LINE
  5
32F
100
AcDbEntity
  8
0
100
AcDbLine
 62
7
  6
CONTINUOUS
 10
99.3645574805
 20
122.5054829462
 11
101.0744811159
 21
132.1999863569
  0
LINE
  5
330
100
AcDbEntity
  8
QUER2
100
AcDbLine
 62
7
  6
CONTINUOUS
 10
85.2966909171
 20
79.8375139515
 11
84.9887244786
 21
78.5343518285
  0
LINE
  5
331
100
AcDbEntity
  8
DEFAULT_2
100
AcDbLine
 62
8
  6
HIDDEN
 10
68.4368339455
 20
110.0781873341
 11
68.5439598239
 21
110.1109598233
  0
LINE
  5
332
100
AcDbEntity
  8
DEFAULT_2
100
AcDbLine
 62
8
  6
HIDDEN
 10
68.6075671311
 20
110.1296851571
 11
68.5439598239
 21
110.1109598233
  0
LINE
  5
333
100
AcDbEntity
  8
0
100
AcDbLine
 62
7
  6
CONTINUOUS
 10
55.215968553
 20
92.3807298397
 11
60.215968553
 21
92.8181731573
  0
LINE
  5
334
100
AcDbEntity
  8
0
100
AcDbLine
 62
2
  6
CONTINUOUS
 10
53.715968553
 20
96.2807298397
 11
55.215968553
 21
96.2807298397
  0
LINE
  5
335
100
AcDbEntity
  8
0
100
AcDbLine
 62
2
  6
CONTINUOUS
 10
53.715968553
 20
100.2807298397
 11
55.215968553
 21
100.2807298397
  0
LINE
  5
336
100
AcDbEntity
  8
0
100
AcDbLine
 62
7
  6
CONTINUOUS
 10
52.015968553
 20
100.3807298397
 11
49.715968553
 21
100.3807298397
  0
LINE
  5
337
100
AcDbEntity
  8
0
100
AcDbLine
 62
7
  6
CONTINUOUS
 10
60.215968553
 20
100.3807298397
 11
62.215968553
 21
100.3807298397
  0
LINE
  5
338
100
AcDbEntity
  8
0
100
AcDbLine
 62
7
  6
CONTINUOUS
 10
55.215968553
 20
100.7807298397
 11
54.215968553
 21
100.7807298397
  0
LINE
  5
339
100
AcDbEntity
  8
0
100
AcDbLine
 62
7
  6
CONTINUOUS
 10
49.215968553
 20
101.4307298397
 11
48.215968553
 21
101.4307298397
  0
LINE
  5
33A
100
AcDbEntity
  8
QUER2
100
AcDbLine
 62
7
  6
CONTINUOUS
 10
75.715968553
 20
101.7807298397
 11
73.215968553
 21
101.7807298397
  0
LINE
  5
33B
100
AcDbEntity
  8
0
100
AcDbLine
 62
7
  6
CONTINUOUS
 10
97.7174624034
 20
95.9175148393
 11
97.2174624041
 21
95.9175409213
  0
LINE
  5
33C
100
AcDbEntity
  8
0
100
AcDbLine
 62
7
  6
CONTINUOUS
 10
97.7174846009
 20
96.3430469413
 11
97.2174846016
 21
96.3430730234
  0
LINE
  5
33D
100
AcDbEntity
  8
0
100
AcDbLine
 62
7
  6
CONTINUOUS
 10
97.7175023588
 20
96.6834724322
 11
97.2175023595
 21
96.6834985142
  0
LINE
  5
33E
100
AcDbEntity
  8
0
100
AcDbLine
 62
7
  6
CONTINUOUS
 10
97.7175201168
 20
97.0238979231
 11
97.2175201175
 21
97.0239240051
  0
LINE
  5
33F
100
AcDbEntity
  8
0
100
AcDbLine
 62
7
  6
CONTINUOUS
 10
97.7175289958
 20
97.1941106685
 11
97.2175289965
 21
97.1941367505
  0
LINE
  5
340
100
AcDbEntity
  8
0
100
AcDbLine
 62
7
  6
CONTINUOUS
 10
97.7175334353
 20
97.2792170412
 11
97.217533436
 21
97.2792431232
  0
LINE
  5
341
100
AcDbEntity
  8
0
100
AcDbLine
 62
7
  6
CONTINUOUS
 10
97.7175855994
 20
98.2792170399
 11
97.2175856
 21
98.2792431219
  0
LINE
  5
342
100
AcDbEntity
  8
0
100
AcDbLine
 62
7
  6
CONTINUOUS
 10
170.7177628578
 20
101.6754090591
 11
173.2177628544
 21
101.6752786489
  0
LINE
  5
343
100
AcDbEntity
  8
0
100
AcDbLine
 62
7
  6
CONTINUOUS
 10
100.7177994679
 20
102.3790605421
 11
81.2177994944
 21
102.3800777412
  0
LINE
  5
344
100
AcDbEntity
  8
0
100
AcDbLine
 62
7
  6
CONTINUOUS
 10
98.7282564828
 20
102.093230229
 11
81.2177893616
 21
102.1858291006
  0
LINE
  5
345
100
AcDbEntity
  8
0
100
AcDbLine
 62
7
  6
CONTINUOUS
 10
95.7569354925
 20
99.8985952535
 11
86.8922078039
 21
100.1311890554
  0
LINE
  5
346
100
AcDbEntity
  8
A_RUNDUNGEN
100
AcDbLine
 62
7
  6
CONTINUOUS
 10
86.6660726472
 20
100.1371224171
 11
83.3055452124
 21
100.2252963441
  0
LINE
  5
347
100
AcDbEntity
  8
0
100
AcDbLine
 62
7
  6
CONTINUOUS
 10
60.215968553
 20
104.3432865221
 11
55.215968553
 21
104.7807298397
  0
LINE
  5
348
100
AcDbEntity
  8
DEFAULT_2
100
AcDbLine
 62
8
  6
HIDDEN
 10
68.6075671311
 20
107.4317745223
 11
68.5439598239
 21
107.4504998561
  0
LINE
  5
349
100
AcDbEntity
  8
DEFAULT_2
100
AcDbLine
 62
8
  6
HIDDEN
 10
68.5439598239
 20
107.4504998561
 11
68.4366021327
 21
107.4832714815
  0
LINE
  5
34A
100
AcDbEntity
  8
0
100
AcDbLine
 62
7
  6
CONTINUOUS
 10
100.2163075766
 20
73.779086663
 11
100.2159424282
 21
66.7790866726
  0
LINE
  5
34B
100
AcDbEntity
  8
0
100
AcDbLine
 62
7
  6
CONTINUOUS
 10
100.216750971
 20
82.2790866515
 11
100.2168031351
 21
83.2790866501
  0
LINE
  5
34C
100
AcDbEntity
  8
0
100
AcDbLine
 62
7
  6
CONTINUOUS
 10
100.216933388
 20
85.7760722397
 11
100.2170335786
 21
87.6967550157
  0
LINE
  5
34D
100
AcDbEntity
  8
0
100
AcDbLine
 62
7
  6
CONTINUOUS
 10
100.2171638315
 20
90.1937406053
 11
100.2172204476
 21
91.2790866392
  0
LINE
  5
34E
100
AcDbEntity
  8
0
100
AcDbLine
 62
7
  6
CONTINUOUS
 10
100.7156763908
 20
61.6790605975
 11
100.7177994679
 21
102.3790605421
  0
LINE
  5
34F
100
AcDbEntity
  8
0
100
AcDbLine
 62
7
  6
CONTINUOUS
 10
17.7028786373
 20
104.5064368317
 11
25.918586531
 21
104.5781348395
  0
LINE
  5
350
100
AcDbEntity
  8
QUER2
100
AcDbLine
 62
7
  6
CONTINUOUS
 10
65.715968553
 20
102.9807298397
 11
71.7462747074
 21
102.9807298397
  0
LINE
  5
351
100
AcDbEntity
  8
0
100
AcDbLine
 62
7
  6
CONTINUOUS
 10
45.965968553
 20
103.6807298397
 11
43.215968553
 21
103.6807298397
  0
LINE
  5
352
100
AcDbEntity
  8
0
100
AcDbLine
 62
7
  6
CONTINUOUS
 10
70.415968553
 20
104.5307298397
 11
66.015968553
 21
104.5307298397
  0
LINE
  5
353
100
AcDbEntity
  8
QUER2
100
AcDbLine
 62
7
  6
CONTINUOUS
 10
62.715968553
 20
104.6807298397
 11
65.715968553
 21
104.6807298397
  0
LINE
  5
354
100
AcDbEntity
  8
0
100
AcDbLine
 62
7
  6
CONTINUOUS
 10
49.215968553
 20
105.7807298397
 11
52.015968553
 21
105.7807298397
  0
LINE
  5
355
100
AcDbEntity
  8
0
100
AcDbLine
 62
7
  6
CONTINUOUS
 10
65.415968553
 20
106.2807298397
 11
54.215968553
 21
106.2807298397
  0
LINE
  5
356
100
AcDbEntity
  8
A_FLAECHEN
100
AcDbLine
 62
8
  6
HIDDEN
 10
68.7148033257
 20
106.5328140736
 11
70.715968553
 21
106.5328140736
  0
LINE
  5
357
100
AcDbEntity
  8
A_ACHSEN
100
AcDbLine
 62
7
  6
CENTER
 10
42.215968553
 20
106.6807298397
 11
52.215968553
 21
106.6807298397
  0
LINE
  5
358
100
AcDbEntity
  8
0
100
AcDbLine
 62
2
  6
CONTINUOUS
 10
53.715968553
 20
106.7807298397
 11
65.715968553
 21
106.7807298397
  0
LINE
  5
359
100
AcDbEntity
  8
A_FLAECHEN
100
AcDbLine
 62
8
  6
HIDDEN
 10
68.6008863051
 20
107.4317719566
 11
70.6423253805
 21
107.4317719566
  0
LINE
  5
35A
100
AcDbEntity
  8
A_FLAECHEN
100
AcDbLine
 62
8
  6
HIDDEN
 10
68.4458239695
 20
107.4832736801
 11
70.5464584163
 21
107.4832736801
  0
LINE
  5
35B
100
AcDbEntity
  8
A_ACHSEN
100
AcDbLine
 62
7
  6
CENTER
 10
50.715968553
 20
108.7807298397
 11
73.715968553
 21
108.7807298397
  0
LINE
  5
35C
100
AcDbEntity
  8
0
100
AcDbLine
 62
7
  6
CONTINUOUS
 10
45.965968553
 20
109.6807298397
 11
43.215968553
 21
109.6807298397
  0
LINE
  5
35D
100
AcDbEntity
  8
A_FLAECHEN
100
AcDbLine
 62
8
  6
HIDDEN
 10
68.4458239695
 20
110.0781859993
 11
70.5464528539
 21
110.0781859993
  0
LINE
  5
35E
100
AcDbEntity
  8
A_FLAECHEN
100
AcDbLine
 62
8
  6
HIDDEN
 10
68.6008859241
 20
110.1296877227
 11
70.642300547
 21
110.1296877227
  0
LINE
  5
35F
100
AcDbEntity
  8
0
100
AcDbLine
 62
7
  6
CONTINUOUS
 10
43.715968553
 20
110.1807298397
 11
43.215968553
 21
110.1807298397
  0
LINE
  5
360
100
AcDbEntity
  8
0
100
AcDbLine
 62
2
  6
CONTINUOUS
 10
53.715968553
 20
110.7807298397
 11
65.715968553
 21
110.7807298397
  0
LINE
  5
361
100
AcDbEntity
  8
A_FLAECHEN
100
AcDbLine
 62
8
  6
HIDDEN
 10
68.7148033257
 20
111.0286456058
 11
70.715968553
 21
111.0286456058
  0
LINE
  5
362
100
AcDbEntity
  8
0
100
AcDbLine
 62
7
  6
CONTINUOUS
 10
43.715968553
 20
111.2374298397
 11
43.215968553
 21
111.2374298397
  0
LINE
  5
363
100
AcDbEntity
  8
0
100
AcDbLine
 62
7
  6
CONTINUOUS
 10
65.415968553
 20
111.2807298397
 11
54.215968553
 21
111.2807298397
  0
LINE
  5
364
100
AcDbEntity
  8
0
100
AcDbLine
 62
7
  6
CONTINUOUS
 10
43.715968553
 20
111.3106915331
 11
43.215968553
 21
111.3106915331
  0
LINE
  5
365
100
AcDbEntity
  8
0
100
AcDbLine
 62
7
  6
CONTINUOUS
 10
43.715968553
 20
111.4572149199
 11
43.215968553
 21
111.4572149199
  0
LINE
  5
366
100
AcDbEntity
  8
0
100
AcDbLine
 62
7
  6
CONTINUOUS
 10
43.715968553
 20
111.7502616934
 11
43.215968553
 21
111.7502616934
  0
LINE
  5
367
100
AcDbEntity
  8
0
100
AcDbLine
 62
7
  6
CONTINUOUS
 10
49.215968553
 20
111.7807298397
 11
52.015968553
 21
111.7807298397
  0
LINE
  5
368
100
AcDbEntity
  8
0
100
AcDbLine
 62
7
  6
CONTINUOUS
 10
49.215968553
 20
111.9307298397
 11
48.215968553
 21
111.9307298397
  0
LINE
  5
369
100
AcDbEntity
  8
0
100
AcDbLine
 62
7
  6
CONTINUOUS
 10
43.715968553
 20
112.043308467
 11
43.215968553
 21
112.043308467
  0
LINE
  5
36A
100
AcDbEntity
  8
0
100
AcDbLine
 62
7
  6
CONTINUOUS
 10
43.715968553
 20
112.4096171392
 11
43.215968553
 21
112.4096171392
  0
LINE
  5
36B
100
AcDbEntity
  8
QUER2
100
AcDbLine
 62
7
  6
CONTINUOUS
 10
62.715968553
 20
112.8807298397
 11
65.715968553
 21
112.8807298397
  0
LINE
  5
36C
100
AcDbEntity
  8
0
100
AcDbLine
 62
7
  6
CONTINUOUS
 10
70.415968553
 20
113.0307298397
 11
66.015968553
 21
113.0307298397
  0
LINE
  5
36D
100
AcDbEntity
  8
0
100
AcDbLine
 62
7
  6
CONTINUOUS
 10
43.715968553
 20
113.5085426428
 11
43.215968553
 21
113.5085426428
  0
LINE
  5
36E
100
AcDbEntity
  8
0
100
AcDbLine
 62
7
  6
CONTINUOUS
 10
43.715968553
 20
113.8748511097
 11
43.215968553
 21
113.8748511097
  0
LINE
  5
36F
100
AcDbEntity
  8
0
100
AcDbLine
 62
7
  6
CONTINUOUS
 10
43.715968553
 20
114.1678979346
 11
43.215968553
 21
114.1678979346
  0
LINE
  5
370
100
AcDbEntity
  8
0
100
AcDbLine
 62
7
  6
CONTINUOUS
 10
43.715968553
 20
114.4609447339
 11
43.215968553
 21
114.4609447339
  0
LINE
  5
371
100
AcDbEntity
  8
QUER2
100
AcDbLine
 62
7
  6
CONTINUOUS
 10
65.715968553
 20
114.5807298397
 11
71.715968553
 21
114.5807298397
  0
LINE
  5
372
100
AcDbEntity
  8
0
100
AcDbLine
 62
7
  6
CONTINUOUS
 10
43.715968553
 20
114.6074681399
 11
43.215968553
 21
114.6074681399
  0
LINE
  5
373
100
AcDbEntity
  8
0
100
AcDbLine
 62
7
  6
CONTINUOUS
 10
43.715968553
 20
114.6807298397
 11
43.215968553
 21
114.6807298397
  0
LINE
  5
374
100
AcDbEntity
  8
QUER2
100
AcDbLine
 62
7
  6
CONTINUOUS
 10
71.415968553
 20
115.3807298397
 11
63.015968553
 21
115.3807298397
  0
LINE
  5
375
100
AcDbEntity
  8
0
100
AcDbLine
 62
7
  6
CONTINUOUS
 10
43.715968553
 20
115.8529170366
 11
43.215968553
 21
115.8529170366
  0
LINE
  5
376
100
AcDbEntity
  8
0
100
AcDbLine
 62
7
  6
CONTINUOUS
 10
43.715968553
 20
116.1807298397
 11
43.215968553
 21
116.1807298397
  0
LINE
  5
377
100
AcDbEntity
  8
0
100
AcDbLine
 62
7
  6
CONTINUOUS
 10
173.2181801669
 20
109.675278638
 11
170.7181801703
 21
109.6754090482
  0
LINE
  5
378
100
AcDbEntity
  8
0
100
AcDbLine
 62
7
  6
CONTINUOUS
 10
188.2184409668
 20
114.6744961704
 11
173.2184409872
 21
114.6752786312
  0
LINE
  5
379
100
AcDbEntity
  8
0
100
AcDbLine
 62
7
  6
CONTINUOUS
 10
89.9926073137
 20
158.0488104974
 11
94.155661464
 21
146.6109130845
  0
LINE
  5
37A
100
AcDbEntity
  8
QUER2
100
AcDbLine
 62
7
  6
CONTINUOUS
 10
85.9885087829
 20
75.2937235158
 11
82.4529748769
 21
71.7581896099
  0
LINE
  5
37B
100
AcDbEntity
  8
0
100
AcDbLine
 62
7
  6
CONTINUOUS
 10
50.6897899434
 20
118.1613513321
 11
74.715968553
 21
118.5807298397
  0
LINE
  5
37C
100
AcDbEntity
  8
0
100
AcDbLine
 62
7
  6
CONTINUOUS
 10
56.7028787498
 20
116.8497125898
 11
62.715968553
 21
116.9021880296
  0
LINE
  5
37D
100
AcDbEntity
  8
A_RUNDUNGEN
100
AcDbLine
 62
7
  6
CONTINUOUS
 10
62.715968553
 20
116.9021880296
 11
67.6345711334
 21
116.945112024
  0
LINE
  5
37E
100
AcDbEntity
  8
0
100
AcDbLine
 62
7
  6
CONTINUOUS
 10
67.6345711334
 20
116.945112024
 11
71.715968553
 21
116.9807298397
  0
LINE
  5
37F
100
AcDbEntity
  8
0
100
AcDbLine
 62
7
  6
CONTINUOUS
 10
74.715968553
 20
117.1807298397
 11
53.5028787498
 21
116.9956060095
  0
LINE
  5
380
100
AcDbEntity
  8
0
100
AcDbLine
 62
7
  6
CONTINUOUS
 10
45.2054966254
 20
118.4772591651
 11
49.215968553
 21
118.4982581389
  0
LINE
  5
381
100
AcDbEntity
  8
A_RUNDUNGEN
100
AcDbLine
 62
7
  6
CONTINUOUS
 10
49.215968553
 20
118.4982581389
 11
74.515968553
 21
118.6307298397
  0
LINE
  5
382
100
AcDbEntity
  8
A_RUNDUNGEN
100
AcDbLine
 62
7
  6
CONTINUOUS
 10
53.515968553
 20
116.9057298397
 11
61.7028787498
 21
116.9057298397
  0
LINE
  5
383
100
AcDbEntity
  8
A_RUNDUNGEN
100
AcDbLine
 62
7
  6
CONTINUOUS
 10
76.215968553
 20
118.5807298397
 11
74.715968553
 21
118.5807298397
  0
LINE
  5
384
100
AcDbEntity
  8
0
100
AcDbLine
 62
7
  6
CONTINUOUS
 10
43.215968553
 20
118.6807298397
 11
76.215968553
 21
118.6807298397
  0
LINE
  5
385
100
AcDbEntity
  8
0
100
AcDbLine
 62
7
  6
CONTINUOUS
 10
67.715968553
 20
122.6807298397
 11
76.215968553
 21
122.6807298397
  0
LINE
  5
386
100
AcDbEntity
  8
0
100
AcDbLine
 62
7
  6
CONTINUOUS
 10
84.1013322568
 20
121.6799273507
 11
98.3797062374
 21
121.6791825328
  0
LINE
  5
387
100
AcDbEntity
  8
0
100
AcDbLine
 62
7
  6
CONTINUOUS
 10
25.9185865191
 20
117.78332484
 11
18.2028787401
 21
117.8506588468
  0
LINE
  5
388
100
AcDbEntity
  8
QUER2
100
AcDbLine
 62
7
  6
CONTINUOUS
 10
84.8498734362
 20
75.7657029471
 11
85.2977812544
 21
75.9745657928
  0
LINE
  5
389
100
AcDbEntity
  8
QUER2
100
AcDbLine
 62
7
  6
CONTINUOUS
 10
79.4738061173
 20
74.918697102
 11
81.0819872268
 21
75.6405916029
  0
LINE
  5
38A
100
AcDbEntity
  8
0
100
AcDbLine
 62
7
  6
CONTINUOUS
 10
192.5607033018
 20
119.322739615
 11
190.6925886095
 21
118.6429127077
  0
LINE
  5
38B
100
AcDbEntity
  8
0
100
AcDbLine
 62
7
  6
CONTINUOUS
 10
76.349943553
 20
127.6807298397
 11
67.715968553
 21
127.6807298397
  0
LINE
  5
38C
100
AcDbEntity
  8
0
100
AcDbLine
 62
7
  6
CONTINUOUS
 10
92.715968553
 20
128.1807298397
 11
77.215968553
 21
128.1807298397
  0
LINE
  5
38D
100
AcDbEntity
  8
0
100
AcDbLine
 62
7
  6
CONTINUOUS
 10
100.7163336579
 20
74.2790605803
 11
100.2163075766
 21
73.779086663
  0
LINE
  5
38E
100
AcDbEntity
  8
0
100
AcDbLine
 62
7
  6
CONTINUOUS
 10
18.2028787401
 20
135.5108008326
 11
25.9185865104
 21
135.5781348393
  0
LINE
  5
38F
100
AcDbEntity
  8
0
100
AcDbLine
 62
7
  6
CONTINUOUS
 10
104.0290333625
 20
134.6788878587
 11
185.237352252
 21
134.6746517033
  0
LINE
  5
390
100
AcDbEntity
  8
0
100
AcDbLine
 62
7
  6
CONTINUOUS
 10
19.389616882
 20
155.121129958
 11
17.0423204252
 21
155.5350218622
  0
LINE
  5
391
100
AcDbEntity
  8
0
100
AcDbLine
 62
7
  6
CONTINUOUS
 10
25.9185865384
 20
148.7833248398
 11
20.7116052499
 21
148.8287658423
  0
LINE
  5
392
100
AcDbEntity
  8
0
100
AcDbLine
 62
7
  6
CONTINUOUS
 10
188.7184670481
 20
115.1744700877
 11
188.2184409668
 21
114.6744961704
  0
LINE
  5
393
100
AcDbEntity
  8
0
100
AcDbLine
 62
7
  6
CONTINUOUS
 10
18.215968553
 20
160.6807298397
 11
86.233836553
 21
160.6807298397
  0
LINE
  5
394
100
AcDbEntity
  8
0
100
AcDbLine
 62
7
  6
CONTINUOUS
 10
168.7155198061
 20
58.6755134457
 11
168.7155542813
 21
59.3364134448
  0
LINE
  5
395
100
AcDbEntity
  8
0
100
AcDbLine
 62
7
  6
CONTINUOUS
 10
170.7181801703
 20
109.6754090482
 11
170.7177628578
 21
101.6754090591
  0
LINE
  5
396
100
AcDbEntity
  8
0
100
AcDbLine
 62
7
  6
CONTINUOUS
 10
173.2184409872
 20
114.6752786312
 11
173.2181801669
 21
109.675278638
  0
LINE
  5
397
100
AcDbEntity
  8
0
100
AcDbLine
 62
7
  6
CONTINUOUS
 10
173.2177628544
 20
101.6752786489
 11
173.2156613222
 21
61.3882997037
  0
LINE
  5
398
100
AcDbEntity
  8
0
100
AcDbLine
 62
7
  6
CONTINUOUS
 10
188.718500927
 20
115.8239370868
 11
188.7184670481
 21
115.1744700877
  0
LINE
  5
399
100
AcDbEntity
  8
0
100
AcDbLine
 62
7
  6
CONTINUOUS
 10
188.9959848329
 20
132.0425359704
 11
193.1584423303
 21
120.6044214113
  0
ARC
  5
39A
100
AcDbEntity
  8
0
100
AcDbCircle
 62
7
  6
CONTINUOUS
 10
45.215968553
 20
90.8841730988
 40
2.0
100
AcDbArc
 50
180.0
 51
269.7
  0
ARC
  5
39B
100
AcDbEntity
  8
0
100
AcDbCircle
 62
7
  6
CONTINUOUS
 10
18.215968553
 20
84.6807298397
 40
2.0
100
AcDbArc
 50
180.0
 51
270.0
  0
ARC
  5
39C
100
AcDbEntity
  8
0
100
AcDbCircle
 62
7
  6
CONTINUOUS
 10
56.715968553
 20
92.0116899741
 40
1.5
100
AcDbArc
 50
180.0
 51
269.5
  0
ARC
  5
39D
100
AcDbEntity
  8
0
100
AcDbCircle
 62
7
  6
CONTINUOUS
 10
50.715968553
 20
90.69987989
 40
1.5
100
AcDbArc
 50
180.0
 51
269.0
  0
ARC
  5
39E
100
AcDbEntity
  8
0
100
AcDbCircle
 62
7
  6
CONTINUOUS
 10
53.515968553
 20
91.8657965544
 40
1.5
100
AcDbArc
 50
180.0
 51
269.5
  0
ARC
  5
39F
100
AcDbEntity
  8
A_RUNDUNGEN
100
AcDbCircle
 62
7
  6
CONTINUOUS
 10
53.515968553
 20
91.9557298397
 40
1.5
100
AcDbArc
 50
183.4310820436
 51
270.0
  0
ARC
  5
3A0
100
AcDbEntity
  8
0
100
AcDbCircle
 62
7
  6
CONTINUOUS
 10
17.715968553
 20
103.0064938397
 40
1.5
100
AcDbArc
 50
90.5000042622
 51
180.0
  0
ARC
  5
3A1
100
AcDbEntity
  8
A_RUNDUNGEN
100
AcDbCircle
 62
7
  6
CONTINUOUS
 10
58.115968553
 20
91.3256339234
 40
1.0
100
AcDbArc
 50
235.7510301834
 51
239.6666666658
  0
ARC
  5
3A2
100
AcDbEntity
  8
0
100
AcDbCircle
 62
7
  6
CONTINUOUS
 10
25.915968553
 20
104.8781228397
 40
0.3
100
AcDbArc
 50
270.5000042622
 51
360.0
  0
ARC
  5
3A3
100
AcDbEntity
  8
QUER2
100
AcDbCircle
 62
7
  6
CONTINUOUS
 10
68.8026672936
 20
67.0034574455
 40
13.3928774596
100
AcDbArc
 50
62.727386009
 51
67.20682206
  0
ARC
  5
3A4
100
AcDbEntity
  8
QUER2
100
AcDbCircle
 62
7
  6
CONTINUOUS
 10
68.8026672936
 20
67.0034574455
 40
13.3928774596
100
AcDbArc
 50
55.2845037669
 51
59.2844205334
  0
ARC
  5
3A5
100
AcDbEntity
  8
QUER2
100
AcDbCircle
 62
7
  6
CONTINUOUS
 10
68.8026672936
 20
67.0034574455
 40
13.3928774596
100
AcDbArc
 50
47.7810361635
 51
51.8421451123
  0
ARC
  5
3A6
100
AcDbEntity
  8
QUER2
100
AcDbCircle
 62
7
  6
CONTINUOUS
 10
68.8026672936
 20
67.0034574455
 40
13.3928774596
100
AcDbArc
 50
39.9704349704
 51
44.3393766357
  0
ARC
  5
3A7
100
AcDbEntity
  8
QUER2
100
AcDbCircle
 62
7
  6
CONTINUOUS
 10
68.8026672936
 20
67.0034574455
 40
13.3928774596
100
AcDbArc
 50
77.598515657
 51
97.5210600325
  0
ARC
  5
3A8
100
AcDbEntity
  8
QUER2
100
AcDbCircle
 62
7
  6
CONTINUOUS
 10
68.8026672936
 20
67.0034574455
 40
11.478516903
100
AcDbArc
 50
30.8333048429
 51
97.8460018237
  0
ARC
  5
3A9
100
AcDbEntity
  8
0
100
AcDbCircle
 62
7
  6
CONTINUOUS
 10
68.715968553
 20
67.2807298397
 40
5.5
100
AcDbArc
 50
65.3896182519
 51
294.6095855165
  0
ARC
  5
3AA
100
AcDbEntity
  8
QUER2
100
AcDbCircle
 62
7
  6
CONTINUOUS
 10
68.715968553
 20
67.2807298397
 40
5.0
100
AcDbArc
 50
90.0
 51
270.0
  0
ARC
  5
3AB
100
AcDbEntity
  8
0
100
AcDbCircle
 62
7
  6
CONTINUOUS
 10
66.2155721096
 20
59.6808602602
 40
3.0
100
AcDbArc
 50
179.9970112197
 51
269.9970112197
  0
CIRCLE
  5
3AC
100
AcDbEntity
  8
QUER2
100
AcDbCircle
 62
7
  6
CONTINUOUS
 10
68.715968553
 20
67.2807298397
 40
2.5
  0
CIRCLE
  5
3AD
100
AcDbEntity
  8
A_ACHSEN
100
AcDbCircle
 62
7
  6
CONTINUOUS
 10
68.715968553
 20
67.2807298397
 40
2.45
  0
CIRCLE
  5
3AE
100
AcDbEntity
  8
A_ACHSEN
100
AcDbCircle
 62
7
  6
CONTINUOUS
 10
68.715968553
 20
67.2807298397
 40
1.6215728753
  0
ARC
  5
3AF
100
AcDbEntity
  8
QUER2
100
AcDbCircle
 62
7
  6
CONTINUOUS
 10
75.715968553
 20
82.0307298397
 40
19.75
100
AcDbArc
 50
270.0
 51
90.0
  0
ARC
  5
3B0
100
AcDbEntity
  8
QUER2
100
AcDbCircle
 62
7
  6
CONTINUOUS
 10
75.715968553
 20
82.0307298397
 40
9.75
100
AcDbArc
 50
270.0
 51
301.8763603803
  0
ARC
  5
3B1
100
AcDbEntity
  8
QUER2
100
AcDbCircle
 62
7
  6
CONTINUOUS
 10
75.715968553
 20
82.0307298397
 40
9.75
100
AcDbArc
 50
328.1236396197
 51
90.0
  0
ARC
  5
3B2
100
AcDbEntity
  8
QUER2
100
AcDbCircle
 62
7
  6
CONTINUOUS
 10
75.8824231942
 20
81.7019230324
 40
9.6414848656
100
AcDbArc
 50
290.547271683
 51
301.8587620103
  0
ARC
  5
3B3
100
AcDbEntity
  8
QUER2
100
AcDbCircle
 62
7
  6
CONTINUOUS
 10
75.8824231942
 20
81.7019230324
 40
9.6414848656
100
AcDbArc
 50
328.2593605105
 51
340.8200823557
  0
ARC
  5
3B4
100
AcDbEntity
  8
QUER2
100
AcDbCircle
 62
7
  6
CONTINUOUS
 10
78.8197702308
 20
80.6801848317
 40
6.5315079261
100
AcDbArc
 50
352.5872491716
 51
180.8619182248
  0
ARC
  5
3B5
100
AcDbEntity
  8
QUER2
100
AcDbCircle
 62
7
  6
CONTINUOUS
 10
78.8197702308
 20
80.6801848317
 40
5.5240497507
100
AcDbArc
 50
294.1747780881
 51
176.5890765054
  0
ARC
  5
3B6
100
AcDbEntity
  8
0
100
AcDbCircle
 62
7
  6
CONTINUOUS
 10
65.2163545718
 20
74.6809124038
 40
2.0
100
AcDbArc
 50
89.9970112197
 51
179.9970112197
  0
ARC
  5
3B7
100
AcDbEntity
  8
QUER2
100
AcDbCircle
 62
7
  6
CONTINUOUS
 10
81.1816794897
 20
73.2416170314
 40
0.6
100
AcDbArc
 50
350.0
 51
121.8763603803
  0
ARC
  5
3B8
100
AcDbEntity
  8
QUER2
100
AcDbCircle
 62
7
  6
CONTINUOUS
 10
81.2795534836
 20
73.0171438081
 40
0.5837
100
AcDbArc
 50
8.4071409463
 51
121.8587620103
  0
ARC
  5
3B9
100
AcDbEntity
  8
QUER2
100
AcDbCircle
 62
7
  6
CONTINUOUS
 10
79.0901081921
 20
73.1441107001
 40
0.5022619795
100
AcDbArc
 50
210.8333048429
 51
290.547271683
  0
ARC
  5
3BA
100
AcDbEntity
  8
QUER2
100
AcDbCircle
 62
7
  6
CONTINUOUS
 10
71.7867961855
 20
80.574377635
 40
0.5022619795
100
AcDbArc
 50
257.598515657
 51
0.8619182248
  0
ARC
  5
3BB
100
AcDbEntity
  8
QUER2
100
AcDbCircle
 62
7
  6
CONTINUOUS
 10
73.6188347887
 20
79.503054829
 40
0.4023630867
100
AcDbArc
 50
176.5890765054
 51
337.7153682265
  0
ARC
  5
3BC
100
AcDbEntity
  8
QUER2
100
AcDbCircle
 62
7
  6
CONTINUOUS
 10
75.2938009536
 20
78.716618515
 40
0.4023630867
100
AcDbArc
 50
151.6741664759
 51
330.3376400666
  0
ARC
  5
3BD
100
AcDbEntity
  8
QUER2
100
AcDbCircle
 62
7
  6
CONTINUOUS
 10
76.758844544
 20
77.7805040403
 40
0.4023630867
100
AcDbArc
 50
144.829576765
 51
322.2970721142
  0
ARC
  5
3BE
100
AcDbEntity
  8
QUER2
100
AcDbCircle
 62
7
  6
CONTINUOUS
 10
78.083473086
 20
76.6342450558
 40
0.4023630867
100
AcDbArc
 50
134.3466524339
 51
317.7737603653
  0
ARC
  5
3BF
100
AcDbEntity
  8
QUER2
100
AcDbCircle
 62
7
  6
CONTINUOUS
 10
79.309029793
 20
75.2857731384
 40
0.4023630867
100
AcDbArc
 50
127.0417644818
 51
294.1747780881
  0
ARC
  5
3C0
100
AcDbEntity
  8
QUER2
100
AcDbCircle
 62
7
  6
CONTINUOUS
 10
67.1942374664
 20
78.6755776148
 40
0.3039037208
100
AcDbArc
 50
184.5937440552
 51
277.8460018237
  0
ARC
  5
3C1
100
AcDbEntity
  8
QUER2
100
AcDbCircle
 62
7
  6
CONTINUOUS
 10
67.0894435927
 20
79.9798243518
 40
0.3039037208
100
AcDbArc
 50
97.5210600325
 51
184.5937440552
  0
ARC
  5
3C2
100
AcDbEntity
  8
0
100
AcDbCircle
 62
7
  6
CONTINUOUS
 10
92.2160467672
 20
68.7795039823
 40
5.0
100
AcDbArc
 50
269.9970112197
 51
359.9970112197
  0
ARC
  5
3C3
100
AcDbEntity
  8
0
100
AcDbCircle
 62
7
  6
CONTINUOUS
 10
98.7157956357
 20
63.9650716024
 40
2.0
100
AcDbArc
 50
270.2970112197
 51
359.9970112197
  0
ARC
  5
3C4
100
AcDbEntity
  8
A_RUNDUNGEN
100
AcDbCircle
 62
7
  6
CONTINUOUS
 10
94.2164782602
 20
77.0500466841
 40
2.999999909
100
AcDbArc
 50
270.4970099889
 51
289.59534621
  0
ARC
  5
3C5
100
AcDbEntity
  8
QUER2
100
AcDbCircle
 62
7
  6
CONTINUOUS
 10
84.594931599
 20
76.3124274813
 40
0.6032437788
100
AcDbArc
 50
148.2593605105
 51
295.0
  0
ARC
  5
3C6
100
AcDbEntity
  8
QUER2
100
AcDbCircle
 62
7
  6
CONTINUOUS
 10
84.5050813613
 20
76.565018903
 40
0.6
100
AcDbArc
 50
148.1236396197
 51
280.0
  0
ARC
  5
3C7
100
AcDbEntity
  8
QUER2
100
AcDbCircle
 62
7
  6
CONTINUOUS
 10
82.2252864934
 20
72.2376080075
 40
0.5
100
AcDbArc
 50
170.9328996899
 51
315.0
  0
ARC
  5
3C8
100
AcDbEntity
  8
QUER2
100
AcDbCircle
 62
7
  6
CONTINUOUS
 10
85.5090903852
 20
75.5214118993
 40
0.5
100
AcDbArc
 50
315.0
 51
115.0
  0
ARC
  5
3C9
100
AcDbEntity
  8
QUER2
100
AcDbCircle
 62
7
  6
CONTINUOUS
 10
85.6349553923
 20
75.6472769064
 40
0.5
100
AcDbArc
 50
315.0
 51
100.0
  0
ARC
  5
3CA
100
AcDbEntity
  8
QUER2
100
AcDbCircle
 62
7
  6
CONTINUOUS
 10
82.0994214864
 20
72.1117430004
 40
0.5
100
AcDbArc
 50
170.0
 51
315.0
  0
ARC
  5
3CB
100
AcDbEntity
  8
0
100
AcDbCircle
 62
7
  6
CONTINUOUS
 10
78.0229379892
 20
103.6807298397
 40
3.5547736725
100
AcDbArc
 50
175.9671753207
 51
184.0328246793
  0
ARC
  5
3CC
100
AcDbEntity
  8
0
100
AcDbCircle
 62
7
  6
CONTINUOUS
 10
98.7176802285
 20
100.0932581934
 40
2.0
100
AcDbArc
 50
359.9970112197
 51
89.6970112197
  0
ARC
  5
3CD
100
AcDbEntity
  8
0
100
AcDbCircle
 62
7
  6
CONTINUOUS
 10
74.215968553
 20
84.6807298397
 40
2.0
100
AcDbArc
 50
270.0
 51
360.0
  0
ARC
  5
3CE
100
AcDbEntity
  8
0
100
AcDbCircle
 62
7
  6
CONTINUOUS
 10
95.7175918508
 20
98.3991113163
 40
1.5
100
AcDbArc
 50
359.9970112197
 51
88.4970112197
  0
ARC
  5
3CF
100
AcDbEntity
  8
QUER2
100
AcDbCircle
 62
7
  6
CONTINUOUS
 10
73.215968553
 20
103.2807298397
 40
1.5
100
AcDbArc
 50
180.0
 51
270.0
  0
ARC
  5
3D0
100
AcDbEntity
  8
0
100
AcDbCircle
 62
7
  6
CONTINUOUS
 10
86.9184368984
 20
101.1308450135
 40
1.0
100
AcDbArc
 50
255.4227950216
 51
268.4970112197
  0
ARC
  5
3D1
100
AcDbEntity
  8
A_RUNDUNGEN
100
AcDbCircle
 62
7
  6
CONTINUOUS
 10
65.415968553
 20
105.9807298397
 40
0.3
100
AcDbArc
 50
0.0007005519
 51
90.0
  0
ARC
  5
3D2
100
AcDbEntity
  8
A_RUNDUNGEN
100
AcDbCircle
 62
7
  6
CONTINUOUS
 10
66.015968553
 20
104.8307298397
 40
0.3
100
AcDbArc
 50
179.9999923139
 51
270.0
  0
ARC
  5
3D3
100
AcDbEntity
  8
A_RUNDUNGEN
100
AcDbCircle
 62
7
  6
CONTINUOUS
 10
70.415968553
 20
104.8307298397
 40
0.3
100
AcDbArc
 50
270.0
 51
0.0001801248
  0
ARC
  5
3D4
100
AcDbEntity
  8
QUER2
100
AcDbCircle
 62
7
  6
CONTINUOUS
 10
63.015968553
 20
92.0807298397
 40
0.3
100
AcDbArc
 50
180.0
 51
270.0
  0
ARC
  5
3D5
100
AcDbEntity
  8
0
100
AcDbCircle
 62
7
  6
CONTINUOUS
 10
86.233836553
 20
156.6807298397
 40
4.0
100
AcDbArc
 50
19.9999997762
 51
90.0
  0
ARC
  5
3D6
100
AcDbEntity
  8
0
100
AcDbCircle
 62
7
  6
CONTINUOUS
 10
104.0288768703
 20
131.6788878627
 40
2.9999996523
100
AcDbArc
 50
89.9970112197
 51
169.9970130131
  0
ARC
  5
3D7
100
AcDbEntity
  8
0
100
AcDbCircle
 62
7
  6
CONTINUOUS
 10
45.215968553
 20
116.4772865806
 40
2.0
100
AcDbArc
 50
90.3
 51
180.0
  0
ARC
  5
3D8
100
AcDbEntity
  8
0
100
AcDbCircle
 62
7
  6
CONTINUOUS
 10
18.215968553
 20
158.6807298397
 40
2.0
100
AcDbArc
 50
90.0
 51
180.0
  0
ARC
  5
3D9
100
AcDbEntity
  8
0
100
AcDbCircle
 62
7
  6
CONTINUOUS
 10
84.1012279287
 20
119.6799273534
 40
1.999999563
100
AcDbArc
 50
89.9970112197
 51
174.9970105026
  0
ARC
  5
3DA
100
AcDbEntity
  8
0
100
AcDbCircle
 62
7
  6
CONTINUOUS
 10
18.215968553
 20
119.3506018397
 40
1.5000001084
100
AcDbArc
 50
180.0
 51
269.4999996651
  0
ARC
  5
3DB
100
AcDbEntity
  8
0
100
AcDbCircle
 62
7
  6
CONTINUOUS
 10
56.715968553
 20
115.3497697052
 40
1.5
100
AcDbArc
 50
90.5
 51
180.0
  0
ARC
  5
3DC
100
AcDbEntity
  8
0
100
AcDbCircle
 62
7
  6
CONTINUOUS
 10
50.715968553
 20
116.6615797893
 40
1.5
100
AcDbArc
 50
91.0
 51
180.0
  0
ARC
  5
3DD
100
AcDbEntity
  8
A_RUNDUNGEN
100
AcDbCircle
 62
7
  6
CONTINUOUS
 10
53.515968553
 20
115.4057298397
 40
1.5
100
AcDbArc
 50
90.0
 51
176.5689179564
  0
ARC
  5
3DE
100
AcDbEntity
  8
0
100
AcDbCircle
 62
7
  6
CONTINUOUS
 10
53.515968553
 20
115.4956631249
 40
1.5
100
AcDbArc
 50
90.5
 51
180.0
  0
ARC
  5
3DF
100
AcDbEntity
  8
0
100
AcDbCircle
 62
7
  6
CONTINUOUS
 10
18.215968553
 20
134.0108578397
 40
1.5
100
AcDbArc
 50
90.5000003349
 51
180.0
  0
ARC
  5
3E0
100
AcDbEntity
  8
0
100
AcDbCircle
 62
7
  6
CONTINUOUS
 10
92.715968553
 20
129.6807298397
 40
1.5
100
AcDbArc
 50
270.0
 51
360.0
  0
ARC
  5
3E1
100
AcDbEntity
  8
0
100
AcDbCircle
 62
7
  6
CONTINUOUS
 10
19.215968553
 20
154.1363218397
 40
1.000000386
100
AcDbArc
 50
0.0
 51
79.9999950958
  0
ARC
  5
3E2
100
AcDbEntity
  8
0
100
AcDbCircle
 62
7
  6
CONTINUOUS
 10
98.3797584015
 20
122.6791825314
 40
1.000000386
100
AcDbArc
 50
269.9970112197
 51
349.9970130131
  0
ARC
  5
3E3
100
AcDbEntity
  8
0
100
AcDbCircle
 62
7
  6
CONTINUOUS
 10
93.215968553
 20
146.2688928397
 40
1.0000003073
100
AcDbArc
 50
0.0
 51
19.9999997762
  0
ARC
  5
3E4
100
AcDbEntity
  8
0
100
AcDbCircle
 62
7
  6
CONTINUOUS
 10
77.215968553
 20
127.1807298397
 40
0.9999993981
100
AcDbArc
 50
90.0
 51
149.9999884324
  0
ARC
  5
3E5
100
AcDbEntity
  8
0
100
AcDbCircle
 62
7
  6
CONTINUOUS
 10
17.215968553
 20
156.5198288397
 40
0.9999992276
100
AcDbArc
 50
180.0
 51
259.9999950958
  0
ARC
  5
3E6
100
AcDbEntity
  8
A_RUNDUNGEN
100
AcDbCircle
 62
7
  6
CONTINUOUS
 10
58.1159457169
 20
116.0358255567
 40
0.999992388
100
AcDbArc
 50
120.3325947204
 51
124.247925682
  0
ARC
  5
3E7
100
AcDbEntity
  8
0
100
AcDbCircle
 62
7
  6
CONTINUOUS
 10
20.715968553
 20
149.3287468397
 40
0.5000000361
100
AcDbArc
 50
180.0
 51
269.4999959815
  0
ARC
  5
3E8
100
AcDbEntity
  8
0
100
AcDbCircle
 62
7
  6
CONTINUOUS
 10
25.915968553
 20
148.4833358397
 40
0.3000004234
100
AcDbArc
 50
0.0
 51
89.4999959815
  0
ARC
  5
3E9
100
AcDbEntity
  8
0
100
AcDbCircle
 62
7
  6
CONTINUOUS
 10
25.915968553
 20
117.4833358397
 40
0.3000004234
100
AcDbArc
 50
0.0
 51
89.4999996651
  0
ARC
  5
3EA
100
AcDbEntity
  8
A_RUNDUNGEN
100
AcDbCircle
 62
7
  6
CONTINUOUS
 10
65.415968553
 20
111.5807298397
 40
0.3
100
AcDbArc
 50
270.0
 51
359.9992994481
  0
ARC
  5
3EB
100
AcDbEntity
  8
A_RUNDUNGEN
100
AcDbCircle
 62
7
  6
CONTINUOUS
 10
66.015968553
 20
112.7307298397
 40
0.3
100
AcDbArc
 50
90.0
 51
180.0000076861
  0
ARC
  5
3EC
100
AcDbEntity
  8
A_RUNDUNGEN
100
AcDbCircle
 62
7
  6
CONTINUOUS
 10
70.415968553
 20
112.7307298397
 40
0.3
100
AcDbArc
 50
359.9998198752
 51
90.0
  0
ARC
  5
3ED
100
AcDbEntity
  8
QUER2
100
AcDbCircle
 62
7
  6
CONTINUOUS
 10
63.015968553
 20
115.0807298397
 40
0.3
100
AcDbArc
 50
90.0
 51
180.0
  0
ARC
  5
3EE
100
AcDbEntity
  8
QUER2
100
AcDbCircle
 62
7
  6
CONTINUOUS
 10
71.415968553
 20
115.0807298397
 40
0.3
100
AcDbArc
 50
0.0
 51
90.0
  0
ARC
  5
3EF
100
AcDbEntity
  8
0
100
AcDbCircle
 62
7
  6
CONTINUOUS
 10
25.915968553
 20
135.8781228397
 40
0.3
100
AcDbArc
 50
270.5000003349
 51
360.0
  0
ARC
  5
3F0
100
AcDbEntity
  8
0
100
AcDbCircle
 62
7
  6
CONTINUOUS
 10
166.7155198088
 20
58.6756177738
 40
2.0
100
AcDbArc
 50
269.9970112197
 51
359.9970112197
  0
ARC
  5
3F1
100
AcDbEntity
  8
0
100
AcDbCircle
 62
7
  6
CONTINUOUS
 10
169.71555428
 20
59.3363612807
 40
1.0
100
AcDbArc
 50
99.9970080932
 51
179.9970112197
  0
ARC
  5
3F2
100
AcDbEntity
  8
0
100
AcDbCircle
 62
7
  6
CONTINUOUS
 10
172.7156613228
 20
61.3883257858
 40
0.5
100
AcDbArc
 50
279.9970080932
 51
359.9970112197
  0
ARC
  5
3F3
100
AcDbEntity
  8
0
100
AcDbCircle
 62
7
  6
CONTINUOUS
 10
185.2371435957
 20
130.6746517087
 40
4.0
100
AcDbArc
 50
19.9970109958
 51
89.9970112197
  0
ARC
  5
3F4
100
AcDbEntity
  8
0
100
AcDbCircle
 62
7
  6
CONTINUOUS
 10
191.7185009229
 20
115.8237805946
 40
3.0
100
AcDbArc
 50
109.9969874083
 51
179.9970112197
  0
ARC
  5
3F5
100
AcDbEntity
  8
0
100
AcDbCircle
 62
7
  6
CONTINUOUS
 10
192.2187324626
 20
120.2624505065
 40
0.9999993676
100
AcDbArc
 50
289.9969874083
 51
19.9970109958
  0
SPLINE
  5
3F6
100
AcDbEntity
  8
DEFAULT_2
100
AcDbSpline
 62
8
  6
HIDDEN
 70
0
 71
3
 72
16
 73
12
 74
0
 42
0.0000001
 43
0.0000001
 44
0.0000000001
 40
0.0
 40
0.0
 40
0.0
 40
0.0
 40
0.3903798779
 40
0.5625679588
 40
0.7120202215
 40
0.8342206317
 40
0.9248405847
 40
0.9573082391
 40
0.9808415989
 40
0.9951643057
 40
1.0
 40
1.0
 40
1.0
 40
1.0
 10
70.6053658006
 20
106.8784357487
 30
0.0
 10
70.6196307565
 20
106.8334205297
 30
0.0
 10
70.6402632304
 20
106.7685735473
 30
0.0
 10
70.6664919044
 20
106.6865376499
 30
0.0
 10
70.6829113849
 20
106.6354193974
 30
0.0
 10
70.6962892545
 20
106.5936968136
 30
0.0
 10
70.7054881182
 20
106.5654727523
 30
0.0
 10
70.7108036922
 20
106.5485729085
 30
0.0
 10
70.7136415754
 20
106.5405145997
 30
0.0
 10
70.7148290556
 20
106.5355353977
 30
0.0
 10
70.7159623641
 20
106.533398979
 30
0.0
 10
70.715968575
 20
106.5328140736
 30
0.0
  0
SPLINE
  5
3F7
100
AcDbEntity
  8
DEFAULT_2
100
AcDbSpline
 62
8
  6
HIDDEN
 70
0
 71
3
 72
13
 73
9
 74
0
 42
0.0000001
 43
0.0000001
 44
0.0000000001
 40
0.0
 40
0.0
 40
0.0
 40
0.0
 40
0.3823170071
 40
0.7042352415
 40
0.828763902
 40
0.9220602523
 40
0.9800639013
 40
1.0
 40
1.0
 40
1.0
 40
1.0
 10
68.5439598239
 20
106.8784357487
 30
0.0
 10
68.5670312476
 20
106.8350500235
 30
0.0
 10
68.6085176333
 20
106.7545915456
 30
0.0
 10
68.6553392226
 20
106.6589056257
 30
0.0
 10
68.6852718131
 20
106.5963282061
 30
0.0
 10
68.7000718969
 20
106.5640997566
 30
0.0
 10
68.7098296748
 20
106.5443899047
 30
0.0
 10
68.7135222231
 20
106.5350331428
 30
0.0
 10
68.7148034033
 20
106.5328140736
 30
0.0
  0
SPLINE
  5
3F8
100
AcDbEntity
  8
DEFAULT_2
100
AcDbSpline
 62
8
  6
HIDDEN
 70
0
 71
3
 72
13
 73
9
 74
0
 42
0.0000001
 43
0.0000001
 44
0.0000000001
 40
0.0
 40
0.0
 40
0.0
 40
0.0
 40
0.0628689377
 40
0.1340931028
 40
0.222776558
 40
0.3333361504
 40
0.6251621043
 40
1.0
 40
1.0
 40
1.0
 40
1.0
 10
70.6436887518
 20
110.1296077922
 30
0.0
 10
70.6489570437
 20
110.1296242855
 30
0.0
 10
70.6603694692
 20
110.1268303624
 30
0.0
 10
70.6748778843
 20
110.1143704837
 30
0.0
 10
70.6871012445
 20
110.0950632786
 30
0.0
 10
70.7021988987
 20
110.0566040075
 30
0.0
 10
70.7133939399
 20
109.991952509
 30
0.0
 10
70.7159685564
 20
109.9360985784
 30
0.0
 10
70.7159685557
 20
109.9046877547
 30
0.0
  0
SPLINE
  5
3F9
100
AcDbEntity
  8
DEFAULT_2
100
AcDbSpline
 62
8
  6
HIDDEN
 70
0
 71
3
 72
17
 73
13
 74
0
 42
0.0000001
 43
0.0000001
 44
0.0000000001
 40
0.0
 40
0.0
 40
0.0
 40
0.0
 40
0.0314594513
 40
0.063630326
 40
0.1002171407
 40
0.1435921279
 40
0.2545267375
 40
0.3953624568
 40
0.5534361924
 40
0.7147952759
 40
0.8664254743
 40
1.0
 40
1.0
 40
1.0
 40
1.0
 10
68.6070620613
 20
110.1295512561
 30
0.0
 10
68.6160703359
 20
110.1294824473
 30
0.0
 10
68.6345069093
 20
110.1263703037
 30
0.0
 10
68.6594026833
 20
110.1108123231
 30
0.0
 10
68.6796304126
 20
110.0852900128
 30
0.0
 10
68.702625159
 20
110.0353153049
 30
0.0
 10
68.7164159029
 20
109.9507447805
 30
0.0
 10
68.7144680733
 20
109.8331705146
 30
0.0
 10
68.6945394306
 20
109.7024828554
 30
0.0
 10
68.6585754131
 20
109.5721340391
 30
0.0
 10
68.6091351334
 20
109.4538514674
 30
0.0
 10
68.5669619592
 20
109.383354263
 30
0.0
 10
68.5439598239
 20
109.3527939471
 30
0.0
  0
SPLINE
  5
3FA
100
AcDbEntity
  8
DEFAULT_2
100
AcDbSpline
 62
8
  6
HIDDEN
 70
0
 71
3
 72
21
 73
17
 74
0
 42
0.0000001
 43
0.0000001
 44
0.0000000001
 40
0.0
 40
0.0
 40
0.0
 40
0.0
 40
0.0012141761
 40
0.0048337895
 40
0.0108244702
 40
0.0191518484
 40
0.0426792177
 40
0.0751409396
 40
0.116262058
 40
0.1657533446
 40
0.2231645762
 40
0.2879439606
 40
0.437393674
 40
0.609596116
 40
0.7991324087
 40
1.0
 40
1.0
 40
1.0
 40
1.0
 10
70.715968575
 20
111.0286456058
 30
0.0
 10
70.7160987399
 20
111.0285775774
 30
0.0
 10
70.7154933125
 20
111.0278473084
 30
0.0
 10
70.7154987698
 20
111.0267684663
 30
0.0
 10
70.71460189
 20
111.0246101204
 30
0.0
 10
70.7133317231
 20
111.0203103988
 30
0.0
 10
70.710839309
 20
111.0128657836
 30
0.0
 10
70.7072791196
 20
111.0017065486
 30
0.0
 10
70.7026912131
 20
110.987530335
 30
0.0
 10
70.6972056897
 20
110.970490717
 30
0.0
 10
70.6908394375
 20
110.9507219158
 30
0.0
 10
70.6807817376
 20
110.9194413724
 30
0.0
 10
70.666499346
 20
110.8749326242
 30
0.0
 10
70.6476638529
 20
110.8160366153
 30
0.0
 10
70.6269983824
 20
110.7511957289
 30
0.0
 10
70.6127057473
 20
110.7061862391
 30
0.0
 10
70.6053658006
 20
110.6830239307
 30
0.0
  0
SPLINE
  5
3FB
100
AcDbEntity
  8
DEFAULT_2
100
AcDbSpline
 62
8
  6
HIDDEN
 70
0
 71
3
 72
21
 73
17
 74
0
 42
0.0000001
 43
0.0000001
 44
0.0000000001
 40
0.0
 40
0.0
 40
0.0
 40
0.0
 40
0.0012682531
 40
0.0050444688
 40
0.0112858327
 40
0.0199495358
 40
0.0443727477
 40
0.0779717415
 40
0.1204042326
 40
0.1712653136
 40
0.2299438463
 40
0.2957867
 40
0.4463552272
 40
0.6176886778
 40
0.8041513214
 40
1.0
 40
1.0
 40
1.0
 40
1.0
 10
68.7148034033
 20
111.0286456058
 30
0.0
 10
68.7149566367
 20
111.0285900063
 30
0.0
 10
68.7141498333
 20
111.0277764298
 30
0.0
 10
68.7140575986
 20
111.0266738047
 30
0.0
 10
68.7127639691
 20
111.0243726596
 30
0.0
 10
68.7108163671
 20
111.0198561716
 30
0.0
 10
68.7070842149
 20
111.0120274585
 30
0.0
 10
68.701692382
 20
111.0003483667
 30
0.0
 10
68.6947570744
 20
110.9855667181
 30
0.0
 10
68.6864522302
 20
110.9678942468
 30
0.0
 10
68.6768013973
 20
110.947520333
 30
0.0
 10
68.6615667973
 20
110.9156144113
 30
0.0
 10
68.6398325011
 20
110.87076532
 30
0.0
 10
68.6108038367
 20
110.8122266756
 30
0.0
 10
68.5785529728
 20
110.7487932232
 30
0.0
 10
68.5557786892
 20
110.7052492622
 30
0.0
 10
68.5439598239
 20
110.6830239307
 30
0.0
  0
SPLINE
  5
3FC
100
AcDbEntity
  8
DEFAULT_2
100
AcDbSpline
 62
8
  6
HIDDEN
 70
0
 71
3
 72
17
 73
13
 74
0
 42
0.0000001
 43
0.0000001
 44
0.0000000001
 40
0.0
 40
0.0
 40
0.0
 40
0.0
 40
0.1997572394
 40
0.3866568012
 40
0.5550557639
 40
0.6995754543
 40
0.815820949
 40
0.9013847208
 40
0.9330466488
 40
0.9583878283
 40
0.9795435489
 40
1.0
 40
1.0
 40
1.0
 40
1.0
 10
70.6053658006
 20
110.6830239307
 30
0.0
 10
70.5925647614
 20
110.6426283212
 30
0.0
 10
70.5691088051
 20
110.5640096743
 30
0.0
 10
70.5398098798
 20
110.4499278494
 30
0.0
 10
70.5181832045
 20
110.3460959739
 30
0.0
 10
70.5048786394
 20
110.255917503
 30
0.0
 10
70.5004015328
 20
110.1825682288
 30
0.0
 10
70.5038654067
 20
110.1327057729
 30
0.0
 10
70.5128128148
 20
110.1036573943
 30
0.0
 10
70.5212751416
 20
110.0891329171
 30
0.0
 10
70.5326739709
 20
110.0799418847
 30
0.0
 10
70.5416937006
 20
110.0781750615
 30
0.0
 10
70.5460332
 20
110.0781869417
 30
0.0
  0
SPLINE
  5
3FD
100
AcDbEntity
  8
DEFAULT_2
100
AcDbSpline
 62
8
  6
HIDDEN
 70
0
 71
3
 72
11
 73
7
 74
0
 42
0.0000001
 43
0.0000001
 44
0.0000000001
 40
0.0
 40
0.0
 40
0.0
 40
0.0
 40
0.2532177205
 40
0.5233016352
 40
0.7803904152
 40
1.0
 40
1.0
 40
1.0
 40
1.0
 10
70.7159685557
 20
109.9046877547
 30
0.0
 10
70.7159685575
 20
109.8569089627
 30
0.0
 10
70.7094425812
 20
109.7581582864
 30
0.0
 10
70.6865637189
 20
109.6125203642
 30
0.0
 10
70.6524564671
 20
109.4756425083
 30
0.0
 10
70.6223240851
 20
109.3906023274
 30
0.0
 10
70.6053658006
 20
109.3527939471
 30
0.0
  0
SPLINE
  5
3FE
100
AcDbEntity
  8
DEFAULT_2
100
AcDbSpline
 62
8
  6
HIDDEN
 70
0
 71
3
 72
17
 73
13
 74
0
 42
0.0000001
 43
0.0000001
 44
0.0000000001
 40
0.0
 40
0.0
 40
0.0
 40
0.0
 40
0.1335747062
 40
0.2852050946
 40
0.4465642499
 40
0.6046379831
 40
0.7454736112
 40
0.8564080718
 40
0.8997829534
 40
0.9363696965
 40
0.96854054
 40
1.0
 40
1.0
 40
1.0
 40
1.0
 10
68.5439598239
 20
108.2086657323
 30
0.0
 10
68.5669620035
 20
108.1781053575
 30
0.0
 10
68.609135211
 20
108.1076079924
 30
0.0
 10
68.6585755689
 20
107.989325238
 30
0.0
 10
68.6945395621
 20
107.8589762547
 30
0.0
 10
68.7144681436
 20
107.7282885129
 30
0.0
 10
68.7164158565
 20
107.6107142503
 30
0.0
 10
68.7026250103
 20
107.5261437788
 30
0.0
 10
68.6796301109
 20
107.476169203
 30
0.0
 10
68.6594022908
 20
107.4506470182
 30
0.0
 10
68.634506451
 20
107.4350891545
 30
0.0
 10
68.6160698494
 20
107.4319771331
 30
0.0
 10
68.6070615667
 20
107.4319083804
 30
0.0
  0
SPLINE
  5
3FF
100
AcDbEntity
  8
DEFAULT_2
100
AcDbSpline
 62
8
  6
HIDDEN
 70
0
 71
3
 72
13
 73
9
 74
0
 42
0.0000001
 43
0.0000001
 44
0.0000000001
 40
0.0
 40
0.0
 40
0.0
 40
0.0
 40
0.3748703066
 40
0.6667394223
 40
0.7772817243
 40
0.8659338478
 40
0.9371364084
 40
1.0
 40
1.0
 40
1.0
 40
1.0
 10
70.7159685553
 20
107.6567719839
 30
0.0
 10
70.7159685563
 20
107.6253552501
 30
0.0
 10
70.7133890103
 20
107.5694896542
 30
0.0
 10
70.7021927412
 20
107.5048263712
 30
0.0
 10
70.6870884577
 20
107.4663651954
 30
0.0
 10
70.67485927
 20
107.4470655503
 30
0.0
 10
70.6603461215
 20
107.4346152808
 30
0.0
 10
70.6489325184
 20
107.4318298464
 30
0.0
 10
70.6436641524
 20
107.4318501902
 30
0.0
  0
SPLINE
  5
400
100
AcDbEntity
  8
DEFAULT_2
100
AcDbSpline
 62
8
  6
HIDDEN
 70
0
 71
3
 72
14
 73
10
 74
0
 42
0.0000001
 43
0.0000001
 44
0.0000000001
 40
0.0
 40
0.0
 40
0.0
 40
0.0
 40
0.3699130223
 40
0.5337813848
 40
0.6747924682
 40
0.7867465766
 40
0.86926824
 40
0.9342567988
 40
1.0
 40
1.0
 40
1.0
 40
1.0
 10
68.5439598239
 20
106.8784357487
 30
0.0
 10
68.5039698403
 20
106.9536367619
 30
0.0
 10
68.4477161601
 20
107.0630940997
 30
0.0
 10
68.3887307869
 20
107.2069702027
 30
0.0
 10
68.3606279904
 20
107.2989599974
 30
0.0
 10
68.3488776859
 20
107.3757091596
 30
0.0
 10
68.3578483229
 20
107.4366208453
 30
0.0
 10
68.3912977377
 20
107.4768251557
 30
0.0
 10
68.4227636441
 20
107.4832754975
 30
0.0
 10
68.4379007462
 20
107.4833727975
 30
0.0
  0
SPLINE
  5
401
100
AcDbEntity
  8
DEFAULT_2
100
AcDbSpline
 62
8
  6
HIDDEN
 70
0
 71
3
 72
9
 73
5
 74
0
 42
0.0000001
 43
0.0000001
 44
0.0000000001
 40
0.0
 40
0.0
 40
0.0
 40
0.0
 40
0.2763320376
 40
1.0
 40
1.0
 40
1.0
 40
1.0
 10
70.6053658006
 20
110.1109598233
 30
0.0
 10
70.6029317052
 20
110.1087054674
 30
0.0
 10
70.59398002
 20
110.1007116546
 30
0.0
 10
70.5843982429
 20
110.0933617057
 30
0.0
 10
70.5769845059
 20
110.0888312133
 30
0.0
  0
SPLINE
  5
402
100
AcDbEntity
  8
DEFAULT_2
100
AcDbSpline
 62
8
  6
HIDDEN
 70
0
 71
3
 72
9
 73
5
 74
0
 42
0.0000001
 43
0.0000001
 44
0.0000000001
 40
0.0
 40
0.0
 40
0.0
 40
0.0
 40
0.2666492063
 40
1.0
 40
1.0
 40
1.0
 40
1.0
 10
70.5769845059
 20
110.0888312133
 30
0.0
 10
70.575804682
 20
110.0881102297
 30
0.0
 10
70.5713330705
 20
110.085486148
 30
0.0
 10
70.5666567708
 20
110.0831945998
 30
0.0
 10
70.5631159886
 20
110.0818077165
 30
0.0
  0
SPLINE
  5
403
100
AcDbEntity
  8
DEFAULT_2
100
AcDbSpline
 62
8
  6
HIDDEN
 70
0
 71
3
 72
8
 73
4
 74
0
 42
0.0000001
 43
0.0000001
 44
0.0000000001
 40
0.0
 40
0.0
 40
0.0
 40
0.0
 40
1.0
 40
1.0
 40
1.0
 40
1.0
 10
70.5631159886
 20
110.0818077165
 30
0.0
 10
70.5596045729
 20
110.0804323356
 30
0.0
 10
70.5559522907
 20
110.0793358966
 30
0.0
 10
70.5522314271
 20
110.0787219854
 30
0.0
  0
SPLINE
  5
404
100
AcDbEntity
  8
DEFAULT_2
100
AcDbSpline
 62
8
  6
HIDDEN
 70
0
 71
3
 72
8
 73
4
 74
0
 42
0.0000001
 43
0.0000001
 44
0.0000000001
 40
0.0
 40
0.0
 40
0.0
 40
0.0
 40
1.0
 40
1.0
 40
1.0
 40
1.0
 10
70.5522314271
 20
110.0787219854
 30
0.0
 10
70.5501829827
 20
110.0783840093
 30
0.0
 10
70.5481021698
 20
110.0781921646
 30
0.0
 10
70.5460260376
 20
110.0781869039
 30
0.0
  0
SPLINE
  5
405
100
AcDbEntity
  8
DEFAULT_2
100
AcDbSpline
 62
8
  6
HIDDEN
 70
0
 71
3
 72
9
 73
5
 74
0
 42
0.0000001
 43
0.0000001
 44
0.0000000001
 40
0.0
 40
0.0
 40
0.0
 40
0.0
 40
0.5883452012
 40
1.0
 40
1.0
 40
1.0
 40
1.0
 10
70.6053658006
 20
107.4504998561
 30
0.0
 10
70.5954678116
 20
107.4596669534
 30
0.0
 10
70.5778357025
 20
107.4742766094
 30
0.0
 10
70.5554653913
 20
107.4832488572
 30
0.0
 10
70.5460260376
 20
107.4832727754
 30
0.0
  0
SPLINE
  5
406
100
AcDbEntity
  8
DEFAULT_2
100
AcDbSpline
 62
8
  6
HIDDEN
 70
0
 71
3
 72
8
 73
4
 74
0
 42
0.0000001
 43
0.0000001
 44
0.0000000001
 40
0.0
 40
0.0
 40
0.0
 40
0.0
 40
1.0
 40
1.0
 40
1.0
 40
1.0
 10
70.5460332
 20
107.4832727377
 30
0.0
 10
70.548110204
 20
107.4832670515
 30
0.0
 10
70.5501918529
 20
107.4830746692
 30
0.0
 10
70.5522410836
 20
107.4827360965
 30
0.0
  0
SPLINE
  5
407
100
AcDbEntity
  8
DEFAULT_2
100
AcDbSpline
 62
8
  6
HIDDEN
 70
0
 71
3
 72
8
 73
4
 74
0
 42
0.0000001
 43
0.0000001
 44
0.0000000001
 40
0.0
 40
0.0
 40
0.0
 40
0.0
 40
1.0
 40
1.0
 40
1.0
 40
1.0
 10
70.5522410836
 20
107.4827360965
 30
0.0
 10
70.5559586076
 20
107.4821218894
 30
0.0
 10
70.5596075843
 20
107.4810261699
 30
0.0
 10
70.5631159763
 20
107.4796519716
 30
0.0
  0
SPLINE
  5
408
100
AcDbEntity
  8
DEFAULT_2
100
AcDbSpline
 62
8
  6
HIDDEN
 70
0
 71
3
 72
9
 73
5
 74
0
 42
0.0000001
 43
0.0000001
 44
0.0000000001
 40
0.0
 40
0.0
 40
0.0
 40
0.0
 40
0.2339590877
 40
1.0
 40
1.0
 40
1.0
 40
1.0
 10
70.5631159763
 20
107.4796519716
 30
0.0
 10
70.5642456608
 20
107.4792094867
 30
0.0
 10
70.5690234955
 20
107.4771887722
 30
0.0
 10
70.5735948491
 20
107.4746998646
 30
0.0
 10
70.5769845313
 20
107.4726284535
 30
0.0
  0
SPLINE
  5
409
100
AcDbEntity
  8
DEFAULT_2
100
AcDbSpline
 62
8
  6
HIDDEN
 70
0
 71
3
 72
9
 73
5
 74
0
 42
0.0000001
 43
0.0000001
 44
0.0000000001
 40
0.0
 40
0.0
 40
0.0
 40
0.0
 40
0.2241508545
 40
1.0
 40
1.0
 40
1.0
 40
1.0
 10
70.5769845313
 20
107.4726284535
 30
0.0
 10
70.5792811957
 20
107.471224978
 30
0.0
 10
70.589309602
 20
107.4646069708
 30
0.0
 10
70.5985307348
 20
107.456830204
 30
0.0
 10
70.6053658006
 20
107.4504998561
 30
0.0
  0
SPLINE
  5
40A
100
AcDbEntity
  8
DEFAULT_2
100
AcDbSpline
 62
8
  6
HIDDEN
 70
0
 71
3
 72
9
 73
5
 74
0
 42
0.0000001
 43
0.0000001
 44
0.0000000001
 40
0.0
 40
0.0
 40
0.0
 40
0.0
 40
0.4116694073
 40
1.0
 40
1.0
 40
1.0
 40
1.0
 10
70.5460332
 20
110.0781869417
 30
0.0
 10
70.555471935
 20
110.0782127819
 30
0.0
 10
70.5778386052
 20
110.0871857212
 30
0.0
 10
70.595469052
 20
110.1017938748
 30
0.0
 10
70.6053658006
 20
110.1109598233
 30
0.0
  0
SPLINE
  5
40B
100
AcDbEntity
  8
DEFAULT_2
100
AcDbSpline
 62
8
  6
HIDDEN
 70
0
 71
3
 72
17
 73
13
 74
0
 42
0.0000001
 43
0.0000001
 44
0.0000000001
 40
0.0
 40
0.0
 40
0.0
 40
0.0
 40
0.1997572394
 40
0.3866568012
 40
0.5550557639
 40
0.6995754543
 40
0.815820949
 40
0.9013847208
 40
0.9330466488
 40
0.9583878283
 40
0.9795435489
 40
1.0
 40
1.0
 40
1.0
 40
1.0
 10
70.6053658006
 20
106.8784357487
 30
0.0
 10
70.5925647614
 20
106.9188313581
 30
0.0
 10
70.5691088051
 20
106.9974500051
 30
0.0
 10
70.5398098798
 20
107.1115318299
 30
0.0
 10
70.5181832045
 20
107.2153637055
 30
0.0
 10
70.5048786394
 20
107.3055421764
 30
0.0
 10
70.5004015328
 20
107.3788914506
 30
0.0
 10
70.5038654067
 20
107.4287539064
 30
0.0
 10
70.5128128148
 20
107.4578022851
 30
0.0
 10
70.5212751416
 20
107.4723267623
 30
0.0
 10
70.5326739709
 20
107.4815177947
 30
0.0
 10
70.5416937006
 20
107.4832846179
 30
0.0
 10
70.5460332
 20
107.4832727377
 30
0.0
  0
SPLINE
  5
40C
100
AcDbEntity
  8
DEFAULT_2
100
AcDbSpline
 62
8
  6
HIDDEN
 70
0
 71
3
 72
11
 73
7
 74
0
 42
0.0000001
 43
0.0000001
 44
0.0000000001
 40
0.0
 40
0.0
 40
0.0
 40
0.0
 40
0.2532177204
 40
0.5233016352
 40
0.7803904151
 40
1.0
 40
1.0
 40
1.0
 40
1.0
 10
70.7159685557
 20
107.6567719241
 30
0.0
 10
70.7159685576
 20
107.7045507161
 30
0.0
 10
70.7094425813
 20
107.8033013925
 30
0.0
 10
70.6865637189
 20
107.9489393148
 30
0.0
 10
70.6524564671
 20
108.0858171709
 30
0.0
 10
70.6223240852
 20
108.1708573519
 30
0.0
 10
70.6053658006
 20
108.2086657323
 30
0.0
  0
SPLINE
  5
40D
100
AcDbEntity
  8
DEFAULT_2
100
AcDbSpline
 62
8
  6
HIDDEN
 70
0
 71
3
 72
11
 73
7
 74
0
 42
0.0000001
 43
0.0000001
 44
0.0000000001
 40
0.0
 40
0.0
 40
0.0
 40
0.0
 40
0.2294183914
 40
0.4999986482
 40
0.7705800762
 40
1.0
 40
1.0
 40
1.0
 40
1.0
 10
70.6053658006
 20
108.2086657323
 30
0.0
 10
70.5687933995
 20
108.2902036526
 30
0.0
 10
70.517590885
 20
108.4804053536
 30
0.0
 10
70.4932518207
 20
108.7807287038
 30
0.0
 10
70.5175905144
 20
109.0810526894
 30
0.0
 10
70.5687931552
 20
109.2712554821
 30
0.0
 10
70.6053658006
 20
109.3527939471
 30
0.0
  0
SPLINE
  5
40E
100
AcDbEntity
  8
DEFAULT_2
100
AcDbSpline
 62
8
  6
HIDDEN
 70
0
 71
3
 72
9
 73
5
 74
0
 42
0.0000001
 43
0.0000001
 44
0.0000000001
 40
0.0
 40
0.0
 40
0.0
 40
0.0
 40
0.500155558
 40
1.0
 40
1.0
 40
1.0
 40
1.0
 10
68.5439598239
 20
109.3527939471
 30
0.0
 10
68.4229823116
 20
109.1920649124
 30
0.0
 10
68.2815431474
 20
108.7806398873
 30
0.0
 10
68.4230575643
 20
108.3692947873
 30
0.0
 10
68.5439598239
 20
108.2086657323
 30
0.0
  0
SPLINE
  5
40F
100
AcDbEntity
  8
DEFAULT_2
100
AcDbSpline
 62
8
  6
HIDDEN
 70
0
 71
3
 72
9
 73
5
 74
0
 42
0.0000001
 43
0.0000001
 44
0.0000000001
 40
0.0
 40
0.0
 40
0.0
 40
0.0
 40
0.5251157286
 40
1.0
 40
1.0
 40
1.0
 40
1.0
 10
68.6745259642
 20
110.0906413086
 30
0.0
 10
68.6665619976
 20
110.1022580319
 30
0.0
 10
68.6472419351
 20
110.1225732621
 30
0.0
 10
68.6197983986
 20
110.1294540894
 30
0.0
 10
68.6070615667
 20
110.129551299
 30
0.0
  0
SPLINE
  5
410
100
AcDbEntity
  8
DEFAULT_2
100
AcDbSpline
 62
8
  6
HIDDEN
 70
0
 71
3
 72
14
 73
10
 74
0
 42
0.0000001
 43
0.0000001
 44
0.0000000001
 40
0.0
 40
0.0
 40
0.0
 40
0.0
 40
0.3699130223
 40
0.5337813848
 40
0.6747924682
 40
0.7867465766
 40
0.86926824
 40
0.9342567988
 40
1.0
 40
1.0
 40
1.0
 40
1.0
 10
68.5439598239
 20
110.6830239307
 30
0.0
 10
68.5039698403
 20
110.6078229175
 30
0.0
 10
68.4477161601
 20
110.4983655797
 30
0.0
 10
68.3887307869
 20
110.3544894767
 30
0.0
 10
68.3606279904
 20
110.262499682
 30
0.0
 10
68.3488776859
 20
110.1857505197
 30
0.0
 10
68.3578483229
 20
110.124838834
 30
0.0
 10
68.3912977377
 20
110.0846345237
 30
0.0
 10
68.4227636441
 20
110.0781841819
 30
0.0
 10
68.4379007462
 20
110.0780868818
 30
0.0
  0
SPLINE
  5
411
100
AcDbEntity
  8
DEFAULT_2
100
AcDbSpline
 62
8
  6
HIDDEN
 70
0
 71
3
 72
21
 73
17
 74
0
 42
0.0000001
 43
0.0000001
 44
0.0000000001
 40
0.0
 40
0.0
 40
0.0
 40
0.0
 40
0.0012682531
 40
0.0050444688
 40
0.0112858327
 40
0.0199495359
 40
0.0443727477
 40
0.0779717416
 40
0.1204042326
 40
0.1712653136
 40
0.2299438463
 40
0.2957867
 40
0.4463552272
 40
0.6176886778
 40
0.8041513214
 40
1.0
 40
1.0
 40
1.0
 40
1.0
 10
68.7148034033
 20
106.5328140736
 30
0.0
 10
68.7149566367
 20
106.5328696731
 30
0.0
 10
68.7141498333
 20
106.5336832496
 30
0.0
 10
68.7140575986
 20
106.5347858747
 30
0.0
 10
68.7127639691
 20
106.5370870197
 30
0.0
 10
68.7108163671
 20
106.5416035078
 30
0.0
 10
68.707084215
 20
106.5494322209
 30
0.0
 10
68.701692382
 20
106.5611113127
 30
0.0
 10
68.6947570744
 20
106.5758929613
 30
0.0
 10
68.6864522302
 20
106.5935654326
 30
0.0
 10
68.6768013973
 20
106.6139393464
 30
0.0
 10
68.6615667973
 20
106.6458452681
 30
0.0
 10
68.6398325011
 20
106.6906943594
 30
0.0
 10
68.6108038367
 20
106.7492330038
 30
0.0
 10
68.5785529728
 20
106.8126664562
 30
0.0
 10
68.5557786892
 20
106.8562104171
 30
0.0
 10
68.5439598239
 20
106.8784357487
 30
0.0
  0
SPLINE
  5
412
100
AcDbEntity
  8
DEFAULT_2
100
AcDbSpline
 62
8
  6
HIDDEN
 70
0
 71
3
 72
21
 73
17
 74
0
 42
0.0000001
 43
0.0000001
 44
0.0000000001
 40
0.0
 40
0.0
 40
0.0
 40
0.0
 40
0.0012141761
 40
0.0048337895
 40
0.0108244703
 40
0.0191518484
 40
0.0426792176
 40
0.0751409395
 40
0.1162620578
 40
0.1657533444
 40
0.2231645761
 40
0.2879439604
 40
0.4373936739
 40
0.609596116
 40
0.7991324087
 40
1.0
 40
1.0
 40
1.0
 40
1.0
 10
70.715968575
 20
106.5328140736
 30
0.0
 10
70.7160976967
 20
106.5328840619
 30
0.0
 10
70.7154947998
 20
106.5336095766
 30
0.0
 10
70.715497828
 20
106.5346929823
 30
0.0
 10
70.7146023125
 20
106.536848765
 30
0.0
 10
70.7133313266
 20
106.5411500254
 30
0.0
 10
70.710839514
 20
106.5485935105
 30
0.0
 10
70.7072790394
 20
106.5597532813
 30
0.0
 10
70.7026912419
 20
106.5739292903
 30
0.0
 10
70.69720568
 20
106.5909689806
 30
0.0
 10
70.6908394406
 20
106.6107377578
 30
0.0
 10
70.6807817355
 20
106.6420183111
 30
0.0
 10
70.6664993469
 20
106.6865270534
 30
0.0
 10
70.6476638526
 20
106.7454230646
 30
0.0
 10
70.6269983825
 20
106.8102639503
 30
0.0
 10
70.6127057473
 20
106.8552734402
 30
0.0
 10
70.6053658006
 20
106.8784357487
 30
0.0
  0
SPLINE
  5
413
100
AcDbEntity
  8
DEFAULT_2
100
AcDbSpline
 62
8
  6
HIDDEN
 70
0
 71
3
 72
16
 73
12
 74
0
 42
0.0000001
 43
0.0000001
 44
0.0000000001
 40
0.0
 40
0.0
 40
0.0
 40
0.0
 40
0.3903798778
 40
0.5625679587
 40
0.7120202214
 40
0.8342206316
 40
0.9248405847
 40
0.9573082391
 40
0.9808415988
 40
0.9951643057
 40
1.0
 40
1.0
 40
1.0
 40
1.0
 10
70.6053658006
 20
110.6830239307
 30
0.0
 10
70.6196307565
 20
110.7280391497
 30
0.0
 10
70.6402632334
 20
110.7928861321
 30
0.0
 10
70.6664919002
 20
110.8749220295
 30
0.0
 10
70.6829113975
 20
110.9260402818
 30
0.0
 10
70.6962892206
 20
110.9677628661
 30
0.0
 10
70.7054881854
 20
110.9959869263
 30
0.0
 10
70.7108036195
 20
111.0128867716
 30
0.0
 10
70.7136417391
 20
111.020945078
 30
0.0
 10
70.7148287947
 20
111.0259242844
 30
0.0
 10
70.7159625483
 20
111.0280606985
 30
0.0
 10
70.715968575
 20
111.0286456058
 30
0.0
  0
SPLINE
  5
414
100
AcDbEntity
  8
DEFAULT_2
100
AcDbSpline
 62
8
  6
HIDDEN
 70
0
 71
3
 72
9
 73
5
 74
0
 42
0.0000001
 43
0.0000001
 44
0.0000000001
 40
0.0
 40
0.0
 40
0.0
 40
0.0
 40
0.4748835616
 40
1.0
 40
1.0
 40
1.0
 40
1.0
 10
68.6070620613
 20
107.4319084233
 30
0.0
 10
68.6197989413
 20
107.4320057126
 30
0.0
 10
68.6472425749
 20
107.4388867907
 30
0.0
 10
68.6665625822
 20
107.4592022776
 30
0.0
 10
68.6745265157
 20
107.4708191375
 30
0.0
  0
SPLINE
  5
415
100
AcDbEntity
  8
DEFAULT_2
100
AcDbSpline
 62
8
  6
HIDDEN
 70
0
 71
3
 72
10
 73
6
 74
0
 42
0.0000001
 43
0.0000001
 44
0.0000000001
 40
0.0
 40
0.0
 40
0.0
 40
0.0
 40
0.1759675249
 40
0.5096974143
 40
1.0
 40
1.0
 40
1.0
 40
1.0
 10
70.6436887518
 20
107.4318518872
 30
0.0
 10
70.6498482003
 20
107.431832604
 30
0.0
 10
70.6679483426
 20
107.4373326344
 30
0.0
 10
70.6893704791
 20
107.4675175431
 30
0.0
 10
70.6979747086
 20
107.4949633263
 30
0.0
 10
70.7019974285
 20
107.5116475234
 30
0.0
  0
SPLINE
  5
416
100
AcDbEntity
  8
DEFAULT_2
100
AcDbSpline
 62
8
  6
HIDDEN
 70
0
 71
3
 72
9
 73
5
 74
0
 42
0.0000001
 43
0.0000001
 44
0.0000000001
 40
0.0
 40
0.0
 40
0.0
 40
0.0
 40
0.4524876711
 40
1.0
 40
1.0
 40
1.0
 40
1.0
 10
70.7019974285
 20
107.5116475234
 30
0.0
 10
70.7071599399
 20
107.5330589961
 30
0.0
 10
70.7140657506
 20
107.5814337037
 30
0.0
 10
70.7159685563
 20
107.6301215081
 30
0.0
 10
70.7159685557
 20
107.6567719241
 30
0.0
  0
SPLINE
  5
417
100
AcDbEntity
  8
DEFAULT_2
100
AcDbSpline
 62
8
  6
HIDDEN
 70
0
 71
3
 72
13
 73
9
 74
0
 42
0.0000001
 43
0.0000001
 44
0.0000000001
 40
0.0
 40
0.0
 40
0.0
 40
0.0
 40
0.3823170072
 40
0.7042352416
 40
0.8287639021
 40
0.9220602524
 40
0.9800639013
 40
1.0
 40
1.0
 40
1.0
 40
1.0
 10
68.5439598239
 20
110.6830239307
 30
0.0
 10
68.5670312476
 20
110.7264096559
 30
0.0
 10
68.6085176333
 20
110.8068681338
 30
0.0
 10
68.6553392226
 20
110.9025540537
 30
0.0
 10
68.6852718131
 20
110.9651314733
 30
0.0
 10
68.700071897
 20
110.9973599228
 30
0.0
 10
68.7098296748
 20
111.0170697747
 30
0.0
 10
68.7135222231
 20
111.0264265366
 30
0.0
 10
68.7148034033
 20
111.0286456058
 30
0.0
  0
SPLINE
  5
418
100
AcDbEntity
  8
DEFAULT_2
100
AcDbSpline
 62
8
  6
HIDDEN
 70
0
 71
3
 72
9
 73
5
 74
0
 42
0.0000001
 43
0.0000001
 44
0.0000000001
 40
0.0
 40
0.0
 40
0.0
 40
0.0
 40
0.4641848869
 40
1.0
 40
1.0
 40
1.0
 40
1.0
 10
70.5460260376
 20
110.0781869039
 30
0.0
 10
70.5399614076
 20
110.0781715369
 30
0.0
 10
70.5264726166
 20
110.0823042291
 30
0.0
 10
70.5185643655
 20
110.0936037651
 30
0.0
 10
70.5153819895
 20
110.0998391177
 30
0.0
  0
SPLINE
  5
419
100
AcDbEntity
  8
DEFAULT_2
100
AcDbSpline
 62
8
  6
HIDDEN
 70
0
 71
3
 72
9
 73
5
 74
0
 42
0.0000001
 43
0.0000001
 44
0.0000000001
 40
0.0
 40
0.0
 40
0.0
 40
0.0
 40
0.418384545
 40
1.0
 40
1.0
 40
1.0
 40
1.0
 10
70.5153819895
 20
110.0998391177
 30
0.0
 10
70.5099967255
 20
110.1103906742
 30
0.0
 10
70.5031883706
 20
110.1384440497
 30
0.0
 10
70.5018160295
 20
110.1667192575
 30
0.0
 10
70.5017984141
 20
110.1831874237
 30
0.0
  0
SPLINE
  5
41A
100
AcDbEntity
  8
DEFAULT_2
100
AcDbSpline
 62
8
  6
HIDDEN
 70
0
 71
3
 72
10
 73
6
 74
0
 42
0.0000001
 43
0.0000001
 44
0.0000000001
 40
0.0
 40
0.0
 40
0.0
 40
0.0
 40
0.1865243022
 40
0.4230577366
 40
1.0
 40
1.0
 40
1.0
 40
1.0
 10
70.5017984141
 20
110.1831874237
 30
0.0
 10
70.5017643746
 20
110.2150101637
 30
0.0
 10
70.508274571
 20
110.2871352736
 30
0.0
 10
70.538314541
 20
110.4551366902
 30
0.0
 10
70.5756309002
 20
110.5891909693
 30
0.0
 10
70.6053658006
 20
110.6830239307
 30
0.0
  0
SPLINE
  5
41B
100
AcDbEntity
  8
0
100
AcDbSpline
 62
7
  6
CONTINUOUS
 70
0
 71
3
 72
15
 73
11
 74
0
 42
0.0000001
 43
0.0000001
 44
0.0000000001
 40
0.0
 40
0.0
 40
0.0
 40
0.0
 40
0.1250245363
 40
0.2500293709
 40
0.3750074733
 40
0.4999666607
 40
0.6249397407
 40
0.7499416157
 40
0.8749633898
 40
1.0
 40
1.0
 40
1.0
 40
1.0
 10
74.4771359508
 20
101.7798064046
 30
0.0
 10
74.3888157453
 20
101.9441303122
 30
0.0
 10
74.224566239
 20
102.2797451564
 30
0.0
 10
74.033694063
 20
102.8073080736
 30
0.0
 10
73.9229116436
 20
103.3584407568
 30
0.0
 10
73.9149747889
 20
103.9212600261
 30
0.0
 10
74.0119187798
 20
104.4751515117
 30
0.0
 10
74.1927819179
 20
105.0064066937
 30
0.0
 10
74.4323211888
 20
105.5130923066
 30
0.0
 10
74.6184418542
 20
105.8368435482
 30
0.0
 10
74.715968553
 20
105.9958972202
 30
0.0
  0
SPLINE
  5
41C
100
AcDbEntity
  8
0
100
AcDbSpline
 62
7
  6
CONTINUOUS
 70
0
 71
3
 72
9
 73
5
 74
0
 42
0.0000001
 43
0.0000001
 44
0.0000000001
 40
0.0
 40
0.0
 40
0.0
 40
0.0
 40
0.5009299054
 40
1.0
 40
1.0
 40
1.0
 40
1.0
 10
74.4769662095
 20
103.9307298397
 30
0.0
 10
74.4881207506
 20
104.0887477414
 30
0.0
 10
74.5432954889
 20
104.4024919891
 30
0.0
 10
74.6521806276
 20
104.7007786292
 30
0.0
 10
74.715968553
 20
104.8451364939
 30
0.0
  0
SPLINE
  5
41D
100
AcDbEntity
  8
0
100
AcDbSpline
 62
7
  6
CONTINUOUS
 70
0
 71
3
 72
9
 73
5
 74
0
 42
0.0000001
 43
0.0000001
 44
0.0000000001
 40
0.0
 40
0.0
 40
0.0
 40
0.0
 40
0.4990716142
 40
1.0
 40
1.0
 40
1.0
 40
1.0
 10
74.715968553
 20
102.5163231855
 30
0.0
 10
74.652180434
 20
102.6606814882
 30
0.0
 10
74.5432954792
 20
102.9589681995
 30
0.0
 10
74.4881207166
 20
103.2727124189
 30
0.0
 10
74.4769662095
 20
103.4307298397
 30
0.0
  0
SPLINE
  5
41E
100
AcDbEntity
  8
A_RUNDUNGEN
100
AcDbSpline
 62
7
  6
CONTINUOUS
 70
0
 71
3
 72
12
 73
8
 74
0
 42
0.0000001
 43
0.0000001
 44
0.0000000001
 40
0.0
 40
0.0
 40
0.0
 40
0.0
 40
0.3016097221
 40
0.5768937687
 40
0.8129595669
 40
0.9127911725
 40
1.0
 40
1.0
 40
1.0
 40
1.0
 10
78.8780066606
 20
62.5540201641
 30
0.0
 10
78.9813906007
 20
62.504486474
 30
0.0
 10
79.1804279366
 20
62.412206859
 30
0.0
 10
79.4670682329
 20
62.296907032
 30
0.0
 10
79.6910722836
 20
62.2307543146
 30
0.0
 10
79.8512858475
 20
62.2126400089
 30
0.0
 10
79.9229637604
 20
62.2174150837
 30
0.0
 10
79.9553752445
 20
62.2243586334
 30
0.0
  0
SPLINE
  5
41F
100
AcDbEntity
  8
A_RUNDUNGEN
100
AcDbSpline
 62
7
  6
CONTINUOUS
 70
0
 71
3
 72
14
 73
10
 74
0
 42
0.0000001
 43
0.0000001
 44
0.0000000001
 40
0.0
 40
0.0
 40
0.0
 40
0.0
 40
0.3820312629
 40
0.5547774445
 40
0.7063658421
 40
0.831008064
 40
0.9236945867
 40
0.9807312587
 40
1.0
 40
1.0
 40
1.0
 40
1.0
 10
87.1186242989
 20
64.7797698791
 30
0.0
 10
87.1320966203
 20
64.6525280131
 30
0.0
 10
87.1513664636
 20
64.4677189096
 30
0.0
 10
87.1752463303
 20
64.2323446477
 30
0.0
 10
87.1899955607
 20
64.0826953665
 30
0.0
 10
87.2017736922
 20
63.9596944504
 30
0.0
 10
87.2103353611
 20
63.868207615
 30
0.0
 10
87.2146869803
 20
63.8117573675
 30
0.0
 10
87.2156303194
 20
63.7862178744
 30
0.0
 10
87.2157859537
 20
63.7797648094
 30
0.0
  0
ENDSEC
  0
SECTION
  2
OBJECTS
  0
DICTIONARY
  5
420
100
AcDbDictionary
  3
ACAD_GROUP
350
421
  3
ACAD_MLINESTYLE
350
422
  0
DICTIONARY
  5
421
102
{ACAD_REACTORS
330
420
102
}
100
AcDbDictionary
  0
DICTIONARY
  5
422
102
{ACAD_REACTORS
330
420
102
}
100
AcDbDictionary
  3
STANDARD
350
423
  0
MLINESTYLE
  5
423
102
{ACAD_REACTORS
330
422
102
}
100
AcDbMlineStyle
  2
STANDARD
 70
0
  3

 62
256
 51
90.0
 52
90.0
 71
2
 49
0.5
 62
256
  6
BYLAYER
 49
-0.5
 62
256
  6
BYLAYER
  0
ENDSEC
  0
EOF
