999
DXF file: d:\tmp\workingDir\0000062577\te_680_3d_fd_q05_01.dxf
999
Pro/ENGINEER 2016380 by Parametric Technology Corporation
  0
SECTION
  2
HEADER
  9
$ACADVER
  1
AC1014
  9
$DWGCODEPAGE
  3
ANSI_1252
  9
$EXTMAX
 10
199.898
 20
199.898
 30
0.0
  9
$EXTMIN
 10
0.0
 20
0.0
 30
0.0
  9
$LIMMIN
 10
0.0
 20
0.0
  9
$LIMMAX
 10
199.898
 20
199.898
  9
$VIEWCTR
 10
99.949
 20
99.949
  9
$VIEWSIZE
 40
199.898
  9
$CLAYER
  8
0
  9
$LTSCALE
 40
13.0303881481
  9
$CELTYPE
  6
BYLAYER
  9
$DIMSCALE
 40
1.0
  9
$DIMASZ
 40
3.5
  9
$DIMEXO
 40
0.0
  9
$DIMDLI
 40
9.0028136296
  9
$DIMEXE
 40
2.0
  9
$DIMCEN
 40
2.1322453333
  9
$DIMLFAC
 40
1.0
  9
$DIMBLK
  1
_ARROW_FILLED
  9
$DIMALT
 70
0
  9
$DIMALTF
 40
25.4
  9
$DIMTXT
 40
3.5
  9
$DIMTOL
 70
1
  9
$DIMLIM
 70
0
  9
$DIMTFAC
 40
1.0
  9
$DIMTP
 40
0.01
  9
$DIMTM
 40
0.01
  9
$DIMGAP
 40
0.625
  9
$AUNITS
 70
0
  9
$PDMODE
 70
0
  9
$PDSIZE
 40
0.04
  9
$HANDSEED
  5
41F
  9
$TILEMODE
 70
1
  9
$MEASUREMENT
 70
1
  0
ENDSEC
  0
SECTION
  2
CLASSES
  0
ENDSEC
  0
SECTION
  2
TABLES
  0
TABLE
  2
VPORT
  5
8
100
AcDbSymbolTable
 70
2
  0
VPORT
  5
1F4
100
AcDbSymbolTableRecord
100
AcDbViewportTableRecord
  2
*ACTIVE
 70
0
 10
0.0
 20
0.0
 11
1.0
 21
1.0
 12
99.949
 22
99.949
 13
0.0
 23
0.0
 14
1.0
 24
1.0
 15
0.0
 25
0.0
 16
0.0
 26
0.0
 36
1.0
 17
0.0
 27
0.0
 37
0.0
 40
199.898
 41
1.0
 42
50.0
 43
0.0
 44
0.0
 50
0.0
 51
0.0
 71
0
 72
100
 73
1
 74
1
 75
0
 76
0
 77
0
 78
0
  0
ENDTAB
  0
TABLE
  2
LTYPE
  5
5
100
AcDbSymbolTable
 70
6
  0
LTYPE
  5
14
100
AcDbSymbolTableRecord
100
AcDbLinetypeTableRecord
  2
BYBLOCK
 70
0
  3

 72
65
 73
0
 40
0.0
  0
LTYPE
  5
15
100
AcDbSymbolTableRecord
100
AcDbLinetypeTableRecord
  2
BYLAYER
 70
0
  3

 72
65
 73
0
 40
0.0
  0
LTYPE
  5
16
100
AcDbSymbolTableRecord
100
AcDbLinetypeTableRecord
  2
CONTINUOUS
 70
64
  3
Solid line
 72
65
 73
0
 40
0.0
  0
LTYPE
  5
1F5
100
AcDbSymbolTableRecord
100
AcDbLinetypeTableRecord
  2
CENTER
 70
64
  3
____ _ ____ _ ____ _ ____ _ ____ _ ____ _ ____
 72
65
 73
4
 40
0.6
 49
0.375
 74
0
 49
-0.075
 74
0
 49
0.075
 74
0
 49
-0.075
 74
0
  0
LTYPE
  5
1F6
100
AcDbSymbolTableRecord
100
AcDbLinetypeTableRecord
  2
HIDDEN
 70
64
  3
- - - - - - - - - - - - - - - - - - - -
 72
65
 73
2
 40
0.2
 49
0.1
 74
0
 49
-0.1
 74
0
  0
LTYPE
  5
1F7
100
AcDbSymbolTableRecord
100
AcDbLinetypeTableRecord
  2
PHANTOM
 70
64
  3
_____ _ _ _____ _ _ _____ _ _ _____
 72
65
 73
6
 40
0.8
 49
0.45
 74
0
 49
-0.05
 74
0
 49
0.1
 74
0
 49
-0.05
 74
0
 49
0.1
 74
0
 49
-0.05
 74
0
  0
LTYPE
  5
1F8
100
AcDbSymbolTableRecord
100
AcDbLinetypeTableRecord
  2
DOT
 70
64
  3
. . . . . . . . . . . . . . . . . . . .
 72
65
 73
2
 40
0.2
 49
0.1
 74
0
 49
-0.1
 74
0
  0
LTYPE
  5
1F9
100
AcDbSymbolTableRecord
100
AcDbLinetypeTableRecord
  2
DASHED
 70
64
  3
- - - - - - - - - - - - - - - - - - - -
 72
65
 73
2
 40
0.2
 49
0.1
 74
0
 49
-0.1
 74
0
  0
ENDTAB
  0
TABLE
  2
LAYER
  5
2
100
AcDbSymbolTable
 70
36
  0
LAYER
  5
10
100
AcDbSymbolTableRecord
100
AcDbLayerTableRecord
  2
0
 70
0
 62
7
  6
CONTINUOUS
  0
LAYER
  5
1FA
100
AcDbSymbolTableRecord
100
AcDbLayerTableRecord
  2
DEFAULT_1
 70
0
 62
7
  6
CENTER
  0
LAYER
  5
1FB
100
AcDbSymbolTableRecord
100
AcDbLayerTableRecord
  2
DEFAULT_2
 70
0
 62
8
  6
HIDDEN
  0
LAYER
  5
1FC
100
AcDbSymbolTableRecord
100
AcDbLayerTableRecord
  2
DEFAULT_3
 70
0
 62
7
  6
PHANTOM
  0
LAYER
  5
1FD
100
AcDbSymbolTableRecord
100
AcDbLayerTableRecord
  2
A_ACHSEN
 70
0
 62
7
  6
CONTINUOUS
  0
LAYER
  5
1FE
100
AcDbSymbolTableRecord
100
AcDbLayerTableRecord
  2
A_BASISEBENEN
 70
0
 62
7
  6
CONTINUOUS
  0
LAYER
  5
1FF
100
AcDbSymbolTableRecord
100
AcDbLayerTableRecord
  2
A_BEMASSUNGEN
 70
0
 62
7
  6
CONTINUOUS
  0
LAYER
  5
200
100
AcDbSymbolTableRecord
100
AcDbLayerTableRecord
  2
A_BOHRUNGEN
 70
0
 62
7
  6
CONTINUOUS
  0
LAYER
  5
201
100
AcDbSymbolTableRecord
100
AcDbLayerTableRecord
  2
A_EBENEN
 70
0
 62
7
  6
CONTINUOUS
  0
LAYER
  5
202
100
AcDbSymbolTableRecord
100
AcDbLayerTableRecord
  2
A_FASEN
 70
0
 62
7
  6
CONTINUOUS
  0
LAYER
  5
203
100
AcDbSymbolTableRecord
100
AcDbLayerTableRecord
  2
A_FLAECHEN
 70
0
 62
7
  6
CONTINUOUS
  0
LAYER
  5
204
100
AcDbSymbolTableRecord
100
AcDbLayerTableRecord
  2
A_FL_VERBAENDE
 70
0
 62
7
  6
CONTINUOUS
  0
LAYER
  5
205
100
AcDbSymbolTableRecord
100
AcDbLayerTableRecord
  2
A_KURVEN
 70
0
 62
7
  6
CONTINUOUS
  0
LAYER
  5
206
100
AcDbSymbolTableRecord
100
AcDbLayerTableRecord
  2
A_NOTIZEN_SYMB
 70
0
 62
7
  6
CONTINUOUS
  0
LAYER
  5
207
100
AcDbSymbolTableRecord
100
AcDbLayerTableRecord
  2
A_PUNKTE
 70
0
 62
7
  6
CONTINUOUS
  0
LAYER
  5
208
100
AcDbSymbolTableRecord
100
AcDbLayerTableRecord
  2
A_RUNDUNGEN
 70
0
 62
7
  6
CONTINUOUS
  0
LAYER
  5
209
100
AcDbSymbolTableRecord
100
AcDbLayerTableRecord
  2
BASISEBENEN
 70
0
 62
7
  6
CONTINUOUS
  0
LAYER
  5
20A
100
AcDbSymbolTableRecord
100
AcDbLayerTableRecord
  2
GRUNDEBENE
 70
0
 62
7
  6
CONTINUOUS
  0
LAYER
  5
20B
100
AcDbSymbolTableRecord
100
AcDbLayerTableRecord
  2
IMPORT_KE
 70
0
 62
7
  6
CONTINUOUS
  0
LAYER
  5
20C
100
AcDbSymbolTableRecord
100
AcDbLayerTableRecord
  2
INTFCLR_3
 70
0
 62
7
  6
CONTINUOUS
  0
LAYER
  5
20D
100
AcDbSymbolTableRecord
100
AcDbLayerTableRecord
  2
INTF_1
 70
0
 62
7
  6
CONTINUOUS
  0
LAYER
  5
20E
100
AcDbSymbolTableRecord
100
AcDbLayerTableRecord
  2
INTF_2
 70
0
 62
7
  6
CONTINUOUS
  0
LAYER
  5
20F
100
AcDbSymbolTableRecord
100
AcDbLayerTableRecord
  2
INTF_3
 70
0
 62
7
  6
CONTINUOUS
  0
LAYER
  5
210
100
AcDbSymbolTableRecord
100
AcDbLayerTableRecord
  2
INTF_4
 70
0
 62
7
  6
CONTINUOUS
  0
LAYER
  5
211
100
AcDbSymbolTableRecord
100
AcDbLayerTableRecord
  2
INTF_MAGENTA
 70
0
 62
7
  6
CONTINUOUS
  0
LAYER
  5
212
100
AcDbSymbolTableRecord
100
AcDbLayerTableRecord
  2
INTF_YELLOW
 70
0
 62
7
  6
CONTINUOUS
  0
LAYER
  5
213
100
AcDbSymbolTableRecord
100
AcDbLayerTableRecord
  2
PROFIL
 70
0
 62
7
  6
CONTINUOUS
  0
LAYER
  5
214
100
AcDbSymbolTableRecord
100
AcDbLayerTableRecord
  2
QUER1
 70
0
 62
7
  6
CONTINUOUS
  0
LAYER
  5
215
100
AcDbSymbolTableRecord
100
AcDbLayerTableRecord
  2
QUER2
 70
0
 62
7
  6
CONTINUOUS
  0
LAYER
  5
216
100
AcDbSymbolTableRecord
100
AcDbLayerTableRecord
  2
QUER3
 70
0
 62
7
  6
CONTINUOUS
  0
LAYER
  5
217
100
AcDbSymbolTableRecord
100
AcDbLayerTableRecord
  2
SCHRAFFUR
 70
0
 62
7
  6
CONTINUOUS
  0
ENDTAB
  0
TABLE
  2
STYLE
  5
3
100
AcDbSymbolTable
 70
1
  0
STYLE
  5
11
100
AcDbSymbolTableRecord
100
AcDbTextStyleTableRecord
  2
STANDARD
 70
0
 40
0.0
 41
1.0
 50
0.0
 71
0
 42
0.2
  3
txt
  4

  0
STYLE
  5
218
100
AcDbSymbolTableRecord
100
AcDbTextStyleTableRecord
  2
TEXTSTYLE_1
 70
0
 40
0.0
 41
0.8
 50
0.0
 71
0
 42
0.2
  3
gdt
  4

  0
STYLE
  5
219
100
AcDbSymbolTableRecord
100
AcDbTextStyleTableRecord
  2
TEXTSTYLE_2
 70
0
 40
0.0
 41
1.0
 50
0.0
 71
0
 42
0.2
  3
txt
  4

  0
ENDTAB
  0
TABLE
  2
VIEW
  5
6
100
AcDbSymbolTable
 70
0
  0
ENDTAB
  0
TABLE
  2
UCS
  5
7
100
AcDbSymbolTable
 70
0
  0
ENDTAB
  0
TABLE
  2
APPID
  5
9
100
AcDbSymbolTable
 70
1
  0
APPID
  5
21A
100
AcDbSymbolTableRecord
100
AcDbRegAppTableRecord
  2
ACAD
 70
0
  0
ENDTAB
  0
TABLE
  2
BLOCK_RECORD
  5
1
100
AcDbSymbolTable
 70
0
  0
BLOCK_RECORD
  5
1F
100
AcDbSymbolTableRecord
100
AcDbBlockTableRecord
  2
*MODEL_SPACE
  0
BLOCK_RECORD
  5
1B
100
AcDbSymbolTableRecord
100
AcDbBlockTableRecord
  2
*PAPER_SPACE
  0
BLOCK_RECORD
  5
21B
100
AcDbSymbolTableRecord
100
AcDbBlockTableRecord
  2
_ARROW_FILLED
  0
BLOCK_RECORD
  5
21C
100
AcDbSymbolTableRecord
100
AcDbBlockTableRecord
  2
*D0
  0
BLOCK_RECORD
  5
21D
100
AcDbSymbolTableRecord
100
AcDbBlockTableRecord
  2
*D1
  0
BLOCK_RECORD
  5
21E
100
AcDbSymbolTableRecord
100
AcDbBlockTableRecord
  2
*D2
  0
BLOCK_RECORD
  5
21F
100
AcDbSymbolTableRecord
100
AcDbBlockTableRecord
  2
*D3
  0
BLOCK_RECORD
  5
220
100
AcDbSymbolTableRecord
100
AcDbBlockTableRecord
  2
*D4
  0
BLOCK_RECORD
  5
221
100
AcDbSymbolTableRecord
100
AcDbBlockTableRecord
  2
*D5
  0
BLOCK_RECORD
  5
222
100
AcDbSymbolTableRecord
100
AcDbBlockTableRecord
  2
*D6
  0
BLOCK_RECORD
  5
223
100
AcDbSymbolTableRecord
100
AcDbBlockTableRecord
  2
*D7
  0
BLOCK_RECORD
  5
224
100
AcDbSymbolTableRecord
100
AcDbBlockTableRecord
  2
*D8
  0
BLOCK_RECORD
  5
225
100
AcDbSymbolTableRecord
100
AcDbBlockTableRecord
  2
*D9
  0
ENDTAB
  0
TABLE
  2
DIMSTYLE
  5
A
100
AcDbSymbolTable
 70
1
  0
DIMSTYLE
105
226
100
AcDbSymbolTableRecord
100
AcDbDimStyleTableRecord
  2
STANDARD
 70
0
  3

  4

  5
_ARROW_FILLED
  6
_ARROW_FILLED
  7
_ARROW_FILLED
 40
1.0
 41
3.5
 42
0.0
 43
0.38
 44
2.0
 45
0.0
 46
0.0
 47
0.01
 48
0.01
140
3.5
141
0.09
142
0.0
143
25.4
144
1.0
145
0.0
146
1.0
147
0.625
 71
1.0
 72
0.0
 73
0
 74
0
 75
0
 76
0
 77
1
 78
8
170
0
171
1
172
0
173
0
174
0
175
0
176
0
177
0
178
5
270
2
271
2
272
2
273
2
274
2
275
0
280
0
281
0
282
0
283
1
284
8
285
0
286
0
287
3
288
0
340
11
  0
DIMSTYLE
105
227
100
AcDbSymbolTableRecord
100
AcDbDimStyleTableRecord
  2
DIMSTYLE_1
 70
0
  3

  4

  5
_ARROW_FILLED
  6
_ARROW_FILLED
  7
_ARROW_FILLED
 40
1.0
 41
3.5
 42
0.0
 43
0.38
 44
2.0
 45
0.0
 46
0.0
 47
0.1
 48
0.1
140
3.5
141
0.09
142
0.0
143
25.4
144
1.0
145
0.0
146
1.0
147
0.875
 71
0.0
 72
0.0
 73
0
 74
0
 75
0
 76
0
 77
1
 78
8
170
0
171
1
172
0
173
0
174
0
175
0
176
0
177
0
178
5
270
2
271
4
272
-1
273
2
274
2
275
0
280
0
281
0
282
0
283
1
284
8
285
0
286
0
287
3
288
0
340
219
  0
DIMSTYLE
105
228
100
AcDbSymbolTableRecord
100
AcDbDimStyleTableRecord
  2
DIMSTYLE_2
 70
0
  3

  4

  5
_ARROW_FILLED
  6
_ARROW_FILLED
  7
_ARROW_FILLED
 40
1.0
 41
3.5
 42
0.0
 43
0.38
 44
2.0
 45
0.0
 46
0.0
 47
0.3
 48
0.3
140
3.5
141
0.09
142
0.0
143
25.4
144
1.0
145
0.0
146
1.0
147
0.875
 71
0.0
 72
0.0
 73
0
 74
0
 75
0
 76
0
 77
1
 78
8
170
0
171
1
172
0
173
0
174
0
175
0
176
0
177
0
178
5
270
2
271
4
272
-1
273
2
274
2
275
0
280
0
281
0
282
0
283
1
284
8
285
0
286
0
287
3
288
0
340
219
  0
DIMSTYLE
105
229
100
AcDbSymbolTableRecord
100
AcDbDimStyleTableRecord
  2
DIMSTYLE_3
 70
0
  3

  4

  5
_ARROW_FILLED
  6
_ARROW_FILLED
  7
_ARROW_FILLED
 40
1.0
 41
3.5
 42
0.0
 43
0.38
 44
2.0
 45
0.0
 46
0.0
 47
0.2
 48
0.2
140
3.5
141
0.09
142
0.0
143
25.4
144
1.0
145
0.0
146
1.0
147
0.875
 71
0.0
 72
0.0
 73
0
 74
0
 75
0
 76
0
 77
1
 78
8
170
0
171
1
172
0
173
0
174
0
175
0
176
0
177
0
178
5
270
2
271
2
272
-1
273
2
274
2
275
0
280
0
281
0
282
0
283
1
284
8
285
0
286
0
287
3
288
0
340
219
  0
DIMSTYLE
105
22A
100
AcDbSymbolTableRecord
100
AcDbDimStyleTableRecord
  2
DIMSTYLE_4
 70
0
  3

  4

  5
_ARROW_FILLED
  6
_ARROW_FILLED
  7
_ARROW_FILLED
 40
1.0
 41
3.5
 42
0.0
 43
0.38
 44
2.0
 45
0.0
 46
0.0
 47
0.2
 48
0.2
140
3.5
141
0.09
142
0.0
143
25.4
144
1.0
145
0.0
146
1.0
147
0.875
 71
0.0
 72
0.0
 73
0
 74
0
 75
0
 76
0
 77
1
 78
8
170
0
171
1
172
0
173
0
174
0
175
0
176
0
177
0
178
5
270
2
271
3
272
-1
273
2
274
2
275
0
280
0
281
0
282
0
283
1
284
8
285
0
286
0
287
3
288
0
340
219
  0
DIMSTYLE
105
22B
100
AcDbSymbolTableRecord
100
AcDbDimStyleTableRecord
  2
DIMSTYLE_5
 70
0
  3

  4

  5
_ARROW_FILLED
  6
_ARROW_FILLED
  7
_ARROW_FILLED
 40
1.0
 41
3.5
 42
0.0
 43
0.38
 44
2.0
 45
0.0
 46
0.0
 47
0.2
 48
0.2
140
3.5
141
0.09
142
0.0
143
25.4
144
1.0
145
0.0
146
1.0
147
0.875
 71
0.0
 72
0.0
 73
0
 74
0
 75
0
 76
0
 77
1
 78
8
170
0
171
1
172
0
173
0
174
0
175
0
176
0
177
0
178
5
270
2
271
4
272
-1
273
2
274
2
275
0
280
0
281
0
282
0
283
1
284
8
285
0
286
0
287
3
288
0
340
219
  0
DIMSTYLE
105
22C
100
AcDbSymbolTableRecord
100
AcDbDimStyleTableRecord
  2
DIMSTYLE_6
 70
0
  3

  4

  5
_ARROW_FILLED
  6
_ARROW_FILLED
  7
_ARROW_FILLED
 40
1.0
 41
3.5
 42
0.0
 43
0.38
 44
2.0
 45
0.0
 46
0.0
 47
0.1
 48
0.1
140
3.5
141
0.09
142
0.0
143
25.4
144
1.0
145
0.0
146
1.0
147
0.875
 71
0.0
 72
0.0
 73
0
 74
0
 75
0
 76
0
 77
1
 78
8
170
0
171
1
172
0
173
0
174
0
175
0
176
0
177
0
178
5
270
2
271
1
272
-1
273
2
274
2
275
0
280
0
281
0
282
0
283
1
284
8
285
0
286
0
287
3
288
0
340
219
  0
ENDTAB
  0
ENDSEC
  0
SECTION
  2
BLOCKS
  0
BLOCK
  5
20
100
AcDbEntity
  8
0
100
AcDbBlockBegin
  2
*MODEL_SPACE
 70
0
 10
0.0
 20
0.0
 30
0.0
  3
*MODEL_SPACE
  1

  0
ENDBLK
  5
21
100
AcDbEntity
  8
0
100
AcDbBlockEnd
  0
BLOCK
  5
1C
100
AcDbEntity
  8
0
100
AcDbBlockBegin
  2
*PAPER_SPACE
 70
0
 10
0.0
 20
0.0
 30
0.0
  3
*PAPER_SPACE
  1

  0
ENDBLK
  5
1D
100
AcDbEntity
  8
0
100
AcDbBlockEnd
  0
BLOCK
  5
22D
100
AcDbEntity
  8
0
100
AcDbBlockBegin
  2
_ARROW_FILLED
 70
64
 10
0.0
 20
0.0
  3
_ARROW_FILLED
  1

  0
SOLID
  5
22E
100
AcDbEntity
  8
0
  6
BYBLOCK
 62
0
100
AcDbTrace
 10
0.0
 20
0.0
 11
-1.0
 21
0.1428571429
 12
-1.0
 22
-0.1428571429
 13
-1.0
 23
-0.1428571429
  0
ENDBLK
  5
22F
100
AcDbEntity
  8
0
  6
BYBLOCK
 62
0
100
AcDbBlockEnd
  0
BLOCK
  5
230
100
AcDbEntity
  8
A_BEMASSUNGEN
100
AcDbBlockBegin
 62
2
  6
CONTINUOUS
  2
*D0
 70
65
 10
0.0
 20
0.0
  3
*D0
  1

  0
MTEXT
  5
231
100
AcDbEntity
  8
A_BEMASSUNGEN
100
AcDbMText
 62
5
  6
CONTINUOUS
  7
TEXTSTYLE_2
 71
1
 72
1
 10
178.0990510731
 20
50.1357435732
 30
0.0
 11
0.0
 21
1.0
 31
0.0
  1
5
 40
3.5
 41
3.75
  0
LINE
  5
232
100
AcDbEntity
  8
A_BEMASSUNGEN
100
AcDbLine
 62
2
  6
CONTINUOUS
 10
164.3880497836
 20
53.3516863975
 11
184.4740510669
 21
53.351686436
  0
LINE
  5
233
100
AcDbEntity
  8
A_BEMASSUNGEN
100
AcDbLine
 62
2
  6
CONTINUOUS
 10
99.3880497741
 20
58.3516862729
 11
184.4740510573
 21
58.351686436
  0
LINE
  5
234
100
AcDbEntity
  8
A_BEMASSUNGEN
100
AcDbLine
 62
2
  6
CONTINUOUS
 10
182.4740510669
 20
53.3516864322
 11
182.4740510731
 21
50.1357435732
  0
LINE
  5
235
100
AcDbEntity
  8
A_BEMASSUNGEN
100
AcDbLine
 62
2
  6
CONTINUOUS
 10
182.4740510731
 20
50.1357435732
 11
182.4740510621
 21
55.8516864322
  0
LINE
  5
236
100
AcDbEntity
  8
A_BEMASSUNGEN
100
AcDbLine
 62
2
  6
CONTINUOUS
 10
182.4740510573
 20
58.3516864322
 11
182.4740510429
 21
65.8516864322
  0
LINE
  5
237
100
AcDbEntity
  8
A_BEMASSUNGEN
100
AcDbLine
 62
2
  6
CONTINUOUS
 10
182.4740510429
 20
65.8516864322
 11
182.4740510621
 21
55.8516864322
  0
INSERT
  5
238
100
AcDbEntity
  8
A_BEMASSUNGEN
100
AcDbBlockReference
 62
2
  6
CONTINUOUS
  2
_ARROW_FILLED
 10
182.4740510669
 20
53.3516864322
 41
3.5
 42
3.5
 43
3.5
 50
90.0000001098
  0
INSERT
  5
239
100
AcDbEntity
  8
A_BEMASSUNGEN
100
AcDbBlockReference
 62
2
  6
CONTINUOUS
  2
_ARROW_FILLED
 10
182.4740510573
 20
58.3516864322
 41
3.5
 42
3.5
 43
3.5
 50
270.0000001098
  0
ENDBLK
  5
23A
100
AcDbEntity
  8
0
  6
BYBLOCK
 62
0
100
AcDbBlockEnd
  0
BLOCK
  5
23B
100
AcDbEntity
  8
A_BEMASSUNGEN
100
AcDbBlockBegin
 62
2
  6
CONTINUOUS
  2
*D1
 70
65
 10
0.0
 20
0.0
  3
*D1
  1

  0
MTEXT
  5
23C
100
AcDbEntity
  8
A_BEMASSUNGEN
100
AcDbMText
 62
5
  6
CONTINUOUS
  7
TEXTSTYLE_2
 71
2
 72
1
 10
178.1027012068
 20
78.7016864322
 30
0.0
 11
0.0
 21
1.0
 31
0.0
  1
40.7
 40
3.5
 41
15.375
  0
LINE
  5
23D
100
AcDbEntity
  8
A_BEMASSUNGEN
100
AcDbLine
 62
2
  6
CONTINUOUS
 10
99.3880497741
 20
58.3516862729
 11
184.4777012458
 21
58.351686436
  0
LINE
  5
23E
100
AcDbEntity
  8
A_BEMASSUNGEN
100
AcDbLine
 62
2
  6
CONTINUOUS
 10
99.388049696
 20
99.0516862729
 11
184.4777011678
 21
99.051686436
  0
LINE
  5
23F
100
AcDbEntity
  8
A_BEMASSUNGEN
100
AcDbLine
 62
2
  6
CONTINUOUS
 10
182.4777012458
 20
58.3516864322
 11
182.4777012068
 21
78.7016864322
  0
LINE
  5
240
100
AcDbEntity
  8
A_BEMASSUNGEN
100
AcDbLine
 62
2
  6
CONTINUOUS
 10
182.4777011678
 20
99.0516864322
 11
182.4777012068
 21
78.7016864322
  0
INSERT
  5
241
100
AcDbEntity
  8
A_BEMASSUNGEN
100
AcDbBlockReference
 62
2
  6
CONTINUOUS
  2
_ARROW_FILLED
 10
182.4777012458
 20
58.3516864322
 41
3.5
 42
3.5
 43
3.5
 50
270.0000001098
  0
INSERT
  5
242
100
AcDbEntity
  8
A_BEMASSUNGEN
100
AcDbBlockReference
 62
2
  6
CONTINUOUS
  2
_ARROW_FILLED
 10
182.4777011678
 20
99.0516864322
 41
3.5
 42
3.5
 43
3.5
 50
90.0000001098
  0
ENDBLK
  5
243
100
AcDbEntity
  8
0
  6
BYBLOCK
 62
0
100
AcDbBlockEnd
  0
BLOCK
  5
244
100
AcDbEntity
  8
A_BEMASSUNGEN
100
AcDbBlockBegin
 62
2
  6
CONTINUOUS
  2
*D2
 70
65
 10
0.0
 20
0.0
  3
*D2
  1

  0
MTEXT
  5
245
100
AcDbEntity
  8
A_BEMASSUNGEN
100
AcDbMText
 62
5
  6
CONTINUOUS
  7
TEXTSTYLE_2
 71
3
 72
1
 10
50.1797251602
 20
67.8356112897
 30
0.0
 11
0.0
 21
1.0
 31
0.0
  1
6
 40
3.5
 41
4.125
  0
LINE
  5
246
100
AcDbEntity
  8
A_BEMASSUNGEN
100
AcDbLine
 62
2
  6
CONTINUOUS
 10
64.8880497472
 20
72.3516862068
 11
52.5547251602
 21
72.3516862068
  0
LINE
  5
247
100
AcDbEntity
  8
A_BEMASSUNGEN
100
AcDbLine
 62
2
  6
CONTINUOUS
 10
54.5547251602
 20
78.3516862116
 11
54.5547251602
 21
85.8516862116
  0
LINE
  5
248
100
AcDbEntity
  8
A_BEMASSUNGEN
100
AcDbLine
 62
2
  6
CONTINUOUS
 10
54.5547251602
 20
85.8516862116
 11
54.5547251602
 21
75.3516862092
  0
LINE
  5
249
100
AcDbEntity
  8
A_BEMASSUNGEN
100
AcDbLine
 62
2
  6
CONTINUOUS
 10
54.5547251602
 20
72.3516862068
 11
54.5547251602
 21
65.0856112897
  0
LINE
  5
24A
100
AcDbEntity
  8
A_BEMASSUNGEN
100
AcDbLine
 62
2
  6
CONTINUOUS
 10
54.5547251602
 20
65.0856112897
 11
54.5547251602
 21
75.3516862092
  0
INSERT
  5
24B
100
AcDbEntity
  8
A_BEMASSUNGEN
100
AcDbBlockReference
 62
2
  6
CONTINUOUS
  2
_ARROW_FILLED
 10
54.5547251602
 20
78.3516862116
 41
3.5
 42
3.5
 43
3.5
 50
270.0
  0
INSERT
  5
24C
100
AcDbEntity
  8
A_BEMASSUNGEN
100
AcDbBlockReference
 62
2
  6
CONTINUOUS
  2
_ARROW_FILLED
 10
54.5547251602
 20
72.3516862068
 41
3.5
 42
3.5
 43
3.5
 50
90.0
  0
ENDBLK
  5
24D
100
AcDbEntity
  8
0
  6
BYBLOCK
 62
0
100
AcDbBlockEnd
  0
BLOCK
  5
24E
100
AcDbEntity
  8
A_BEMASSUNGEN
100
AcDbBlockBegin
 62
2
  6
CONTINUOUS
  2
*D3
 70
65
 10
0.0
 20
0.0
  3
*D3
  1

  0
MTEXT
  5
24F
100
AcDbEntity
  8
A_BEMASSUNGEN
100
AcDbMText
 62
5
  6
CONTINUOUS
  7
TEXTSTYLE_2
 71
2
 72
1
 10
39.7456260415
 20
65.8516862092
 30
0.0
 11
0.0
 21
1.0
 31
0.0
  1
25
 40
3.5
 41
7.875
  0
LINE
  5
250
100
AcDbEntity
  8
A_BEMASSUNGEN
100
AcDbLine
 62
2
  6
CONTINUOUS
 10
64.8880497836
 20
53.3516862068
 11
42.1206260415
 21
53.3516862068
  0
LINE
  5
251
100
AcDbEntity
  8
A_BEMASSUNGEN
100
AcDbLine
 62
2
  6
CONTINUOUS
 10
44.1206260415
 20
78.3516862116
 11
44.1206260415
 21
65.8516862092
  0
LINE
  5
252
100
AcDbEntity
  8
A_BEMASSUNGEN
100
AcDbLine
 62
2
  6
CONTINUOUS
 10
44.1206260415
 20
53.3516862068
 11
44.1206260415
 21
65.8516862092
  0
INSERT
  5
253
100
AcDbEntity
  8
A_BEMASSUNGEN
100
AcDbBlockReference
 62
2
  6
CONTINUOUS
  2
_ARROW_FILLED
 10
44.1206260415
 20
78.3516862116
 41
3.5
 42
3.5
 43
3.5
 50
90.0
  0
INSERT
  5
254
100
AcDbEntity
  8
A_BEMASSUNGEN
100
AcDbBlockReference
 62
2
  6
CONTINUOUS
  2
_ARROW_FILLED
 10
44.1206260415
 20
53.3516862068
 41
3.5
 42
3.5
 43
3.5
 50
270.0
  0
ENDBLK
  5
255
100
AcDbEntity
  8
0
  6
BYBLOCK
 62
0
100
AcDbBlockEnd
  0
BLOCK
  5
256
100
AcDbEntity
  8
A_BEMASSUNGEN
100
AcDbBlockBegin
 62
2
  6
CONTINUOUS
  2
*D4
 70
65
 10
0.0
 20
0.0
  3
*D4
  1

  0
MTEXT
  5
257
100
AcDbEntity
  8
A_BEMASSUNGEN
100
AcDbMText
 62
5
  6
CONTINUOUS
  7
TEXTSTYLE_2
 71
3
 72
1
 10
3.8091998126
 20
72.2266442116
 30
0.0
 11
0.0
 21
1.0
 31
0.0
  1
7
 40
3.5
 41
4.125
  0
LINE
  5
258
100
AcDbEntity
  8
A_BEMASSUNGEN
100
AcDbLine
 62
2
  6
CONTINUOUS
 10
16.8880497633
 20
78.3516862116
 11
6.1841998126
 21
78.3516862116
  0
LINE
  5
259
100
AcDbEntity
  8
A_BEMASSUNGEN
100
AcDbLine
 62
2
  6
CONTINUOUS
 10
41.8880497633
 20
85.3516862116
 11
6.1841998126
 21
85.3516862116
  0
LINE
  5
25A
100
AcDbEntity
  8
A_BEMASSUNGEN
100
AcDbLine
 62
2
  6
CONTINUOUS
 10
8.1841998126
 20
78.3516862116
 11
8.1841998126
 21
69.4766442116
  0
LINE
  5
25B
100
AcDbEntity
  8
A_BEMASSUNGEN
100
AcDbLine
 62
2
  6
CONTINUOUS
 10
8.1841998126
 20
69.4766442116
 11
8.1841998126
 21
81.8516862116
  0
LINE
  5
25C
100
AcDbEntity
  8
A_BEMASSUNGEN
100
AcDbLine
 62
2
  6
CONTINUOUS
 10
8.1841998126
 20
85.3516862116
 11
8.1841998126
 21
92.8516862116
  0
LINE
  5
25D
100
AcDbEntity
  8
A_BEMASSUNGEN
100
AcDbLine
 62
2
  6
CONTINUOUS
 10
8.1841998126
 20
92.8516862116
 11
8.1841998126
 21
81.8516862116
  0
INSERT
  5
25E
100
AcDbEntity
  8
A_BEMASSUNGEN
100
AcDbBlockReference
 62
2
  6
CONTINUOUS
  2
_ARROW_FILLED
 10
8.1841998126
 20
78.3516862116
 41
3.5
 42
3.5
 43
3.5
 50
90.0
  0
INSERT
  5
25F
100
AcDbEntity
  8
A_BEMASSUNGEN
100
AcDbBlockReference
 62
2
  6
CONTINUOUS
  2
_ARROW_FILLED
 10
8.1841998126
 20
85.3516862116
 41
3.5
 42
3.5
 43
3.5
 50
270.0
  0
ENDBLK
  5
260
100
AcDbEntity
  8
0
  6
BYBLOCK
 62
0
100
AcDbBlockEnd
  0
BLOCK
  5
261
100
AcDbEntity
  8
A_BEMASSUNGEN
100
AcDbBlockBegin
 62
2
  6
CONTINUOUS
  2
*D5
 70
65
 10
0.0
 20
0.0
  3
*D5
  1

  0
MTEXT
  5
262
100
AcDbEntity
  8
A_BEMASSUNGEN
100
AcDbMText
 62
5
  6
CONTINUOUS
  7
TEXTSTYLE_2
 71
2
 72
1
 10
3.8091998126
 20
100.3516862116
 30
0.0
 11
0.0
 21
1.0
 31
0.0
  1
30
 40
3.5
 41
7.875
  0
LINE
  5
263
100
AcDbEntity
  8
A_BEMASSUNGEN
100
AcDbLine
 62
2
  6
CONTINUOUS
 10
41.8880497633
 20
85.3516862116
 11
6.1841998126
 21
85.3516862116
  0
LINE
  5
264
100
AcDbEntity
  8
A_BEMASSUNGEN
100
AcDbLine
 62
2
  6
CONTINUOUS
 10
41.8880497633
 20
115.3516862116
 11
6.1841998126
 21
115.3516862116
  0
LINE
  5
265
100
AcDbEntity
  8
A_BEMASSUNGEN
100
AcDbLine
 62
2
  6
CONTINUOUS
 10
8.1841998126
 20
85.3516862116
 11
8.1841998126
 21
100.3516862116
  0
LINE
  5
266
100
AcDbEntity
  8
A_BEMASSUNGEN
100
AcDbLine
 62
2
  6
CONTINUOUS
 10
8.1841998126
 20
115.3516862116
 11
8.1841998126
 21
100.3516862116
  0
INSERT
  5
267
100
AcDbEntity
  8
A_BEMASSUNGEN
100
AcDbBlockReference
 62
2
  6
CONTINUOUS
  2
_ARROW_FILLED
 10
8.1841998126
 20
85.3516862116
 41
3.5
 42
3.5
 43
3.5
 50
270.0
  0
INSERT
  5
268
100
AcDbEntity
  8
A_BEMASSUNGEN
100
AcDbBlockReference
 62
2
  6
CONTINUOUS
  2
_ARROW_FILLED
 10
8.1841998126
 20
115.3516862116
 41
3.5
 42
3.5
 43
3.5
 50
90.0
  0
ENDBLK
  5
269
100
AcDbEntity
  8
0
  6
BYBLOCK
 62
0
100
AcDbBlockEnd
  0
BLOCK
  5
26A
100
AcDbEntity
  8
A_BEMASSUNGEN
100
AcDbBlockBegin
 62
2
  6
CONTINUOUS
  2
*D6
 70
65
 10
0.0
 20
0.0
  3
*D6
  1

  0
MTEXT
  5
26B
100
AcDbEntity
  8
A_BEMASSUNGEN
100
AcDbMText
 62
5
  6
CONTINUOUS
  7
TEXTSTYLE_2
 71
1
 72
1
 10
86.0243886977
 20
167.9397754659
 30
0.0
 11
1.0
 21
0.0
 31
0.0
  1
5
 40
3.5
 41
3.75
  0
LINE
  5
26C
100
AcDbEntity
  8
A_BEMASSUNGEN
100
AcDbLine
 62
2
  6
CONTINUOUS
 10
79.888049684
 20
105.3516862355
 11
79.8880495685
 21
165.5647754541
  0
LINE
  5
26D
100
AcDbEntity
  8
A_BEMASSUNGEN
100
AcDbLine
 62
2
  6
CONTINUOUS
 10
74.8880497633
 20
114.7516862116
 11
74.8880496659
 21
165.5647754445
  0
LINE
  5
26E
100
AcDbEntity
  8
A_BEMASSUNGEN
100
AcDbLine
 62
2
  6
CONTINUOUS
 10
79.8880495724
 20
163.5647754541
 11
88.5243886977
 21
163.5647754659
  0
LINE
  5
26F
100
AcDbEntity
  8
A_BEMASSUNGEN
100
AcDbLine
 62
2
  6
CONTINUOUS
 10
88.5243886977
 20
163.5647754659
 11
77.3880496211
 21
163.5647754493
  0
LINE
  5
270
100
AcDbEntity
  8
A_BEMASSUNGEN
100
AcDbLine
 62
2
  6
CONTINUOUS
 10
74.8880496698
 20
163.5647754445
 11
67.3880496698
 21
163.5647754301
  0
LINE
  5
271
100
AcDbEntity
  8
A_BEMASSUNGEN
100
AcDbLine
 62
2
  6
CONTINUOUS
 10
67.3880496698
 20
163.5647754301
 11
77.3880496211
 21
163.5647754493
  0
INSERT
  5
272
100
AcDbEntity
  8
A_BEMASSUNGEN
100
AcDbBlockReference
 62
2
  6
CONTINUOUS
  2
_ARROW_FILLED
 10
79.8880495724
 20
163.5647754541
 41
3.5
 42
3.5
 43
3.5
 50
180.000000078
  0
INSERT
  5
273
100
AcDbEntity
  8
A_BEMASSUNGEN
100
AcDbBlockReference
 62
2
  6
CONTINUOUS
  2
_ARROW_FILLED
 10
74.8880496698
 20
163.5647754445
 41
3.5
 42
3.5
 43
3.5
 50
0.0000001098
  0
ENDBLK
  5
274
100
AcDbEntity
  8
0
  6
BYBLOCK
 62
0
100
AcDbBlockEnd
  0
BLOCK
  5
275
100
AcDbEntity
  8
A_BEMASSUNGEN
100
AcDbBlockBegin
 62
2
  6
CONTINUOUS
  2
*D7
 70
65
 10
0.0
 20
0.0
  3
*D7
  1

  0
MTEXT
  5
276
100
AcDbEntity
  8
A_BEMASSUNGEN
100
AcDbMText
 62
5
  6
CONTINUOUS
  7
TEXTSTYLE_2
 71
2
 72
1
 10
58.3880497633
 20
167.9408852714
 30
0.0
 11
1.0
 21
0.0
 31
0.0
  1
33
 40
3.5
 41
7.5
  0
LINE
  5
277
100
AcDbEntity
  8
A_BEMASSUNGEN
100
AcDbLine
 62
2
  6
CONTINUOUS
 10
74.8880497633
 20
114.7516862116
 11
74.8880497633
 21
165.5658852714
  0
LINE
  5
278
100
AcDbEntity
  8
A_BEMASSUNGEN
100
AcDbLine
 62
2
  6
CONTINUOUS
 10
41.8880497633
 20
115.3516862116
 11
41.8880497633
 21
165.5658852714
  0
LINE
  5
279
100
AcDbEntity
  8
A_BEMASSUNGEN
100
AcDbLine
 62
2
  6
CONTINUOUS
 10
74.8880497633
 20
163.5658852714
 11
58.3880497633
 21
163.5658852714
  0
LINE
  5
27A
100
AcDbEntity
  8
A_BEMASSUNGEN
100
AcDbLine
 62
2
  6
CONTINUOUS
 10
41.8880497633
 20
163.5658852714
 11
58.3880497633
 21
163.5658852714
  0
INSERT
  5
27B
100
AcDbEntity
  8
A_BEMASSUNGEN
100
AcDbBlockReference
 62
2
  6
CONTINUOUS
  2
_ARROW_FILLED
 10
74.8880497633
 20
163.5658852714
 41
3.5
 42
3.5
 43
3.5
  0
INSERT
  5
27C
100
AcDbEntity
  8
A_BEMASSUNGEN
100
AcDbBlockReference
 62
2
  6
CONTINUOUS
  2
_ARROW_FILLED
 10
41.8880497633
 20
163.5658852714
 41
3.5
 42
3.5
 43
3.5
 50
180.0
  0
ENDBLK
  5
27D
100
AcDbEntity
  8
0
  6
BYBLOCK
 62
0
100
AcDbBlockEnd
  0
BLOCK
  5
27E
100
AcDbEntity
  8
A_BEMASSUNGEN
100
AcDbBlockBegin
 62
2
  6
CONTINUOUS
  2
*D8
 70
65
 10
0.0
 20
0.0
  3
*D8
  1

  0
MTEXT
  5
27F
100
AcDbEntity
  8
A_BEMASSUNGEN
100
AcDbMText
 62
5
  6
CONTINUOUS
  7
TEXTSTYLE_2
 71
2
 72
1
 10
70.8880497974
 20
50.5371044852
 30
0.0
 11
1.0
 21
0.0
 31
0.0
  1
18
 40
3.5
 41
7.125
  0
LINE
  5
280
100
AcDbEntity
  8
A_BEMASSUNGEN
100
AcDbLine
 62
2
  6
CONTINUOUS
 10
61.8880497739
 20
58.451686201
 11
61.8880498013
 21
44.1621044679
  0
LINE
  5
281
100
AcDbEntity
  8
A_BEMASSUNGEN
100
AcDbLine
 62
2
  6
CONTINUOUS
 10
79.8880497317
 20
80.4518005157
 11
79.8880498013
 21
44.1621045024
  0
LINE
  5
282
100
AcDbEntity
  8
A_BEMASSUNGEN
100
AcDbLine
 62
2
  6
CONTINUOUS
 10
61.8880497974
 20
46.1621044679
 11
70.8880497974
 21
46.1621044852
  0
LINE
  5
283
100
AcDbEntity
  8
A_BEMASSUNGEN
100
AcDbLine
 62
2
  6
CONTINUOUS
 10
79.8880497974
 20
46.1621045024
 11
70.8880497974
 21
46.1621044852
  0
INSERT
  5
284
100
AcDbEntity
  8
A_BEMASSUNGEN
100
AcDbBlockReference
 62
2
  6
CONTINUOUS
  2
_ARROW_FILLED
 10
61.8880497974
 20
46.1621044679
 41
3.5
 42
3.5
 43
3.5
 50
180.0000001098
  0
INSERT
  5
285
100
AcDbEntity
  8
A_BEMASSUNGEN
100
AcDbBlockReference
 62
2
  6
CONTINUOUS
  2
_ARROW_FILLED
 10
79.8880497974
 20
46.1621045024
 41
3.5
 42
3.5
 43
3.5
 50
0.0000001098
  0
ENDBLK
  5
286
100
AcDbEntity
  8
0
  6
BYBLOCK
 62
0
100
AcDbBlockEnd
  0
BLOCK
  5
287
100
AcDbEntity
  8
A_BEMASSUNGEN
100
AcDbBlockBegin
 62
2
  6
CONTINUOUS
  2
*D9
 70
65
 10
0.0
 20
0.0
  3
*D9
  1

  0
MTEXT
  5
288
100
AcDbEntity
  8
A_BEMASSUNGEN
100
AcDbMText
 62
5
  6
CONTINUOUS
  7
TEXTSTYLE_2
 71
2
 72
1
 10
78.1386734814
 20
41.8309625228
 30
0.0
 11
1.0
 21
0.0
 31
0.0
  1
37.5
 40
3.5
 41
14.625
  0
LINE
  5
289
100
AcDbEntity
  8
A_BEMASSUNGEN
100
AcDbLine
 62
2
  6
CONTINUOUS
 10
61.8880497739
 20
58.451686201
 11
61.888049818
 21
35.4559624916
  0
LINE
  5
28A
100
AcDbEntity
  8
A_BEMASSUNGEN
100
AcDbLine
 62
2
  6
CONTINUOUS
 10
99.3880497741
 20
58.3516862729
 11
99.388049818
 21
35.4559625635
  0
LINE
  5
28B
100
AcDbEntity
  8
A_BEMASSUNGEN
100
AcDbLine
 62
2
  6
CONTINUOUS
 10
61.8880498141
 20
37.4559624916
 11
80.6380498141
 21
37.4559625276
  0
LINE
  5
28C
100
AcDbEntity
  8
A_BEMASSUNGEN
100
AcDbLine
 62
2
  6
CONTINUOUS
 10
99.3880498141
 20
37.4559625635
 11
80.6380498141
 21
37.4559625276
  0
INSERT
  5
28D
100
AcDbEntity
  8
A_BEMASSUNGEN
100
AcDbBlockReference
 62
2
  6
CONTINUOUS
  2
_ARROW_FILLED
 10
61.8880498141
 20
37.4559624916
 41
3.5
 42
3.5
 43
3.5
 50
180.0000001098
  0
INSERT
  5
28E
100
AcDbEntity
  8
A_BEMASSUNGEN
100
AcDbBlockReference
 62
2
  6
CONTINUOUS
  2
_ARROW_FILLED
 10
99.3880498141
 20
37.4559625635
 41
3.5
 42
3.5
 43
3.5
 50
0.0000001098
  0
ENDBLK
  5
28F
100
AcDbEntity
  8
0
  6
BYBLOCK
 62
0
100
AcDbBlockEnd
  0
ENDSEC
  0
SECTION
  2
ENTITIES
  0
DIMENSION
  5
290
100
AcDbEntity
  8
A_BEMASSUNGEN
100
AcDbDimension
 62
2
  6
CONTINUOUS
  2
*D0
 10
182.4740510573
 20
58.3516864322
 11
182.4740510716
 21
50.8857404982
 70
160
  3
DIMSTYLE_1
100
AcDbAlignedDimension
 13
164.3880497836
 23
53.3516863975
 14
99.3880497741
 24
58.3516862729
 50
90.0000001098
100
AcDbRotatedDimension
  0
DIMENSION
  5
291
100
AcDbEntity
  8
A_BEMASSUNGEN
100
AcDbDimension
 62
2
  6
CONTINUOUS
  2
*D1
 10
182.4777011678
 20
99.0516864322
 11
182.4777012078
 21
78.2016892268
 70
160
  3
DIMSTYLE_2
100
AcDbAlignedDimension
 13
99.3880497741
 23
58.3516862729
 14
99.388049696
 24
99.0516862729
 50
90.0000001098
100
AcDbRotatedDimension
  0
DIMENSION
  5
292
100
AcDbEntity
  8
A_BEMASSUNGEN
100
AcDbDimension
 62
2
  6
CONTINUOUS
  2
*D2
 10
54.5547251602
 20
72.3516862068
 11
54.5547251602
 21
65.9606119564
 70
160
  3
DIMSTYLE_3
100
AcDbAlignedDimension
 13
72.8880497633
 23
78.3516862116
 14
64.8880497472
 24
72.3516862068
 50
270.0
100
AcDbRotatedDimension
  0
DIMENSION
  5
293
100
AcDbEntity
  8
A_BEMASSUNGEN
100
AcDbDimension
 62
2
  6
CONTINUOUS
  2
*D3
 10
44.1206260415
 20
53.3516862068
 11
44.1206260415
 21
65.3516882756
 70
160
  3
DIMSTYLE_4
100
AcDbAlignedDimension
 13
72.8880497633
 23
78.3516862116
 14
64.8880497836
 24
53.3516862068
 50
270.0
100
AcDbRotatedDimension
  0
DIMENSION
  5
294
100
AcDbEntity
  8
A_BEMASSUNGEN
100
AcDbDimension
 62
2
  6
CONTINUOUS
  2
*D4
 10
8.1841998126
 20
85.3516862116
 11
8.1841998126
 21
70.351643617
 70
160
  3
DIMSTYLE_5
100
AcDbAlignedDimension
 13
16.8880497633
 23
78.3516862116
 14
41.8880497633
 24
85.3516862116
 50
90.0
100
AcDbRotatedDimension
  0
DIMENSION
  5
295
100
AcDbEntity
  8
A_BEMASSUNGEN
100
AcDbDimension
 62
2
  6
CONTINUOUS
  2
*D5
 10
8.1841998126
 20
115.3516862116
 11
8.1841998126
 21
99.8516861739
 70
160
  3
DIMSTYLE_5
100
AcDbAlignedDimension
 13
41.8880497633
 23
85.3516862116
 14
41.8880497633
 24
115.3516862116
 50
90.0
100
AcDbRotatedDimension
  0
DIMENSION
  5
296
100
AcDbEntity
  8
A_BEMASSUNGEN
100
AcDbDimension
 62
2
  6
CONTINUOUS
  2
*D6
 10
74.8880496698
 20
163.5647754445
 11
86.7743892948
 21
163.5647754635
 70
160
  3
DIMSTYLE_6
100
AcDbAlignedDimension
 13
79.888049684
 23
105.3516862355
 14
74.8880497633
 24
114.7516862116
 50
180.0000001098
100
AcDbRotatedDimension
  0
DIMENSION
  5
297
100
AcDbEntity
  8
A_BEMASSUNGEN
100
AcDbDimension
 62
2
  6
CONTINUOUS
  2
*D7
 10
41.8880497633
 20
163.5658852714
 11
57.8880473903
 21
163.5658852714
 70
160
  3
DIMSTYLE_2
100
AcDbAlignedDimension
 13
74.8880497633
 23
114.7516862116
 14
41.8880497633
 24
115.3516862116
 50
180.0
100
AcDbRotatedDimension
  0
DIMENSION
  5
298
100
AcDbEntity
  8
A_BEMASSUNGEN
100
AcDbDimension
 62
2
  6
CONTINUOUS
  2
*D8
 10
79.8880497974
 20
46.1621045024
 11
70.3880493497
 21
46.1621044842
 70
160
  3
DIMSTYLE_5
100
AcDbAlignedDimension
 13
61.8880497739
 23
58.451686201
 14
79.8880497317
 24
80.4518005157
 50
0.0000001098
100
AcDbRotatedDimension
  0
DIMENSION
  5
299
100
AcDbEntity
  8
A_BEMASSUNGEN
100
AcDbDimension
 62
2
  6
CONTINUOUS
  2
*D9
 10
99.3880498141
 20
37.4559625635
 11
77.6386718387
 21
37.4559625218
 70
160
  3
DIMSTYLE_2
100
AcDbAlignedDimension
 13
61.8880497739
 23
58.451686201
 14
99.3880497741
 24
58.3516862729
 50
0.0000001098
100
AcDbRotatedDimension
  0
LINE
  5
29A
100
AcDbEntity
  8
0
100
AcDbLine
 62
7
  6
CONTINUOUS
 10
14.8880497633
 20
80.3516862116
 11
14.8880497633
 21
98.6774502116
  0
LINE
  5
29B
100
AcDbEntity
  8
0
100
AcDbLine
 62
7
  6
CONTINUOUS
 10
14.8880497633
 20
152.1907852116
 11
14.8880497633
 21
154.3516862116
  0
LINE
  5
29C
100
AcDbEntity
  8
0
100
AcDbLine
 62
7
  6
CONTINUOUS
 10
15.3880497633
 20
115.0215582116
 11
15.3880497633
 21
129.6818142116
  0
LINE
  5
29D
100
AcDbEntity
  8
0
100
AcDbLine
 62
7
  6
CONTINUOUS
 10
18.8880497633
 20
144.9997032116
 11
18.8880497633
 21
149.8072782116
  0
LINE
  5
29E
100
AcDbEntity
  8
0
100
AcDbLine
 62
7
  6
CONTINUOUS
 10
24.8880497633
 20
100.5490792116
 11
24.8880497633
 21
113.1542922116
  0
LINE
  5
29F
100
AcDbEntity
  8
0
100
AcDbLine
 62
7
  6
CONTINUOUS
 10
24.8880497633
 20
131.5490792116
 11
24.8880497633
 21
144.1542922116
  0
LINE
  5
2A0
100
AcDbEntity
  8
0
100
AcDbLine
 62
7
  6
CONTINUOUS
 10
41.8880497633
 20
85.3516862116
 11
41.8880497633
 21
115.3516862116
  0
LINE
  5
2A1
100
AcDbEntity
  8
0
100
AcDbLine
 62
7
  6
CONTINUOUS
 10
42.3880497633
 20
112.8516862116
 11
42.3880497633
 21
106.8516862116
  0
LINE
  5
2A2
100
AcDbEntity
  8
0
100
AcDbLine
 62
7
  6
CONTINUOUS
 10
42.3880497633
 20
97.0016862116
 11
42.3880497633
 21
90.0016862116
  0
LINE
  5
2A3
100
AcDbEntity
  8
0
100
AcDbLine
 62
7
  6
CONTINUOUS
 10
44.6380497633
 20
100.3516862116
 11
44.6380497633
 21
106.3516862116
  0
LINE
  5
2A4
100
AcDbEntity
  8
0
100
AcDbLine
 62
7
  6
CONTINUOUS
 10
46.8880497633
 20
98.1016862116
 11
46.8880497633
 21
108.6016862116
  0
LINE
  5
2A5
100
AcDbEntity
  8
0
100
AcDbLine
 62
7
  6
CONTINUOUS
 10
47.8880497633
 20
85.5341579124
 11
47.8880497633
 21
115.1692145108
  0
LINE
  5
2A6
100
AcDbEntity
  8
A_FASEN
100
AcDbLine
 62
7
  6
CONTINUOUS
 10
48.3880497633
 20
90.0516862116
 11
48.3880497633
 21
97.0516862116
  0
LINE
  5
2A7
100
AcDbEntity
  8
0
100
AcDbLine
 62
7
  6
CONTINUOUS
 10
49.3880497633
 20
97.0516862116
 11
49.3880497633
 21
90.0516862116
  0
LINE
  5
2A8
100
AcDbEntity
  8
0
100
AcDbLine
 62
7
  6
CONTINUOUS
 10
50.6880497633
 20
88.5367529263
 11
50.6880497633
 21
112.1666194968
  0
LINE
  5
2A9
100
AcDbEntity
  8
0
100
AcDbLine
 62
7
  6
CONTINUOUS
 10
52.3880497633
 20
107.4516862116
 11
52.3880497633
 21
103.4516862116
  0
LINE
  5
2AA
100
AcDbEntity
  8
0
100
AcDbLine
 62
7
  6
CONTINUOUS
 10
52.3880497633
 20
96.9516862116
 11
52.3880497633
 21
92.9516862116
  0
LINE
  5
2AB
100
AcDbEntity
  8
0
100
AcDbLine
 62
7
  6
CONTINUOUS
 10
52.8880497633
 20
92.4516862116
 11
52.8880497633
 21
97.4516862116
  0
LINE
  5
2AC
100
AcDbEntity
  8
0
100
AcDbLine
 62
7
  6
CONTINUOUS
 10
52.8880497633
 20
102.9516862116
 11
52.8880497633
 21
107.9516862116
  0
LINE
  5
2AD
100
AcDbEntity
  8
0
100
AcDbLine
 62
7
  6
CONTINUOUS
 10
53.8880497633
 20
88.682646346
 11
53.8880497633
 21
102.9516862116
  0
LINE
  5
2AE
100
AcDbEntity
  8
0
100
AcDbLine
 62
7
  6
CONTINUOUS
 10
53.8880497633
 20
107.9516862116
 11
53.8880497633
 21
112.0207260771
  0
LINE
  5
2AF
100
AcDbEntity
  8
0
100
AcDbLine
 62
7
  6
CONTINUOUS
 10
164.3880497836
 20
53.3516863975
 11
64.8880497836
 21
53.3516862068
  0
LINE
  5
2B0
100
AcDbEntity
  8
0
100
AcDbLine
 62
7
  6
CONTINUOUS
 10
171.8880497779
 20
56.3516864119
 11
167.3880497779
 21
56.3516864033
  0
LINE
  5
2B1
100
AcDbEntity
  8
0
100
AcDbLine
 62
7
  6
CONTINUOUS
 10
41.8880497633
 20
97.5016862116
 11
42.3880497633
 21
97.0016862116
  0
LINE
  5
2B2
100
AcDbEntity
  8
0
100
AcDbLine
 62
7
  6
CONTINUOUS
 10
58.8880497633
 20
89.4891295292
 11
58.8880497633
 21
101.014242894
  0
LINE
  5
2B3
100
AcDbEntity
  8
0
100
AcDbLine
 62
7
  6
CONTINUOUS
 10
60.1880497633
 20
113.7364915567
 11
60.1880497633
 21
113.5766862116
  0
LINE
  5
2B4
100
AcDbEntity
  8
0
100
AcDbLine
 62
7
  6
CONTINUOUS
 10
60.1880497633
 20
87.1266862116
 11
60.1880497633
 21
86.9668808664
  0
LINE
  5
2B5
100
AcDbEntity
  8
A_FASEN
100
AcDbLine
 62
7
  6
CONTINUOUS
 10
60.8880497633
 20
97.0516862116
 11
60.8880497633
 21
90.0516862116
  0
LINE
  5
2B6
100
AcDbEntity
  8
QUER2
100
AcDbLine
 62
7
  6
CONTINUOUS
 10
61.3880497633
 20
111.7516862116
 11
61.3880497633
 21
109.5516862116
  0
LINE
  5
2B7
100
AcDbEntity
  8
QUER2
100
AcDbLine
 62
7
  6
CONTINUOUS
 10
61.3880497633
 20
101.3516862116
 11
61.3880497633
 21
88.7516862116
  0
LINE
  5
2B8
100
AcDbEntity
  8
0
100
AcDbLine
 62
7
  6
CONTINUOUS
 10
61.3880497633
 20
87.1302280217
 11
61.3880497633
 21
89.5516862116
  0
LINE
  5
2B9
100
AcDbEntity
  8
0
100
AcDbLine
 62
7
  6
CONTINUOUS
 10
61.3880497633
 20
97.5516862116
 11
61.3880497633
 21
102.9516862116
  0
LINE
  5
2BA
100
AcDbEntity
  8
0
100
AcDbLine
 62
7
  6
CONTINUOUS
 10
61.3880497633
 20
107.9516862116
 11
61.3880497633
 21
113.5731444015
  0
LINE
  5
2BB
100
AcDbEntity
  8
0
100
AcDbLine
 62
7
  6
CONTINUOUS
 10
61.8880497739
 20
58.451686201
 11
61.8880497779
 21
56.351686201
  0
LINE
  5
2BC
100
AcDbEntity
  8
A_RUNDUNGEN
100
AcDbLine
 62
7
  6
CONTINUOUS
 10
61.8880497739
 20
58.451686201
 11
61.8880497509
 21
70.451686201
  0
LINE
  5
2BD
100
AcDbEntity
  8
0
100
AcDbLine
 62
7
  6
CONTINUOUS
 10
46.8880497633
 20
108.6016862116
 11
44.6380497633
 21
106.3516862116
  0
LINE
  5
2BE
100
AcDbEntity
  8
0
100
AcDbLine
 62
7
  6
CONTINUOUS
 10
97.3985217012
 20
58.6376203645
 11
78.8880497737
 21
58.5406988389
  0
LINE
  5
2BF
100
AcDbEntity
  8
A_RUNDUNGEN
100
AcDbLine
 62
7
  6
CONTINUOUS
 10
61.8880497739
 20
58.451686201
 11
67.0128653859
 21
58.4785199279
  0
LINE
  5
2C0
100
AcDbEntity
  8
A_RUNDUNGEN
100
AcDbLine
 62
7
  6
CONTINUOUS
 10
67.8225075319
 20
58.4827592445
 11
78.8880497737
 21
58.5406988389
  0
LINE
  5
2C1
100
AcDbEntity
  8
0
100
AcDbLine
 62
7
  6
CONTINUOUS
 10
99.3880497741
 20
58.3516862729
 11
61.8880497741
 21
58.351686201
  0
LINE
  5
2C2
100
AcDbEntity
  8
QUER2
100
AcDbLine
 62
7
  6
CONTINUOUS
 10
67.3880497633
 20
58.9516862116
 11
74.3880497633
 21
58.9516862116
  0
LINE
  5
2C3
100
AcDbEntity
  8
0
100
AcDbLine
 62
7
  6
CONTINUOUS
 10
90.88804977
 20
60.4516862566
 11
85.88804977
 21
60.4516862471
  0
LINE
  5
2C4
100
AcDbEntity
  8
A_ACHSEN
100
AcDbLine
 62
7
  6
CENTER
 10
59.6265655905
 20
63.9516862116
 11
75.1495339362
 21
63.9516862116
  0
LINE
  5
2C5
100
AcDbEntity
  8
0
100
AcDbLine
 62
7
  6
CONTINUOUS
 10
46.8880497633
 20
98.1016862116
 11
44.6380497633
 21
100.3516862116
  0
LINE
  5
2C6
100
AcDbEntity
  8
0
100
AcDbLine
 62
7
  6
CONTINUOUS
 10
52.8880497633
 20
92.4516862116
 11
52.3880497633
 21
92.9516862116
  0
LINE
  5
2C7
100
AcDbEntity
  8
0
100
AcDbLine
 62
7
  6
CONTINUOUS
 10
47.8880497633
 20
97.5516862116
 11
48.3880497633
 21
97.0516862116
  0
LINE
  5
2C8
100
AcDbEntity
  8
0
100
AcDbLine
 62
7
  6
CONTINUOUS
 10
61.3880497633
 20
89.5516862116
 11
60.8880497633
 21
90.0516862116
  0
LINE
  5
2C9
100
AcDbEntity
  8
QUER2
100
AcDbLine
 62
7
  6
CONTINUOUS
 10
65.5633912073
 20
75.3221943107
 11
65.4585973337
 21
76.6264410478
  0
LINE
  5
2CA
100
AcDbEntity
  8
DEFAULT_2
100
AcDbLine
 62
8
  6
HIDDEN
 10
64.3880497633
 20
107.9516862116
 11
64.3880497633
 21
102.9516862116
  0
LINE
  5
2CB
100
AcDbEntity
  8
A_RUNDUNGEN
100
AcDbLine
 62
7
  6
CONTINUOUS
 10
64.3880497633
 20
109.4016861706
 11
64.3880497633
 21
101.5016862526
  0
LINE
  5
2CC
100
AcDbEntity
  8
QUER2
100
AcDbLine
 62
7
  6
CONTINUOUS
 10
64.3880497633
 20
99.6516862116
 11
64.3880497633
 21
101.608992225
  0
LINE
  5
2CD
100
AcDbEntity
  8
QUER2
100
AcDbLine
 62
7
  6
CONTINUOUS
 10
64.3880497633
 20
109.4016861713
 11
64.3880497633
 21
111.2516862116
  0
LINE
  5
2CE
100
AcDbEntity
  8
0
100
AcDbLine
 62
7
  6
CONTINUOUS
 10
65.2880497633
 20
113.7809985825
 11
65.2880497633
 21
113.6071791859
  0
LINE
  5
2CF
100
AcDbEntity
  8
0
100
AcDbLine
 62
7
  6
CONTINUOUS
 10
65.2880497633
 20
87.0961932373
 11
65.2880497633
 21
86.9223738407
  0
LINE
  5
2D0
100
AcDbEntity
  8
0
100
AcDbLine
 62
7
  6
CONTINUOUS
 10
66.3066523436
 20
113.6160683959
 11
66.3066523436
 21
112.0516862116
  0
LINE
  5
2D1
100
AcDbEntity
  8
0
100
AcDbLine
 62
7
  6
CONTINUOUS
 10
66.3066523436
 20
88.4516862116
 11
66.3066523436
 21
87.0873040273
  0
LINE
  5
2D2
100
AcDbEntity
  8
0
100
AcDbLine
 62
7
  6
CONTINUOUS
 10
66.3880497633
 20
123.3516862116
 11
66.3880497633
 21
118.3516862116
  0
LINE
  5
2D3
100
AcDbEntity
  8
A_ACHSEN
100
AcDbLine
 62
7
  6
CENTER
 10
67.3880497633
 20
56.1902020388
 11
67.3880497633
 21
71.7131703844
  0
LINE
  5
2D4
100
AcDbEntity
  8
DEFAULT_2
100
AcDbLine
 62
8
  6
HIDDEN
 10
69.3880497633
 20
107.6996020303
 11
69.3880497633
 21
103.2037703929
  0
LINE
  5
2D5
100
AcDbEntity
  8
A_RUNDUNGEN
100
AcDbLine
 62
7
  6
CONTINUOUS
 10
69.3880497633
 20
109.4016852604
 11
69.3880497633
 21
101.5016871628
  0
LINE
  5
2D6
100
AcDbEntity
  8
0
100
AcDbLine
 62
7
  6
CONTINUOUS
 10
52.8880497633
 20
107.9516862116
 11
52.3880497633
 21
107.4516862116
  0
LINE
  5
2D7
100
AcDbEntity
  8
0
100
AcDbLine
 62
7
  6
CONTINUOUS
 10
85.88804977
 20
60.4516862471
 11
78.8880497729
 21
58.9516862336
  0
LINE
  5
2D8
100
AcDbEntity
  8
A_RUNDUNGEN
100
AcDbLine
 62
7
  6
CONTINUOUS
 10
78.6277202101
 20
58.8959013268
 11
78.8880497729
 21
58.9516862336
  0
LINE
  5
2D9
100
AcDbEntity
  8
A_RUNDUNGEN
100
AcDbLine
 62
7
  6
CONTINUOUS
 10
92.9142293568
 20
70.722447628
 11
92.4357223658
 21
70.7182717598
  0
LINE
  5
2DA
100
AcDbEntity
  8
A_RUNDUNGEN
100
AcDbLine
 62
7
  6
CONTINUOUS
 10
76.5983938606
 20
70.5800614574
 11
61.8880497509
 21
70.451686201
  0
LINE
  5
2DB
100
AcDbEntity
  8
QUER2
100
AcDbLine
 62
7
  6
CONTINUOUS
 10
74.3880497633
 20
68.9516862116
 11
67.3880497633
 21
68.9516862116
  0
LINE
  5
2DC
100
AcDbEntity
  8
0
100
AcDbLine
 62
7
  6
CONTINUOUS
 10
95.8880497509
 20
70.4516862662
 11
93.8880497509
 21
70.4516862624
  0
LINE
  5
2DD
100
AcDbEntity
  8
0
100
AcDbLine
 62
7
  6
CONTINUOUS
 10
52.8880497633
 20
102.9516862116
 11
52.3880497633
 21
103.4516862116
  0
LINE
  5
2DE
100
AcDbEntity
  8
0
100
AcDbLine
 62
7
  6
CONTINUOUS
 10
70.3880497633
 20
113.6516862116
 11
70.3880497633
 21
111.7516862116
  0
LINE
  5
2DF
100
AcDbEntity
  8
0
100
AcDbLine
 62
7
  6
CONTINUOUS
 10
70.3880497633
 20
88.4516862116
 11
70.3880497633
 21
87.0516862116
  0
LINE
  5
2E0
100
AcDbEntity
  8
QUER2
100
AcDbLine
 62
7
  6
CONTINUOUS
 10
70.3880497633
 20
99.9516862116
 11
70.3880497633
 21
111.7516862116
  0
LINE
  5
2E1
100
AcDbEntity
  8
0
100
AcDbLine
 62
7
  6
CONTINUOUS
 10
73.1880497633
 20
115.3016862116
 11
73.1880497633
 21
115.2481951986
  0
LINE
  5
2E2
100
AcDbEntity
  8
0
100
AcDbLine
 62
7
  6
CONTINUOUS
 10
73.1880497633
 20
85.4016862116
 11
73.1880497633
 21
85.4551772246
  0
LINE
  5
2E3
100
AcDbEntity
  8
A_RUNDUNGEN
100
AcDbLine
 62
7
  6
CONTINUOUS
 10
73.1880497633
 20
99.8116684013
 11
73.1880497633
 21
100.8913165503
  0
LINE
  5
2E4
100
AcDbEntity
  8
A_RUNDUNGEN
100
AcDbLine
 62
7
  6
CONTINUOUS
 10
73.3880497633
 20
113.8516862116
 11
73.3880497633
 21
98.4516862116
  0
LINE
  5
2E5
100
AcDbEntity
  8
A_RUNDUNGEN
100
AcDbLine
 62
7
  6
CONTINUOUS
 10
73.3880497633
 20
88.4516862116
 11
73.3880497633
 21
86.8516862116
  0
LINE
  5
2E6
100
AcDbEntity
  8
0
100
AcDbLine
 62
7
  6
CONTINUOUS
 10
73.3880497633
 20
85.4516862116
 11
73.3880497633
 21
86.8516862116
  0
LINE
  5
2E7
100
AcDbEntity
  8
0
100
AcDbLine
 62
7
  6
CONTINUOUS
 10
73.3880497633
 20
113.8516862116
 11
73.3880497633
 21
115.2516862116
  0
LINE
  5
2E8
100
AcDbEntity
  8
A_RUNDUNGEN
100
AcDbLine
 62
7
  6
CONTINUOUS
 10
74.8880497633
 20
115.2516862116
 11
74.8880497633
 21
98.4159255058
  0
LINE
  5
2E9
100
AcDbEntity
  8
A_RUNDUNGEN
100
AcDbLine
 62
7
  6
CONTINUOUS
 10
74.8880497633
 20
88.4106725993
 11
74.8880497633
 21
85.4516862116
  0
LINE
  5
2EA
100
AcDbEntity
  8
0
100
AcDbLine
 62
7
  6
CONTINUOUS
 10
74.8880497633
 20
80.3516862116
 11
74.8880497633
 21
85.4699656919
  0
LINE
  5
2EB
100
AcDbEntity
  8
0
100
AcDbLine
 62
7
  6
CONTINUOUS
 10
74.8880497633
 20
115.2334067313
 11
74.8880497633
 21
118.3516862116
  0
LINE
  5
2EC
100
AcDbEntity
  8
QUER2
100
AcDbLine
 62
7
  6
CONTINUOUS
 10
71.9775875281
 20
77.6798038674
 11
71.8892656973
 21
76.1979504719
  0
LINE
  5
2ED
100
AcDbEntity
  8
DEFAULT_2
100
AcDbLine
 62
8
  6
HIDDEN
 10
66.0890497633
 20
105.4516862116
 11
67.386884536
 21
107.6996019777
  0
LINE
  5
2EE
100
AcDbEntity
  8
0
100
AcDbLine
 62
7
  6
CONTINUOUS
 10
41.8880497633
 20
89.5016862116
 11
42.3880497633
 21
90.0016862116
  0
LINE
  5
2EF
100
AcDbEntity
  8
0
100
AcDbLine
 62
7
  6
CONTINUOUS
 10
52.8880497633
 20
97.4516862116
 11
52.3880497633
 21
96.9516862116
  0
LINE
  5
2F0
100
AcDbEntity
  8
0
100
AcDbLine
 62
7
  6
CONTINUOUS
 10
47.8880497633
 20
89.5516862116
 11
48.3880497633
 21
90.0516862116
  0
LINE
  5
2F1
100
AcDbEntity
  8
QUER2
100
AcDbLine
 62
7
  6
CONTINUOUS
 10
83.2813514782
 20
72.6450906231
 11
84.2202125137
 21
72.8106371548
  0
LINE
  5
2F2
100
AcDbEntity
  8
0
100
AcDbLine
 62
7
  6
CONTINUOUS
 10
64.8880497472
 20
72.3516862068
 11
74.9700424049
 21
72.3516862261
  0
LINE
  5
2F3
100
AcDbEntity
  8
0
100
AcDbLine
 62
7
  6
CONTINUOUS
 10
77.6752608198
 20
72.3516862313
 11
79.8229356986
 21
72.3516862354
  0
LINE
  5
2F4
100
AcDbEntity
  8
0
100
AcDbLine
 62
7
  6
CONTINUOUS
 10
84.650187969
 20
72.3516862447
 11
84.7983788858
 21
72.351686245
  0
LINE
  5
2F5
100
AcDbEntity
  8
0
100
AcDbLine
 62
7
  6
CONTINUOUS
 10
82.9856091538
 20
77.3516862415
 11
79.8880497376
 21
77.3516862355
  0
LINE
  5
2F6
100
AcDbEntity
  8
0
100
AcDbLine
 62
7
  6
CONTINUOUS
 10
99.3880497652
 20
62.9516862729
 11
98.8880497643
 21
63.451686272
  0
LINE
  5
2F7
100
AcDbEntity
  8
DEFAULT_2
100
AcDbLine
 62
8
  6
HIDDEN
 10
66.0890497633
 20
105.4516862116
 11
67.3868846929
 21
103.2037701738
  0
LINE
  5
2F8
100
AcDbEntity
  8
0
100
AcDbLine
 62
7
  6
CONTINUOUS
 10
78.8880497729
 20
58.9516862336
 11
78.8880497737
 21
58.5406988389
  0
LINE
  5
2F9
100
AcDbEntity
  8
0
100
AcDbLine
 62
7
  6
CONTINUOUS
 10
79.8880497336
 20
79.4516862355
 11
79.8880497376
 21
77.3516862355
  0
LINE
  5
2FA
100
AcDbEntity
  8
A_RUNDUNGEN
100
AcDbLine
 62
7
  6
CONTINUOUS
 10
79.8880497336
 20
79.4516862355
 11
79.8880497282
 21
82.3010571476
  0
LINE
  5
2FB
100
AcDbEntity
  8
A_RUNDUNGEN
100
AcDbLine
 62
7
  6
CONTINUOUS
 10
79.8880497259
 20
83.4516862355
 11
79.8880497197
 21
86.7175865764
  0
LINE
  5
2FC
100
AcDbEntity
  8
0
100
AcDbLine
 62
7
  6
CONTINUOUS
 10
79.8880496987
 20
97.6656422248
 11
79.888049684
 21
105.3516862355
  0
LINE
  5
2FD
100
AcDbEntity
  8
0
100
AcDbLine
 62
7
  6
CONTINUOUS
 10
79.888049684
 20
105.3516862355
 11
80.7781867058
 21
115.5259977096
  0
LINE
  5
2FE
100
AcDbEntity
  8
0
100
AcDbLine
 62
7
  6
CONTINUOUS
 10
61.3880497633
 20
97.5516862116
 11
60.8880497633
 21
97.0516862116
  0
LINE
  5
2FF
100
AcDbEntity
  8
0
100
AcDbLine
 62
7
  6
CONTINUOUS
 10
79.8880497259
 20
83.4516862355
 11
82.8227619302
 21
83.5285343848
  0
LINE
  5
300
100
AcDbEntity
  8
A_RUNDUNGEN
100
AcDbLine
 62
7
  6
CONTINUOUS
 10
79.8880497259
 20
83.4516862355
 11
82.8227619302
 21
83.5285343848
  0
LINE
  5
301
100
AcDbEntity
  8
0
100
AcDbLine
 62
7
  6
CONTINUOUS
 10
93.4379725045
 20
83.8065034767
 11
93.8880497252
 21
83.8182891644
  0
LINE
  5
302
100
AcDbEntity
  8
A_RUNDUNGEN
100
AcDbLine
 62
7
  6
CONTINUOUS
 10
93.4379725045
 20
83.8065034767
 11
93.8880497252
 21
83.8182891644
  0
LINE
  5
303
100
AcDbEntity
  8
0
100
AcDbLine
 62
7
  6
CONTINUOUS
 10
72.8880497633
 20
78.3516862116
 11
16.8880497633
 21
78.3516862116
  0
LINE
  5
304
100
AcDbEntity
  8
0
100
AcDbLine
 62
7
  6
CONTINUOUS
 10
98.8880497346
 20
78.951686272
 11
99.3880497346
 21
78.9516862729
  0
LINE
  5
305
100
AcDbEntity
  8
0
100
AcDbLine
 62
7
  6
CONTINUOUS
 10
98.8880497327
 20
79.951686272
 11
99.3880497327
 21
79.9516862729
  0
LINE
  5
306
100
AcDbEntity
  8
0
100
AcDbLine
 62
7
  6
CONTINUOUS
 10
98.8880497279
 20
82.448671865
 11
99.3880497279
 21
82.4486718659
  0
LINE
  5
307
100
AcDbEntity
  8
0
100
AcDbLine
 62
7
  6
CONTINUOUS
 10
98.8880497257
 20
83.6010926531
 11
99.3880497257
 21
83.6010926541
  0
LINE
  5
308
100
AcDbEntity
  8
0
100
AcDbLine
 62
7
  6
CONTINUOUS
 10
98.8880497242
 20
84.3693546435
 11
99.3880497242
 21
84.3693546445
  0
LINE
  5
309
100
AcDbEntity
  8
A_RUNDUNGEN
100
AcDbLine
 62
7
  6
CONTINUOUS
 10
79.8880497336
 20
79.4516862355
 11
82.6071068887
 21
79.3804852234
  0
LINE
  5
30A
100
AcDbEntity
  8
A_RUNDUNGEN
100
AcDbLine
 62
7
  6
CONTINUOUS
 10
83.6908035888
 20
79.3521076286
 11
84.0962952053
 21
79.3414894578
  0
LINE
  5
30B
100
AcDbEntity
  8
QUER2
100
AcDbLine
 62
7
  6
CONTINUOUS
 10
80.4036154739
 20
68.9873599096
 11
80.5290623229
 21
69.773440811
  0
LINE
  5
30C
100
AcDbEntity
  8
QUER2
100
AcDbLine
 62
7
  6
CONTINUOUS
 10
80.2790988201
 20
68.8695234612
 11
80.4446453518
 21
69.8083844967
  0
LINE
  5
30D
100
AcDbEntity
  8
DEFAULT_2
100
AcDbLine
 62
8
  6
HIDDEN
 10
69.3162826289
 20
106.8006439885
 11
69.2774470109
 21
106.7819161952
  0
LINE
  5
30E
100
AcDbEntity
  8
DEFAULT_2
100
AcDbLine
 62
8
  6
HIDDEN
 10
67.1089151557
 20
106.749143706
 11
67.2160410342
 21
106.7819161952
  0
LINE
  5
30F
100
AcDbEntity
  8
0
100
AcDbLine
 62
7
  6
CONTINUOUS
 10
41.8880497633
 20
85.3516862116
 11
74.8880497633
 21
85.3516862116
  0
LINE
  5
310
100
AcDbEntity
  8
A_RUNDUNGEN
100
AcDbLine
 62
7
  6
CONTINUOUS
 10
74.8880497633
 20
85.4516862116
 11
73.3880497633
 21
85.4516862116
  0
LINE
  5
311
100
AcDbEntity
  8
0
100
AcDbLine
 62
7
  6
CONTINUOUS
 10
98.8880497194
 20
86.8663402365
 11
99.3880497194
 21
86.8663402375
  0
LINE
  5
312
100
AcDbEntity
  8
A_RUNDUNGEN
100
AcDbLine
 62
7
  6
CONTINUOUS
 10
52.1880497633
 20
87.1266862116
 11
60.3749599601
 21
87.1266862116
  0
LINE
  5
313
100
AcDbEntity
  8
0
100
AcDbLine
 62
7
  6
CONTINUOUS
 10
98.8880497173
 20
87.951686272
 11
99.3880497173
 21
87.9516862729
  0
LINE
  5
314
100
AcDbEntity
  8
QUER2
100
AcDbLine
 62
7
  6
CONTINUOUS
 10
61.6880497633
 20
88.4516862116
 11
74.3880497633
 21
88.4516862116
  0
LINE
  5
315
100
AcDbEntity
  8
0
100
AcDbLine
 62
7
  6
CONTINUOUS
 10
96.3880497144
 20
89.4516862672
 11
93.8880497144
 21
89.4516862624
  0
LINE
  5
316
100
AcDbEntity
  8
0
100
AcDbLine
 62
7
  6
CONTINUOUS
 10
96.3880497135
 20
89.9516862672
 11
95.8880497135
 21
89.9516862662
  0
LINE
  5
317
100
AcDbEntity
  8
0
100
AcDbLine
 62
7
  6
CONTINUOUS
 10
96.3880497133
 20
90.0367926475
 11
95.8880497133
 21
90.0367926465
  0
LINE
  5
318
100
AcDbEntity
  8
0
100
AcDbLine
 62
7
  6
CONTINUOUS
 10
50.6880497633
 20
90.0516862116
 11
48.3880497633
 21
90.0516862116
  0
LINE
  5
319
100
AcDbEntity
  8
0
100
AcDbLine
 62
7
  6
CONTINUOUS
 10
58.8880497633
 20
90.0516862116
 11
60.8880497633
 21
90.0516862116
  0
LINE
  5
31A
100
AcDbEntity
  8
0
100
AcDbLine
 62
7
  6
CONTINUOUS
 10
96.388049713
 20
90.2070054155
 11
95.888049713
 21
90.2070054145
  0
LINE
  5
31B
100
AcDbEntity
  8
0
100
AcDbLine
 62
7
  6
CONTINUOUS
 10
96.3880497123
 20
90.5474309366
 11
95.8880497123
 21
90.5474309357
  0
LINE
  5
31C
100
AcDbEntity
  8
0
100
AcDbLine
 62
7
  6
CONTINUOUS
 10
96.3880497117
 20
90.8878564876
 11
95.8880497117
 21
90.8878564866
  0
LINE
  5
31D
100
AcDbEntity
  8
0
100
AcDbLine
 62
7
  6
CONTINUOUS
 10
96.3880497109
 20
91.3133883517
 11
95.8880497109
 21
91.3133883508
  0
LINE
  5
31E
100
AcDbEntity
  8
A_RUNDUNGEN
100
AcDbLine
 62
7
  6
CONTINUOUS
 10
73.1880497633
 20
85.4016862116
 11
47.8880497633
 21
85.5341579124
  0
LINE
  5
31F
100
AcDbEntity
  8
0
100
AcDbLine
 62
7
  6
CONTINUOUS
 10
43.8775778357
 20
85.5551568862
 11
47.8880497633
 21
85.5341579124
  0
LINE
  5
320
100
AcDbEntity
  8
0
100
AcDbLine
 62
7
  6
CONTINUOUS
 10
73.3880497633
 20
86.8516862116
 11
52.1749599601
 21
87.0368100417
  0
LINE
  5
321
100
AcDbEntity
  8
0
100
AcDbLine
 62
7
  6
CONTINUOUS
 10
70.3880497633
 20
87.0516862116
 11
66.3066523436
 21
87.0873040273
  0
LINE
  5
322
100
AcDbEntity
  8
A_RUNDUNGEN
100
AcDbLine
 62
7
  6
CONTINUOUS
 10
66.3066523436
 20
87.0873040273
 11
61.3880497633
 21
87.1302280217
  0
LINE
  5
323
100
AcDbEntity
  8
0
100
AcDbLine
 62
7
  6
CONTINUOUS
 10
55.3749599601
 20
87.1827034614
 11
61.3880497633
 21
87.1302280217
  0
LINE
  5
324
100
AcDbEntity
  8
0
100
AcDbLine
 62
7
  6
CONTINUOUS
 10
49.3618711537
 20
85.8710647192
 11
73.3880497633
 21
85.4516862116
  0
LINE
  5
325
100
AcDbEntity
  8
0
100
AcDbLine
 62
7
  6
CONTINUOUS
 10
58.8880497633
 20
90.514242894
 11
53.8880497633
 21
90.9516862116
  0
LINE
  5
326
100
AcDbEntity
  8
DEFAULT_2
100
AcDbLine
 62
8
  6
HIDDEN
 10
69.2774470109
 20
104.121456228
 11
69.3163075722
 21
104.1027283819
  0
LINE
  5
327
100
AcDbEntity
  8
0
100
AcDbLine
 62
7
  6
CONTINUOUS
 10
92.8880497633
 20
141.9398492116
 11
92.8880497633
 21
125.3516862116
  0
LINE
  5
328
100
AcDbEntity
  8
0
100
AcDbLine
 62
7
  6
CONTINUOUS
 10
93.8880497509
 20
70.4516862624
 11
93.8880497144
 21
89.4516862624
  0
LINE
  5
329
100
AcDbEntity
  8
0
100
AcDbLine
 62
7
  6
CONTINUOUS
 10
95.8880497605
 20
65.4516862662
 11
95.8880497037
 21
95.0714762147
  0
LINE
  5
32A
100
AcDbEntity
  8
0
100
AcDbLine
 62
7
  6
CONTINUOUS
 10
96.3880497144
 20
89.4516862672
 11
96.3880497039
 21
94.9516862672
  0
LINE
  5
32B
100
AcDbEntity
  8
0
100
AcDbLine
 62
7
  6
CONTINUOUS
 10
98.033757798
 20
118.1780380565
 11
99.7431757078
 21
127.8726306538
  0
LINE
  5
32C
100
AcDbEntity
  8
QUER2
100
AcDbLine
 62
7
  6
CONTINUOUS
 10
83.9687721274
 20
76.5084703234
 11
83.6608056889
 21
75.2053082004
  0
LINE
  5
32D
100
AcDbEntity
  8
DEFAULT_2
100
AcDbLine
 62
8
  6
HIDDEN
 10
67.2796483414
 20
106.800641529
 11
67.2160410342
 21
106.7819161952
  0
LINE
  5
32E
100
AcDbEntity
  8
0
100
AcDbLine
 62
7
  6
CONTINUOUS
 10
53.8880497633
 20
89.0516862116
 11
58.8880497633
 21
89.4891295292
  0
LINE
  5
32F
100
AcDbEntity
  8
0
100
AcDbLine
 62
7
  6
CONTINUOUS
 10
53.8880497633
 20
92.4516862116
 11
52.8880497633
 21
92.4516862116
  0
LINE
  5
330
100
AcDbEntity
  8
0
100
AcDbLine
 62
7
  6
CONTINUOUS
 10
96.3880497084
 20
92.5899840634
 11
95.8880497084
 21
92.5899840625
  0
LINE
  5
331
100
AcDbEntity
  8
0
100
AcDbLine
 62
2
  6
CONTINUOUS
 10
52.3880497633
 20
92.9516862116
 11
53.8880497633
 21
92.9516862116
  0
LINE
  5
332
100
AcDbEntity
  8
0
100
AcDbLine
 62
7
  6
CONTINUOUS
 10
96.3880497076
 20
93.015516166
 11
95.8880497076
 21
93.0155161651
  0
LINE
  5
333
100
AcDbEntity
  8
0
100
AcDbLine
 62
7
  6
CONTINUOUS
 10
96.388049707
 20
93.3559416573
 11
95.888049707
 21
93.3559416564
  0
LINE
  5
334
100
AcDbEntity
  8
0
100
AcDbLine
 62
7
  6
CONTINUOUS
 10
96.3880497063
 20
93.6963671487
 11
95.8880497063
 21
93.6963671477
  0
LINE
  5
335
100
AcDbEntity
  8
0
100
AcDbLine
 62
7
  6
CONTINUOUS
 10
96.388049706
 20
93.8665798943
 11
95.888049706
 21
93.8665798934
  0
LINE
  5
336
100
AcDbEntity
  8
0
100
AcDbLine
 62
7
  6
CONTINUOUS
 10
96.3880497058
 20
93.9516862672
 11
95.8880497058
 21
93.9516862662
  0
LINE
  5
337
100
AcDbEntity
  8
0
100
AcDbLine
 62
7
  6
CONTINUOUS
 10
96.3880497039
 20
94.9516862672
 11
95.8880497039
 21
94.9516862662
  0
LINE
  5
338
100
AcDbEntity
  8
0
100
AcDbLine
 62
2
  6
CONTINUOUS
 10
52.3880497633
 20
96.9516862116
 11
53.8880497633
 21
96.9516862116
  0
LINE
  5
339
100
AcDbEntity
  8
0
100
AcDbLine
 62
7
  6
CONTINUOUS
 10
50.6880497633
 20
97.0516862116
 11
48.3880497633
 21
97.0516862116
  0
LINE
  5
33A
100
AcDbEntity
  8
0
100
AcDbLine
 62
7
  6
CONTINUOUS
 10
58.8880497633
 20
97.0516862116
 11
60.8880497633
 21
97.0516862116
  0
LINE
  5
33B
100
AcDbEntity
  8
0
100
AcDbLine
 62
7
  6
CONTINUOUS
 10
169.3880496993
 20
97.3516864071
 11
171.8880496993
 21
97.3516864119
  0
LINE
  5
33C
100
AcDbEntity
  8
0
100
AcDbLine
 62
7
  6
CONTINUOUS
 10
53.8880497633
 20
97.4516862116
 11
52.8880497633
 21
97.4516862116
  0
LINE
  5
33D
100
AcDbEntity
  8
0
100
AcDbLine
 62
7
  6
CONTINUOUS
 10
47.8880497633
 20
98.1016862116
 11
46.8880497633
 21
98.1016862116
  0
LINE
  5
33E
100
AcDbEntity
  8
0
100
AcDbLine
 62
7
  6
CONTINUOUS
 10
94.4273151233
 20
96.5709621994
 11
85.5625753132
 21
96.8030935638
  0
LINE
  5
33F
100
AcDbEntity
  8
A_RUNDUNGEN
100
AcDbLine
 62
7
  6
CONTINUOUS
 10
85.3364398474
 20
96.8090151289
 11
81.9755617106
 21
96.8970228138
  0
LINE
  5
340
100
AcDbEntity
  8
0
100
AcDbLine
 62
7
  6
CONTINUOUS
 10
53.8880497633
 20
96.8516862116
 11
58.8880497633
 21
96.414242894
  0
LINE
  5
341
100
AcDbEntity
  8
0
100
AcDbLine
 62
7
  6
CONTINUOUS
 10
58.8880497633
 20
101.014242894
 11
53.8880497633
 21
101.4516862116
  0
LINE
  5
342
100
AcDbEntity
  8
0
100
AcDbLine
 62
7
  6
CONTINUOUS
 10
79.8880496976
 20
98.2516862355
 11
85.3371184097
 21
96.8349283815
  0
LINE
  5
343
100
AcDbEntity
  8
DEFAULT_2
100
AcDbLine
 62
8
  6
HIDDEN
 10
67.2796483414
 20
104.1027308942
 11
67.2160410342
 21
104.121456228
  0
LINE
  5
344
100
AcDbEntity
  8
DEFAULT_2
100
AcDbLine
 62
8
  6
HIDDEN
 10
67.2160410342
 20
104.121456228
 11
67.108683343
 21
104.1542278534
  0
LINE
  5
345
100
AcDbEntity
  8
0
100
AcDbLine
 62
7
  6
CONTINUOUS
 10
98.8880497509
 20
70.451686272
 11
98.8880497643
 21
63.451686272
  0
LINE
  5
346
100
AcDbEntity
  8
0
100
AcDbLine
 62
7
  6
CONTINUOUS
 10
98.8880497346
 20
78.951686272
 11
98.8880497327
 21
79.951686272
  0
LINE
  5
347
100
AcDbEntity
  8
0
100
AcDbLine
 62
7
  6
CONTINUOUS
 10
98.8880497279
 20
82.448671865
 11
98.8880497242
 21
84.3693546435
  0
LINE
  5
348
100
AcDbEntity
  8
0
100
AcDbLine
 62
7
  6
CONTINUOUS
 10
98.8880497194
 20
86.8663402365
 11
98.8880497173
 21
87.951686272
  0
LINE
  5
349
100
AcDbEntity
  8
0
100
AcDbLine
 62
7
  6
CONTINUOUS
 10
99.3880497741
 20
58.3516862729
 11
99.388049696
 21
99.0516862729
  0
LINE
  5
34A
100
AcDbEntity
  8
0
100
AcDbLine
 62
7
  6
CONTINUOUS
 10
16.3749598476
 20
100.1773932036
 11
24.5906677413
 21
100.2490912114
  0
LINE
  5
34B
100
AcDbEntity
  8
QUER2
100
AcDbLine
 62
7
  6
CONTINUOUS
 10
74.3880497633
 20
98.4516862116
 11
71.8880497633
 21
98.4516862116
  0
LINE
  5
34C
100
AcDbEntity
  8
0
100
AcDbLine
 62
7
  6
CONTINUOUS
 10
99.388049696
 20
99.0516862729
 11
79.888049696
 21
99.0516862355
  0
LINE
  5
34D
100
AcDbEntity
  8
QUER2
100
AcDbLine
 62
7
  6
CONTINUOUS
 10
64.3880497633
 20
99.6516862116
 11
70.4183559177
 21
99.6516862116
  0
LINE
  5
34E
100
AcDbEntity
  8
0
100
AcDbLine
 62
7
  6
CONTINUOUS
 10
44.6380497633
 20
100.3516862116
 11
41.8880497633
 21
100.3516862116
  0
LINE
  5
34F
100
AcDbEntity
  8
0
100
AcDbLine
 62
7
  6
CONTINUOUS
 10
69.0880497633
 20
101.2016862116
 11
64.6880497633
 21
101.2016862116
  0
LINE
  5
350
100
AcDbEntity
  8
QUER2
100
AcDbLine
 62
7
  6
CONTINUOUS
 10
61.3880497633
 20
101.3516862116
 11
64.3880497633
 21
101.3516862116
  0
LINE
  5
351
100
AcDbEntity
  8
0
100
AcDbLine
 62
7
  6
CONTINUOUS
 10
47.8880497633
 20
102.4516862116
 11
50.6880497633
 21
102.4516862116
  0
LINE
  5
352
100
AcDbEntity
  8
0
100
AcDbLine
 62
7
  6
CONTINUOUS
 10
64.0880497633
 20
102.9516862116
 11
52.8880497633
 21
102.9516862116
  0
LINE
  5
353
100
AcDbEntity
  8
A_FLAECHEN
100
AcDbLine
 62
8
  6
HIDDEN
 10
67.386884536
 20
103.2037704455
 11
69.3880497633
 21
103.2037704455
  0
LINE
  5
354
100
AcDbEntity
  8
A_ACHSEN
100
AcDbLine
 62
7
  6
CENTER
 10
40.8880497633
 20
103.3516862116
 11
50.8880497633
 21
103.3516862116
  0
LINE
  5
355
100
AcDbEntity
  8
0
100
AcDbLine
 62
2
  6
CONTINUOUS
 10
52.3880497633
 20
103.4516862116
 11
64.3880497633
 21
103.4516862116
  0
LINE
  5
356
100
AcDbEntity
  8
A_FLAECHEN
100
AcDbLine
 62
8
  6
HIDDEN
 10
67.2729675154
 20
104.1027283285
 11
69.3144065907
 21
104.1027283285
  0
LINE
  5
357
100
AcDbEntity
  8
A_FLAECHEN
100
AcDbLine
 62
8
  6
HIDDEN
 10
67.1179051798
 20
104.154230052
 11
69.2185396266
 21
104.154230052
  0
LINE
  5
358
100
AcDbEntity
  8
0
100
AcDbLine
 62
7
  6
CONTINUOUS
 10
97.3985216243
 20
98.7657521737
 11
79.8880496964
 21
98.8574375946
  0
LINE
  5
359
100
AcDbEntity
  8
0
100
AcDbLine
 62
7
  6
CONTINUOUS
 10
171.888049684
 20
105.3516864119
 11
169.388049684
 21
105.3516864071
  0
LINE
  5
35A
100
AcDbEntity
  8
A_ACHSEN
100
AcDbLine
 62
7
  6
CENTER
 10
49.3880497633
 20
105.4516862116
 11
72.3880497633
 21
105.4516862116
  0
LINE
  5
35B
100
AcDbEntity
  8
0
100
AcDbLine
 62
7
  6
CONTINUOUS
 10
44.6380497633
 20
106.3516862116
 11
41.8880497633
 21
106.3516862116
  0
LINE
  5
35C
100
AcDbEntity
  8
A_FLAECHEN
100
AcDbLine
 62
8
  6
HIDDEN
 10
67.1179051798
 20
106.7491423712
 11
69.2185340642
 21
106.7491423712
  0
LINE
  5
35D
100
AcDbEntity
  8
A_FLAECHEN
100
AcDbLine
 62
8
  6
HIDDEN
 10
67.2729671344
 20
106.8006440946
 11
69.3143817573
 21
106.8006440946
  0
LINE
  5
35E
100
AcDbEntity
  8
0
100
AcDbLine
 62
7
  6
CONTINUOUS
 10
42.3880497633
 20
106.8516862116
 11
41.8880497633
 21
106.8516862116
  0
LINE
  5
35F
100
AcDbEntity
  8
0
100
AcDbLine
 62
2
  6
CONTINUOUS
 10
52.3880497633
 20
107.4516862116
 11
64.3880497633
 21
107.4516862116
  0
LINE
  5
360
100
AcDbEntity
  8
A_FLAECHEN
100
AcDbLine
 62
8
  6
HIDDEN
 10
67.386884536
 20
107.6996019777
 11
69.3880497633
 21
107.6996019777
  0
LINE
  5
361
100
AcDbEntity
  8
0
100
AcDbLine
 62
7
  6
CONTINUOUS
 10
42.3880497633
 20
107.9083862116
 11
41.8880497633
 21
107.9083862116
  0
LINE
  5
362
100
AcDbEntity
  8
0
100
AcDbLine
 62
7
  6
CONTINUOUS
 10
64.0880497633
 20
107.9516862116
 11
52.8880497633
 21
107.9516862116
  0
LINE
  5
363
100
AcDbEntity
  8
0
100
AcDbLine
 62
7
  6
CONTINUOUS
 10
42.3880497633
 20
107.981647905
 11
41.8880497633
 21
107.981647905
  0
LINE
  5
364
100
AcDbEntity
  8
0
100
AcDbLine
 62
7
  6
CONTINUOUS
 10
42.3880497633
 20
108.1281712918
 11
41.8880497633
 21
108.1281712918
  0
LINE
  5
365
100
AcDbEntity
  8
0
100
AcDbLine
 62
7
  6
CONTINUOUS
 10
42.3880497633
 20
108.4212180653
 11
41.8880497633
 21
108.4212180653
  0
LINE
  5
366
100
AcDbEntity
  8
0
100
AcDbLine
 62
7
  6
CONTINUOUS
 10
47.8880497633
 20
108.4516862116
 11
50.6880497633
 21
108.4516862116
  0
LINE
  5
367
100
AcDbEntity
  8
0
100
AcDbLine
 62
7
  6
CONTINUOUS
 10
47.8880497633
 20
108.6016862116
 11
46.8880497633
 21
108.6016862116
  0
LINE
  5
368
100
AcDbEntity
  8
0
100
AcDbLine
 62
7
  6
CONTINUOUS
 10
42.3880497633
 20
108.7142648389
 11
41.8880497633
 21
108.7142648389
  0
LINE
  5
369
100
AcDbEntity
  8
0
100
AcDbLine
 62
7
  6
CONTINUOUS
 10
42.3880497633
 20
109.0805735111
 11
41.8880497633
 21
109.0805735111
  0
LINE
  5
36A
100
AcDbEntity
  8
QUER2
100
AcDbLine
 62
7
  6
CONTINUOUS
 10
61.3880497633
 20
109.5516862116
 11
64.3880497633
 21
109.5516862116
  0
LINE
  5
36B
100
AcDbEntity
  8
0
100
AcDbLine
 62
7
  6
CONTINUOUS
 10
69.0880497633
 20
109.7016862116
 11
64.6880497633
 21
109.7016862116
  0
LINE
  5
36C
100
AcDbEntity
  8
0
100
AcDbLine
 62
7
  6
CONTINUOUS
 10
42.3880497633
 20
110.1794990147
 11
41.8880497633
 21
110.1794990147
  0
LINE
  5
36D
100
AcDbEntity
  8
0
100
AcDbLine
 62
7
  6
CONTINUOUS
 10
186.8880496744
 20
110.3516864407
 11
171.8880496744
 21
110.3516864119
  0
LINE
  5
36E
100
AcDbEntity
  8
0
100
AcDbLine
 62
7
  6
CONTINUOUS
 10
42.3880497633
 20
110.5458074816
 11
41.8880497633
 21
110.5458074816
  0
LINE
  5
36F
100
AcDbEntity
  8
0
100
AcDbLine
 62
7
  6
CONTINUOUS
 10
42.3880497633
 20
110.8388543065
 11
41.8880497633
 21
110.8388543065
  0
LINE
  5
370
100
AcDbEntity
  8
0
100
AcDbLine
 62
7
  6
CONTINUOUS
 10
42.3880497633
 20
111.1319011057
 11
41.8880497633
 21
111.1319011057
  0
LINE
  5
371
100
AcDbEntity
  8
QUER2
100
AcDbLine
 62
7
  6
CONTINUOUS
 10
64.3880497633
 20
111.2516862116
 11
70.3880497633
 21
111.2516862116
  0
LINE
  5
372
100
AcDbEntity
  8
0
100
AcDbLine
 62
7
  6
CONTINUOUS
 10
42.3880497633
 20
111.2784245118
 11
41.8880497633
 21
111.2784245118
  0
LINE
  5
373
100
AcDbEntity
  8
0
100
AcDbLine
 62
7
  6
CONTINUOUS
 10
42.3880497633
 20
111.3516862116
 11
41.8880497633
 21
111.3516862116
  0
LINE
  5
374
100
AcDbEntity
  8
QUER2
100
AcDbLine
 62
7
  6
CONTINUOUS
 10
70.0880497633
 20
112.0516862116
 11
61.6880497633
 21
112.0516862116
  0
LINE
  5
375
100
AcDbEntity
  8
0
100
AcDbLine
 62
7
  6
CONTINUOUS
 10
88.664688524
 20
153.7197668693
 11
92.8277426742
 21
142.2818694564
  0
LINE
  5
376
100
AcDbEntity
  8
QUER2
100
AcDbLine
 62
7
  6
CONTINUOUS
 10
84.6605899932
 20
71.9646798877
 11
81.1250560872
 21
68.4291459818
  0
LINE
  5
377
100
AcDbEntity
  8
0
100
AcDbLine
 62
7
  6
CONTINUOUS
 10
49.3618711537
 20
114.832307704
 11
73.3880497633
 21
115.2516862116
  0
LINE
  5
378
100
AcDbEntity
  8
0
100
AcDbLine
 62
7
  6
CONTINUOUS
 10
55.3749599601
 20
113.5206689617
 11
61.3880497633
 21
113.5731444015
  0
LINE
  5
379
100
AcDbEntity
  8
A_RUNDUNGEN
100
AcDbLine
 62
7
  6
CONTINUOUS
 10
61.3880497633
 20
113.5731444015
 11
66.3066523436
 21
113.6160683959
  0
LINE
  5
37A
100
AcDbEntity
  8
0
100
AcDbLine
 62
7
  6
CONTINUOUS
 10
66.3066523436
 20
113.6160683959
 11
70.3880497633
 21
113.6516862116
  0
LINE
  5
37B
100
AcDbEntity
  8
0
100
AcDbLine
 62
7
  6
CONTINUOUS
 10
73.3880497633
 20
113.8516862116
 11
52.1749599601
 21
113.6665623814
  0
LINE
  5
37C
100
AcDbEntity
  8
0
100
AcDbLine
 62
7
  6
CONTINUOUS
 10
43.8775778357
 20
115.148215537
 11
47.8880497633
 21
115.1692145108
  0
LINE
  5
37D
100
AcDbEntity
  8
A_RUNDUNGEN
100
AcDbLine
 62
7
  6
CONTINUOUS
 10
47.8880497633
 20
115.1692145108
 11
73.1880497633
 21
115.3016862116
  0
LINE
  5
37E
100
AcDbEntity
  8
0
100
AcDbLine
 62
7
  6
CONTINUOUS
 10
42.3880497633
 20
112.5238734085
 11
41.8880497633
 21
112.5238734085
  0
LINE
  5
37F
100
AcDbEntity
  8
0
100
AcDbLine
 62
7
  6
CONTINUOUS
 10
42.3880497633
 20
112.8516862116
 11
41.8880497633
 21
112.8516862116
  0
LINE
  5
380
100
AcDbEntity
  8
A_RUNDUNGEN
100
AcDbLine
 62
7
  6
CONTINUOUS
 10
52.1880497633
 20
113.5766862116
 11
60.3749599601
 21
113.5766862116
  0
LINE
  5
381
100
AcDbEntity
  8
A_RUNDUNGEN
100
AcDbLine
 62
7
  6
CONTINUOUS
 10
74.8880497633
 20
115.2516862116
 11
73.3880497633
 21
115.2516862116
  0
LINE
  5
382
100
AcDbEntity
  8
0
100
AcDbLine
 62
7
  6
CONTINUOUS
 10
41.8880497633
 20
115.3516862116
 11
74.8880497633
 21
115.3516862116
  0
LINE
  5
383
100
AcDbEntity
  8
0
100
AcDbLine
 62
7
  6
CONTINUOUS
 10
82.770575661
 20
117.3516862411
 11
97.048949661
 21
117.3516862684
  0
LINE
  5
384
100
AcDbEntity
  8
0
100
AcDbLine
 62
7
  6
CONTINUOUS
 10
66.3880497633
 20
118.3516862116
 11
74.8880497633
 21
118.3516862116
  0
LINE
  5
385
100
AcDbEntity
  8
0
100
AcDbLine
 62
7
  6
CONTINUOUS
 10
24.5906677294
 20
113.4542812119
 11
16.8749599504
 21
113.5216152187
  0
LINE
  5
386
100
AcDbEntity
  8
0
100
AcDbLine
 62
7
  6
CONTINUOUS
 10
99.3880497499
 20
70.9516862729
 11
98.8880497509
 21
70.451686272
  0
LINE
  5
387
100
AcDbEntity
  8
QUER2
100
AcDbLine
 62
7
  6
CONTINUOUS
 10
83.5219546465
 20
72.436659319
 11
83.9698624646
 21
72.6455221647
  0
LINE
  5
388
100
AcDbEntity
  8
QUER2
100
AcDbLine
 62
7
  6
CONTINUOUS
 10
78.1458873276
 20
71.5896534739
 11
79.7540684371
 21
72.3115479748
  0
LINE
  5
389
100
AcDbEntity
  8
0
100
AcDbLine
 62
7
  6
CONTINUOUS
 10
191.2300695234
 20
115.0001563973
 11
189.3619902975
 21
114.3202320389
  0
LINE
  5
38A
100
AcDbEntity
  8
0
100
AcDbLine
 62
7
  6
CONTINUOUS
 10
75.0220247633
 20
123.3516862116
 11
66.3880497633
 21
123.3516862116
  0
LINE
  5
38B
100
AcDbEntity
  8
0
100
AcDbLine
 62
7
  6
CONTINUOUS
 10
91.3880497633
 20
123.8516862116
 11
75.8880497633
 21
123.8516862116
  0
LINE
  5
38C
100
AcDbEntity
  8
0
100
AcDbLine
 62
7
  6
CONTINUOUS
 10
16.8749599504
 20
131.1817572045
 11
24.5906677207
 21
131.2490912112
  0
LINE
  5
38D
100
AcDbEntity
  8
0
100
AcDbLine
 62
7
  6
CONTINUOUS
 10
102.697598636
 20
130.3516862793
 11
183.905917636
 21
130.351686435
  0
LINE
  5
38E
100
AcDbEntity
  8
0
100
AcDbLine
 62
7
  6
CONTINUOUS
 10
18.0616980923
 20
150.7920863299
 11
15.7144016355
 21
151.2059782341
  0
LINE
  5
38F
100
AcDbEntity
  8
0
100
AcDbLine
 62
7
  6
CONTINUOUS
 10
24.5906677487
 20
144.4542812117
 11
19.3836864602
 21
144.4997222142
  0
LINE
  5
390
100
AcDbEntity
  8
0
100
AcDbLine
 62
7
  6
CONTINUOUS
 10
187.3880496734
 20
110.8516864416
 11
186.8880496744
 21
110.3516864407
  0
LINE
  5
391
100
AcDbEntity
  8
0
100
AcDbLine
 62
7
  6
CONTINUOUS
 10
16.8880497633
 20
156.3516862116
 11
84.9059177633
 21
156.3516862116
  0
LINE
  5
392
100
AcDbEntity
  8
0
100
AcDbLine
 62
7
  6
CONTINUOUS
 10
169.388049684
 20
105.3516864071
 11
169.3880496993
 21
97.3516864071
  0
LINE
  5
393
100
AcDbEntity
  8
0
100
AcDbLine
 62
7
  6
CONTINUOUS
 10
171.8880496744
 20
110.3516864119
 11
171.888049684
 21
105.3516864119
  0
LINE
  5
394
100
AcDbEntity
  8
0
100
AcDbLine
 62
7
  6
CONTINUOUS
 10
171.8880496993
 20
97.3516864119
 11
171.8880497779
 21
56.3516864119
  0
LINE
  5
395
100
AcDbEntity
  8
0
100
AcDbLine
 62
7
  6
CONTINUOUS
 10
187.3880496722
 20
111.5011534416
 11
187.3880496734
 21
110.8516864416
  0
LINE
  5
396
100
AcDbEntity
  8
0
100
AcDbLine
 62
7
  6
CONTINUOUS
 10
187.6646875187
 20
127.7197667784
 11
191.8277416909
 21
116.2818693735
  0
ARC
  5
397
100
AcDbEntity
  8
0
100
AcDbCircle
 62
7
  6
CONTINUOUS
 10
43.8880497633
 20
87.5551294707
 40
2.0
100
AcDbArc
 50
180.0
 51
269.7
  0
ARC
  5
398
100
AcDbEntity
  8
0
100
AcDbCircle
 62
7
  6
CONTINUOUS
 10
16.8880497633
 20
80.3516862116
 40
2.0
100
AcDbArc
 50
180.0
 51
270.0
  0
ARC
  5
399
100
AcDbEntity
  8
0
100
AcDbCircle
 62
7
  6
CONTINUOUS
 10
55.3880497633
 20
88.682646346
 40
1.5
100
AcDbArc
 50
180.0
 51
269.5
  0
ARC
  5
39A
100
AcDbEntity
  8
0
100
AcDbCircle
 62
7
  6
CONTINUOUS
 10
49.3880497633
 20
87.3708362619
 40
1.5
100
AcDbArc
 50
180.0
 51
269.0
  0
ARC
  5
39B
100
AcDbEntity
  8
0
100
AcDbCircle
 62
7
  6
CONTINUOUS
 10
52.1880497633
 20
88.5367529263
 40
1.5
100
AcDbArc
 50
180.0
 51
269.5
  0
ARC
  5
39C
100
AcDbEntity
  8
A_RUNDUNGEN
100
AcDbCircle
 62
7
  6
CONTINUOUS
 10
52.1880497633
 20
88.6266862116
 40
1.5
100
AcDbArc
 50
183.4310820436
 51
270.0
  0
ARC
  5
39D
100
AcDbEntity
  8
0
100
AcDbCircle
 62
7
  6
CONTINUOUS
 10
16.3880497633
 20
98.6774502116
 40
1.5
100
AcDbArc
 50
90.5000042622
 51
180.0
  0
ARC
  5
39E
100
AcDbEntity
  8
A_RUNDUNGEN
100
AcDbCircle
 62
7
  6
CONTINUOUS
 10
56.7880497633
 20
87.9965902953
 40
1.0
100
AcDbArc
 50
235.7510301834
 51
239.6666666658
  0
ARC
  5
39F
100
AcDbEntity
  8
0
100
AcDbCircle
 62
7
  6
CONTINUOUS
 10
24.5880497633
 20
100.5490792116
 40
0.3
100
AcDbArc
 50
270.5000042622
 51
360.0
  0
ARC
  5
3A0
100
AcDbEntity
  8
QUER2
100
AcDbCircle
 62
7
  6
CONTINUOUS
 10
67.4747485039
 20
63.6744138174
 40
13.3928774596
100
AcDbArc
 50
62.727386009
 51
67.20682206
  0
ARC
  5
3A1
100
AcDbEntity
  8
QUER2
100
AcDbCircle
 62
7
  6
CONTINUOUS
 10
67.4747485039
 20
63.6744138174
 40
13.3928774596
100
AcDbArc
 50
55.2845037669
 51
59.2844205334
  0
ARC
  5
3A2
100
AcDbEntity
  8
QUER2
100
AcDbCircle
 62
7
  6
CONTINUOUS
 10
67.4747485039
 20
63.6744138174
 40
13.3928774596
100
AcDbArc
 50
47.7810361635
 51
51.8421451123
  0
ARC
  5
3A3
100
AcDbEntity
  8
QUER2
100
AcDbCircle
 62
7
  6
CONTINUOUS
 10
67.4747485039
 20
63.6744138174
 40
13.3928774596
100
AcDbArc
 50
39.9704349704
 51
44.3393766357
  0
ARC
  5
3A4
100
AcDbEntity
  8
QUER2
100
AcDbCircle
 62
7
  6
CONTINUOUS
 10
67.4747485039
 20
63.6744138174
 40
13.3928774596
100
AcDbArc
 50
77.598515657
 51
97.5210600325
  0
ARC
  5
3A5
100
AcDbEntity
  8
QUER2
100
AcDbCircle
 62
7
  6
CONTINUOUS
 10
67.4747485039
 20
63.6744138174
 40
11.478516903
100
AcDbArc
 50
30.8333048429
 51
97.8460018237
  0
ARC
  5
3A6
100
AcDbEntity
  8
0
100
AcDbCircle
 62
7
  6
CONTINUOUS
 10
67.3880497633
 20
63.9516862116
 40
5.5
100
AcDbArc
 50
65.3900164906
 51
294.6099835387
  0
ARC
  5
3A7
100
AcDbEntity
  8
QUER2
100
AcDbCircle
 62
7
  6
CONTINUOUS
 10
67.3880497633
 20
63.9516862116
 40
5.0
100
AcDbArc
 50
90.0
 51
270.0
  0
ARC
  5
3A8
100
AcDbEntity
  8
0
100
AcDbCircle
 62
7
  6
CONTINUOUS
 10
64.8880497779
 20
56.3516862068
 40
3.0
100
AcDbArc
 50
180.0000001098
 51
270.0000001098
  0
CIRCLE
  5
3A9
100
AcDbEntity
  8
QUER2
100
AcDbCircle
 62
7
  6
CONTINUOUS
 10
67.3880497633
 20
63.9516862116
 40
2.5
  0
CIRCLE
  5
3AA
100
AcDbEntity
  8
A_ACHSEN
100
AcDbCircle
 62
7
  6
CONTINUOUS
 10
67.3880497633
 20
63.9516862116
 40
2.45
  0
CIRCLE
  5
3AB
100
AcDbEntity
  8
A_ACHSEN
100
AcDbCircle
 62
7
  6
CONTINUOUS
 10
67.3880497633
 20
63.9516862116
 40
1.6215728753
  0
ARC
  5
3AC
100
AcDbEntity
  8
0
100
AcDbCircle
 62
7
  6
CONTINUOUS
 10
64.888049753
 20
69.3516862068
 40
3.0
100
AcDbArc
 50
90.0000001098
 51
158.4047140718
  0
ARC
  5
3AD
100
AcDbEntity
  8
QUER2
100
AcDbCircle
 62
7
  6
CONTINUOUS
 10
70.4588773958
 20
77.2453340069
 40
0.5022619795
100
AcDbArc
 50
257.598515657
 51
0.8619182248
  0
ARC
  5
3AE
100
AcDbEntity
  8
QUER2
100
AcDbCircle
 62
7
  6
CONTINUOUS
 10
72.290915999
 20
76.1740112009
 40
0.4023630867
100
AcDbArc
 50
176.5890765054
 51
337.7153682265
  0
ARC
  5
3AF
100
AcDbEntity
  8
QUER2
100
AcDbCircle
 62
7
  6
CONTINUOUS
 10
65.8663186767
 20
75.3465339867
 40
0.3039037208
100
AcDbArc
 50
184.5937440552
 51
277.8460018237
  0
ARC
  5
3B0
100
AcDbEntity
  8
QUER2
100
AcDbCircle
 62
7
  6
CONTINUOUS
 10
65.761524803
 20
76.6507807237
 40
0.3039037208
100
AcDbArc
 50
97.5210600325
 51
184.5937440552
  0
ARC
  5
3B1
100
AcDbEntity
  8
QUER2
100
AcDbCircle
 62
7
  6
CONTINUOUS
 10
79.8537607
 20
69.9125734033
 40
0.6
100
AcDbArc
 50
350.0
 51
121.8763603803
  0
ARC
  5
3B2
100
AcDbEntity
  8
QUER2
100
AcDbCircle
 62
7
  6
CONTINUOUS
 10
79.9516346939
 20
69.68810018
 40
0.5837
100
AcDbArc
 50
8.4071409463
 51
121.8587620103
  0
ARC
  5
3B3
100
AcDbEntity
  8
QUER2
100
AcDbCircle
 62
7
  6
CONTINUOUS
 10
77.7621894023
 20
69.815067072
 40
0.5022619795
100
AcDbArc
 50
210.8333048429
 51
290.547271683
  0
ARC
  5
3B4
100
AcDbEntity
  8
QUER2
100
AcDbCircle
 62
7
  6
CONTINUOUS
 10
80.8973677037
 20
68.9085643794
 40
0.5
100
AcDbArc
 50
170.9328996899
 51
315.0
  0
ARC
  5
3B5
100
AcDbEntity
  8
QUER2
100
AcDbCircle
 62
7
  6
CONTINUOUS
 10
80.7715026966
 20
68.7826993723
 40
0.5
100
AcDbArc
 50
170.0
 51
315.0
  0
ARC
  5
3B6
100
AcDbEntity
  8
QUER2
100
AcDbCircle
 62
7
  6
CONTINUOUS
 10
76.7555542963
 20
73.3052014277
 40
0.4023630867
100
AcDbArc
 50
134.3466524339
 51
317.7737603653
  0
ARC
  5
3B7
100
AcDbEntity
  8
QUER2
100
AcDbCircle
 62
7
  6
CONTINUOUS
 10
77.9811110033
 20
71.9567295103
 40
0.4023630867
100
AcDbArc
 50
127.0417644818
 51
294.1747780881
  0
ARC
  5
3B8
100
AcDbEntity
  8
QUER2
100
AcDbCircle
 62
7
  6
CONTINUOUS
 10
74.3880497633
 20
78.7016862116
 40
19.75
100
AcDbArc
 50
270.0
 51
90.0
  0
ARC
  5
3B9
100
AcDbEntity
  8
QUER2
100
AcDbCircle
 62
7
  6
CONTINUOUS
 10
74.3880497633
 20
78.7016862116
 40
9.75
100
AcDbArc
 50
270.0
 51
301.8763603803
  0
ARC
  5
3BA
100
AcDbEntity
  8
QUER2
100
AcDbCircle
 62
7
  6
CONTINUOUS
 10
74.3880497633
 20
78.7016862116
 40
9.75
100
AcDbArc
 50
328.1236396197
 51
90.0
  0
ARC
  5
3BB
100
AcDbEntity
  8
QUER2
100
AcDbCircle
 62
7
  6
CONTINUOUS
 10
74.5545044045
 20
78.3728794043
 40
9.6414848656
100
AcDbArc
 50
290.547271683
 51
301.8587620103
  0
ARC
  5
3BC
100
AcDbEntity
  8
QUER2
100
AcDbCircle
 62
7
  6
CONTINUOUS
 10
74.5545044045
 20
78.3728794043
 40
9.6414848656
100
AcDbArc
 50
328.2593605105
 51
340.8200823557
  0
ARC
  5
3BD
100
AcDbEntity
  8
QUER2
100
AcDbCircle
 62
7
  6
CONTINUOUS
 10
77.4918514411
 20
77.3511412036
 40
6.5315079261
100
AcDbArc
 50
352.5872491716
 51
180.8619182248
  0
ARC
  5
3BE
100
AcDbEntity
  8
QUER2
100
AcDbCircle
 62
7
  6
CONTINUOUS
 10
77.4918514411
 20
77.3511412036
 40
5.5240497507
100
AcDbArc
 50
294.1747780881
 51
176.5890765054
  0
ARC
  5
3BF
100
AcDbEntity
  8
QUER2
100
AcDbCircle
 62
7
  6
CONTINUOUS
 10
73.9658821639
 20
75.3875748869
 40
0.4023630867
100
AcDbArc
 50
151.6741664759
 51
330.3376400666
  0
ARC
  5
3C0
100
AcDbEntity
  8
QUER2
100
AcDbCircle
 62
7
  6
CONTINUOUS
 10
75.4309257542
 20
74.4514604122
 40
0.4023630867
100
AcDbArc
 50
144.829576765
 51
322.2970721142
  0
ARC
  5
3C1
100
AcDbEntity
  8
0
100
AcDbCircle
 62
7
  6
CONTINUOUS
 10
90.8880497605
 20
65.4516862566
 40
5.0
100
AcDbArc
 50
270.0000001098
 51
0.0000001098
  0
ARC
  5
3C2
100
AcDbEntity
  8
0
100
AcDbCircle
 62
7
  6
CONTINUOUS
 10
97.3880497697
 20
60.637592949
 40
2.0
100
AcDbArc
 50
270.3000001098
 51
0.0000001098
  0
ARC
  5
3C3
100
AcDbEntity
  8
A_RUNDUNGEN
100
AcDbCircle
 62
7
  6
CONTINUOUS
 10
92.8880498099
 20
73.7223333016
 40
2.999999909
100
AcDbArc
 50
270.499998879
 51
289.5983351001
  0
ARC
  5
3C4
100
AcDbEntity
  8
QUER2
100
AcDbCircle
 62
7
  6
CONTINUOUS
 10
83.2670128093
 20
72.9833838532
 40
0.6032437788
100
AcDbArc
 50
148.2593605105
 51
295.0
  0
ARC
  5
3C5
100
AcDbEntity
  8
QUER2
100
AcDbCircle
 62
7
  6
CONTINUOUS
 10
83.1771625716
 20
73.2359752749
 40
0.6
100
AcDbArc
 50
148.1236396197
 51
280.0
  0
ARC
  5
3C6
100
AcDbEntity
  8
QUER2
100
AcDbCircle
 62
7
  6
CONTINUOUS
 10
84.1811715955
 20
72.1923682712
 40
0.5
100
AcDbArc
 50
315.0
 51
115.0
  0
ARC
  5
3C7
100
AcDbEntity
  8
QUER2
100
AcDbCircle
 62
7
  6
CONTINUOUS
 10
84.3070366026
 20
72.3182332783
 40
0.5
100
AcDbArc
 50
315.0
 51
100.0
  0
ARC
  5
3C8
100
AcDbEntity
  8
0
100
AcDbCircle
 62
7
  6
CONTINUOUS
 10
76.6950191995
 20
100.3516862116
 40
3.5547736725
100
AcDbArc
 50
175.9671753207
 51
184.0328246793
  0
ARC
  5
3C9
100
AcDbEntity
  8
0
100
AcDbCircle
 62
7
  6
CONTINUOUS
 10
97.3880497004
 20
96.7657795892
 40
2.0
100
AcDbArc
 50
0.0000001098
 51
89.7000001098
  0
ARC
  5
3CA
100
AcDbEntity
  8
0
100
AcDbCircle
 62
7
  6
CONTINUOUS
 10
72.8880497633
 20
80.3516862116
 40
2.0
100
AcDbArc
 50
270.0
 51
360.0
  0
ARC
  5
3CB
100
AcDbEntity
  8
0
100
AcDbCircle
 62
7
  6
CONTINUOUS
 10
94.3880497037
 20
95.0714762119
 40
1.5
100
AcDbArc
 50
0.0000001098
 51
88.5000001098
  0
ARC
  5
3CC
100
AcDbEntity
  8
QUER2
100
AcDbCircle
 62
7
  6
CONTINUOUS
 10
71.8880497633
 20
99.9516862116
 40
1.5
100
AcDbArc
 50
180.0
 51
270.0
  0
ARC
  5
3CD
100
AcDbEntity
  8
0
100
AcDbCircle
 62
7
  6
CONTINUOUS
 10
85.5887522596
 20
97.8027508888
 40
1.0
100
AcDbArc
 50
255.4257839118
 51
268.5000001098
  0
ARC
  5
3CE
100
AcDbEntity
  8
A_RUNDUNGEN
100
AcDbCircle
 62
7
  6
CONTINUOUS
 10
64.0880497633
 20
102.6516862116
 40
0.3
100
AcDbArc
 50
0.0007005519
 51
90.0
  0
ARC
  5
3CF
100
AcDbEntity
  8
A_RUNDUNGEN
100
AcDbCircle
 62
7
  6
CONTINUOUS
 10
64.6880497633
 20
101.5016862116
 40
0.3
100
AcDbArc
 50
179.9999923139
 51
270.0
  0
ARC
  5
3D0
100
AcDbEntity
  8
A_RUNDUNGEN
100
AcDbCircle
 62
7
  6
CONTINUOUS
 10
69.0880497633
 20
101.5016862116
 40
0.3
100
AcDbArc
 50
270.0
 51
0.0001801248
  0
ARC
  5
3D1
100
AcDbEntity
  8
QUER2
100
AcDbCircle
 62
7
  6
CONTINUOUS
 10
61.6880497633
 20
88.7516862116
 40
0.3
100
AcDbArc
 50
180.0
 51
270.0
  0
ARC
  5
3D2
100
AcDbEntity
  8
0
100
AcDbCircle
 62
7
  6
CONTINUOUS
 10
84.9059177633
 20
152.3516862116
 40
4.0
100
AcDbArc
 50
19.9999997762
 51
90.0
  0
ARC
  5
3D3
100
AcDbEntity
  8
0
100
AcDbCircle
 62
7
  6
CONTINUOUS
 10
102.6975986418
 20
127.3516862793
 40
2.9999996523
100
AcDbArc
 50
90.0000001098
 51
170.0000019033
  0
ARC
  5
3D4
100
AcDbEntity
  8
0
100
AcDbCircle
 62
7
  6
CONTINUOUS
 10
43.8880497633
 20
113.1482429525
 40
2.0
100
AcDbArc
 50
90.3
 51
180.0
  0
ARC
  5
3D5
100
AcDbEntity
  8
0
100
AcDbCircle
 62
7
  6
CONTINUOUS
 10
16.8880497633
 20
154.3516862116
 40
2.0
100
AcDbArc
 50
90.0
 51
180.0
  0
ARC
  5
3D6
100
AcDbEntity
  8
0
100
AcDbCircle
 62
7
  6
CONTINUOUS
 10
82.7705756648
 20
115.3516862411
 40
1.999999563
100
AcDbArc
 50
90.0000001098
 51
174.9999993927
  0
ARC
  5
3D7
100
AcDbEntity
  8
0
100
AcDbCircle
 62
7
  6
CONTINUOUS
 10
16.8880497633
 20
115.0215582116
 40
1.5000001084
100
AcDbArc
 50
180.0
 51
269.4999996651
  0
ARC
  5
3D8
100
AcDbEntity
  8
0
100
AcDbCircle
 62
7
  6
CONTINUOUS
 10
55.3880497633
 20
112.0207260771
 40
1.5
100
AcDbArc
 50
90.5
 51
180.0
  0
ARC
  5
3D9
100
AcDbEntity
  8
0
100
AcDbCircle
 62
7
  6
CONTINUOUS
 10
49.3880497633
 20
113.3325361612
 40
1.5
100
AcDbArc
 50
91.0
 51
180.0
  0
ARC
  5
3DA
100
AcDbEntity
  8
A_RUNDUNGEN
100
AcDbCircle
 62
7
  6
CONTINUOUS
 10
52.1880497633
 20
112.0766862116
 40
1.5
100
AcDbArc
 50
90.0
 51
176.5689179564
  0
ARC
  5
3DB
100
AcDbEntity
  8
0
100
AcDbCircle
 62
7
  6
CONTINUOUS
 10
52.1880497633
 20
112.1666194968
 40
1.5
100
AcDbArc
 50
90.5
 51
180.0
  0
ARC
  5
3DC
100
AcDbEntity
  8
0
100
AcDbCircle
 62
7
  6
CONTINUOUS
 10
16.8880497633
 20
129.6818142116
 40
1.5
100
AcDbArc
 50
90.5000003349
 51
180.0
  0
ARC
  5
3DD
100
AcDbEntity
  8
0
100
AcDbCircle
 62
7
  6
CONTINUOUS
 10
91.3880497633
 20
125.3516862116
 40
1.5
100
AcDbArc
 50
270.0
 51
360.0
  0
ARC
  5
3DE
100
AcDbEntity
  8
0
100
AcDbCircle
 62
7
  6
CONTINUOUS
 10
17.8880497633
 20
149.8072782116
 40
1.000000386
100
AcDbArc
 50
0.0
 51
79.9999950958
  0
ARC
  5
3DF
100
AcDbEntity
  8
0
100
AcDbCircle
 62
7
  6
CONTINUOUS
 10
97.048949659
 20
118.3516862684
 40
1.000000386
100
AcDbArc
 50
270.0000001098
 51
350.0000019033
  0
ARC
  5
3E0
100
AcDbEntity
  8
0
100
AcDbCircle
 62
7
  6
CONTINUOUS
 10
91.8880497633
 20
141.9398492116
 40
1.0000003073
100
AcDbArc
 50
0.0
 51
19.9999997762
  0
ARC
  5
3E1
100
AcDbEntity
  8
0
100
AcDbCircle
 62
7
  6
CONTINUOUS
 10
75.8880497633
 20
122.8516862116
 40
0.9999993981
100
AcDbArc
 50
90.0
 51
149.9999884324
  0
ARC
  5
3E2
100
AcDbEntity
  8
0
100
AcDbCircle
 62
7
  6
CONTINUOUS
 10
15.8880497633
 20
152.1907852116
 40
0.9999992276
100
AcDbArc
 50
180.0
 51
259.9999950958
  0
ARC
  5
3E3
100
AcDbEntity
  8
A_RUNDUNGEN
100
AcDbCircle
 62
7
  6
CONTINUOUS
 10
56.7880269272
 20
112.7067819286
 40
0.999992388
100
AcDbArc
 50
120.3325947204
 51
124.247925682
  0
ARC
  5
3E4
100
AcDbEntity
  8
0
100
AcDbCircle
 62
7
  6
CONTINUOUS
 10
19.3880497633
 20
144.9997032116
 40
0.5000000361
100
AcDbArc
 50
180.0
 51
269.4999959815
  0
ARC
  5
3E5
100
AcDbEntity
  8
0
100
AcDbCircle
 62
7
  6
CONTINUOUS
 10
24.5880497633
 20
144.1542922116
 40
0.3000004234
100
AcDbArc
 50
0.0
 51
89.4999959815
  0
ARC
  5
3E6
100
AcDbEntity
  8
0
100
AcDbCircle
 62
7
  6
CONTINUOUS
 10
24.5880497633
 20
113.1542922116
 40
0.3000004234
100
AcDbArc
 50
0.0
 51
89.4999996651
  0
ARC
  5
3E7
100
AcDbEntity
  8
A_RUNDUNGEN
100
AcDbCircle
 62
7
  6
CONTINUOUS
 10
64.0880497633
 20
108.2516862116
 40
0.3
100
AcDbArc
 50
270.0
 51
359.9992994481
  0
ARC
  5
3E8
100
AcDbEntity
  8
A_RUNDUNGEN
100
AcDbCircle
 62
7
  6
CONTINUOUS
 10
64.6880497633
 20
109.4016862116
 40
0.3
100
AcDbArc
 50
90.0
 51
180.0000076861
  0
ARC
  5
3E9
100
AcDbEntity
  8
A_RUNDUNGEN
100
AcDbCircle
 62
7
  6
CONTINUOUS
 10
69.0880497633
 20
109.4016862116
 40
0.3
100
AcDbArc
 50
359.9998198752
 51
90.0
  0
ARC
  5
3EA
100
AcDbEntity
  8
QUER2
100
AcDbCircle
 62
7
  6
CONTINUOUS
 10
61.6880497633
 20
111.7516862116
 40
0.3
100
AcDbArc
 50
90.0
 51
180.0
  0
ARC
  5
3EB
100
AcDbEntity
  8
QUER2
100
AcDbCircle
 62
7
  6
CONTINUOUS
 10
70.0880497633
 20
111.7516862116
 40
0.3
100
AcDbArc
 50
0.0
 51
90.0
  0
ARC
  5
3EC
100
AcDbEntity
  8
0
100
AcDbCircle
 62
7
  6
CONTINUOUS
 10
24.5880497633
 20
131.5490792116
 40
0.3
100
AcDbArc
 50
270.5000003349
 51
360.0
  0
ARC
  5
3ED
100
AcDbEntity
  8
0
100
AcDbCircle
 62
7
  6
CONTINUOUS
 10
164.3880497779
 20
56.3516863975
 40
3.0
100
AcDbArc
 50
270.0000001098
 51
0.0000001098
  0
ARC
  5
3EE
100
AcDbEntity
  8
0
100
AcDbCircle
 62
7
  6
CONTINUOUS
 10
183.9059176437
 20
126.351686435
 40
4.0
100
AcDbArc
 50
19.999999886
 51
90.0000001098
  0
ARC
  5
3EF
100
AcDbEntity
  8
0
100
AcDbCircle
 62
7
  6
CONTINUOUS
 10
190.3880496722
 20
111.5011534474
 40
3.0
100
AcDbArc
 50
109.9999762984
 51
180.0000001098
  0
ARC
  5
3F0
100
AcDbEntity
  8
0
100
AcDbCircle
 62
7
  6
CONTINUOUS
 10
190.8880496637
 20
115.9398494483
 40
0.9999993676
100
AcDbArc
 50
289.9999762984
 51
19.999999886
  0
SPLINE
  5
3F1
100
AcDbEntity
  8
DEFAULT_2
100
AcDbSpline
 62
8
  6
HIDDEN
 70
0
 71
3
 72
16
 73
12
 74
0
 42
0.0000001
 43
0.0000001
 44
0.0000000001
 40
0.0
 40
0.0
 40
0.0
 40
0.0
 40
0.3903798779
 40
0.5625679588
 40
0.7120202215
 40
0.8342206317
 40
0.9248405847
 40
0.9573082391
 40
0.9808415989
 40
0.9951643057
 40
1.0
 40
1.0
 40
1.0
 40
1.0
 10
69.2774470109
 20
103.5493921206
 30
0.0
 10
69.2917119668
 20
103.5043769016
 30
0.0
 10
69.3123444406
 20
103.4395299191
 30
0.0
 10
69.3385731147
 20
103.3574940218
 30
0.0
 10
69.3549925952
 20
103.3063757693
 30
0.0
 10
69.3683704648
 20
103.2646531855
 30
0.0
 10
69.3775693285
 20
103.2364291242
 30
0.0
 10
69.3828849025
 20
103.2195292804
 30
0.0
 10
69.3857227857
 20
103.2114709716
 30
0.0
 10
69.3869102658
 20
103.2064917696
 30
0.0
 10
69.3880435744
 20
103.2043553509
 30
0.0
 10
69.3880497853
 20
103.2037704455
 30
0.0
  0
SPLINE
  5
3F2
100
AcDbEntity
  8
DEFAULT_2
100
AcDbSpline
 62
8
  6
HIDDEN
 70
0
 71
3
 72
13
 73
9
 74
0
 42
0.0000001
 43
0.0000001
 44
0.0000000001
 40
0.0
 40
0.0
 40
0.0
 40
0.0
 40
0.3823170071
 40
0.7042352415
 40
0.828763902
 40
0.9220602523
 40
0.9800639013
 40
1.0
 40
1.0
 40
1.0
 40
1.0
 10
67.2160410342
 20
103.5493921206
 30
0.0
 10
67.2391124579
 20
103.5060063954
 30
0.0
 10
67.2805988436
 20
103.4255479175
 30
0.0
 10
67.3274204329
 20
103.3298619976
 30
0.0
 10
67.3573530234
 20
103.267284578
 30
0.0
 10
67.3721531072
 20
103.2350561285
 30
0.0
 10
67.3819108851
 20
103.2153462766
 30
0.0
 10
67.3856034334
 20
103.2059895147
 30
0.0
 10
67.3868846136
 20
103.2037704455
 30
0.0
  0
SPLINE
  5
3F3
100
AcDbEntity
  8
DEFAULT_2
100
AcDbSpline
 62
8
  6
HIDDEN
 70
0
 71
3
 72
13
 73
9
 74
0
 42
0.0000001
 43
0.0000001
 44
0.0000000001
 40
0.0
 40
0.0
 40
0.0
 40
0.0
 40
0.0628689377
 40
0.1340931028
 40
0.222776558
 40
0.3333361504
 40
0.6251621043
 40
1.0
 40
1.0
 40
1.0
 40
1.0
 10
69.3157699621
 20
106.8005641641
 30
0.0
 10
69.321038254
 20
106.8005806574
 30
0.0
 10
69.3324506795
 20
106.7977867343
 30
0.0
 10
69.3469590946
 20
106.7853268556
 30
0.0
 10
69.3591824548
 20
106.7660196505
 30
0.0
 10
69.374280109
 20
106.7275603794
 30
0.0
 10
69.3854751501
 20
106.6629088809
 30
0.0
 10
69.3880497667
 20
106.6070549503
 30
0.0
 10
69.388049766
 20
106.5756441266
 30
0.0
  0
SPLINE
  5
3F4
100
AcDbEntity
  8
DEFAULT_2
100
AcDbSpline
 62
8
  6
HIDDEN
 70
0
 71
3
 72
17
 73
13
 74
0
 42
0.0000001
 43
0.0000001
 44
0.0000000001
 40
0.0
 40
0.0
 40
0.0
 40
0.0
 40
0.0314594513
 40
0.063630326
 40
0.1002171407
 40
0.1435921279
 40
0.2545267375
 40
0.3953624568
 40
0.5534361924
 40
0.7147952759
 40
0.8664254743
 40
1.0
 40
1.0
 40
1.0
 40
1.0
 10
67.2791432715
 20
106.800507628
 30
0.0
 10
67.2881515462
 20
106.8004388192
 30
0.0
 10
67.3065881196
 20
106.7973266756
 30
0.0
 10
67.3314838935
 20
106.781768695
 30
0.0
 10
67.3517116229
 20
106.7562463847
 30
0.0
 10
67.3747063693
 20
106.7062716768
 30
0.0
 10
67.3884971132
 20
106.6217011524
 30
0.0
 10
67.3865492836
 20
106.5041268865
 30
0.0
 10
67.3666206409
 20
106.3734392273
 30
0.0
 10
67.3306566234
 20
106.243090411
 30
0.0
 10
67.2812163437
 20
106.1248078393
 30
0.0
 10
67.2390431694
 20
106.0543106349
 30
0.0
 10
67.2160410342
 20
106.023750319
 30
0.0
  0
SPLINE
  5
3F5
100
AcDbEntity
  8
DEFAULT_2
100
AcDbSpline
 62
8
  6
HIDDEN
 70
0
 71
3
 72
21
 73
17
 74
0
 42
0.0000001
 43
0.0000001
 44
0.0000000001
 40
0.0
 40
0.0
 40
0.0
 40
0.0
 40
0.0012141761
 40
0.0048337895
 40
0.0108244702
 40
0.0191518484
 40
0.0426792177
 40
0.0751409396
 40
0.116262058
 40
0.1657533446
 40
0.2231645762
 40
0.2879439606
 40
0.437393674
 40
0.609596116
 40
0.7991324087
 40
1.0
 40
1.0
 40
1.0
 40
1.0
 10
69.3880497853
 20
107.6996019777
 30
0.0
 10
69.3881799502
 20
107.6995339493
 30
0.0
 10
69.3875745228
 20
107.6988036803
 30
0.0
 10
69.3875799801
 20
107.6977248382
 30
0.0
 10
69.3866831003
 20
107.6955664923
 30
0.0
 10
69.3854129334
 20
107.6912667707
 30
0.0
 10
69.3829205193
 20
107.6838221555
 30
0.0
 10
69.3793603299
 20
107.6726629205
 30
0.0
 10
69.3747724234
 20
107.6584867069
 30
0.0
 10
69.3692869
 20
107.6414470889
 30
0.0
 10
69.3629206478
 20
107.6216782877
 30
0.0
 10
69.3528629479
 20
107.5903977443
 30
0.0
 10
69.3385805563
 20
107.5458889961
 30
0.0
 10
69.3197450632
 20
107.4869929872
 30
0.0
 10
69.2990795927
 20
107.4221521008
 30
0.0
 10
69.2847869576
 20
107.377142611
 30
0.0
 10
69.2774470109
 20
107.3539803026
 30
0.0
  0
SPLINE
  5
3F6
100
AcDbEntity
  8
DEFAULT_2
100
AcDbSpline
 62
8
  6
HIDDEN
 70
0
 71
3
 72
21
 73
17
 74
0
 42
0.0000001
 43
0.0000001
 44
0.0000000001
 40
0.0
 40
0.0
 40
0.0
 40
0.0
 40
0.0012682531
 40
0.0050444688
 40
0.0112858327
 40
0.0199495358
 40
0.0443727477
 40
0.0779717415
 40
0.1204042326
 40
0.1712653136
 40
0.2299438463
 40
0.2957867
 40
0.4463552272
 40
0.6176886778
 40
0.8041513214
 40
1.0
 40
1.0
 40
1.0
 40
1.0
 10
67.3868846135
 20
107.6996019777
 30
0.0
 10
67.387037847
 20
107.6995463782
 30
0.0
 10
67.3862310436
 20
107.6987328017
 30
0.0
 10
67.3861388089
 20
107.6976301766
 30
0.0
 10
67.3848451794
 20
107.6953290315
 30
0.0
 10
67.3828975774
 20
107.6908125435
 30
0.0
 10
67.3791654252
 20
107.6829838304
 30
0.0
 10
67.3737735923
 20
107.6713047386
 30
0.0
 10
67.3668382847
 20
107.65652309
 30
0.0
 10
67.3585334405
 20
107.6388506187
 30
0.0
 10
67.3488826076
 20
107.6184767049
 30
0.0
 10
67.3336480076
 20
107.5865707832
 30
0.0
 10
67.3119137113
 20
107.5417216919
 30
0.0
 10
67.282885047
 20
107.4831830475
 30
0.0
 10
67.2506341831
 20
107.4197495951
 30
0.0
 10
67.2278598995
 20
107.3762056341
 30
0.0
 10
67.2160410342
 20
107.3539803026
 30
0.0
  0
SPLINE
  5
3F7
100
AcDbEntity
  8
DEFAULT_2
100
AcDbSpline
 62
8
  6
HIDDEN
 70
0
 71
3
 72
17
 73
13
 74
0
 42
0.0000001
 43
0.0000001
 44
0.0000000001
 40
0.0
 40
0.0
 40
0.0
 40
0.0
 40
0.1997572394
 40
0.3866568012
 40
0.5550557639
 40
0.6995754543
 40
0.815820949
 40
0.9013847208
 40
0.9330466488
 40
0.9583878283
 40
0.9795435489
 40
1.0
 40
1.0
 40
1.0
 40
1.0
 10
69.2774470109
 20
107.3539803026
 30
0.0
 10
69.2646459716
 20
107.3135846931
 30
0.0
 10
69.2411900154
 20
107.2349660462
 30
0.0
 10
69.2118910901
 20
107.1208842213
 30
0.0
 10
69.1902644148
 20
107.0170523458
 30
0.0
 10
69.1769598497
 20
106.9268738748
 30
0.0
 10
69.1724827431
 20
106.8535246007
 30
0.0
 10
69.175946617
 20
106.8036621448
 30
0.0
 10
69.1848940251
 20
106.7746137662
 30
0.0
 10
69.1933563519
 20
106.760089289
 30
0.0
 10
69.2047551812
 20
106.7508982566
 30
0.0
 10
69.2137749109
 20
106.7491314334
 30
0.0
 10
69.2181144103
 20
106.7491433136
 30
0.0
  0
SPLINE
  5
3F8
100
AcDbEntity
  8
DEFAULT_2
100
AcDbSpline
 62
8
  6
HIDDEN
 70
0
 71
3
 72
11
 73
7
 74
0
 42
0.0000001
 43
0.0000001
 44
0.0000000001
 40
0.0
 40
0.0
 40
0.0
 40
0.0
 40
0.2532177205
 40
0.5233016352
 40
0.7803904152
 40
1.0
 40
1.0
 40
1.0
 40
1.0
 10
69.388049766
 20
106.5756441266
 30
0.0
 10
69.3880497678
 20
106.5278653346
 30
0.0
 10
69.3815237915
 20
106.4291146583
 30
0.0
 10
69.3586449292
 20
106.2834767361
 30
0.0
 10
69.3245376774
 20
106.1465988802
 30
0.0
 10
69.2944052954
 20
106.0615586993
 30
0.0
 10
69.2774470109
 20
106.023750319
 30
0.0
  0
SPLINE
  5
3F9
100
AcDbEntity
  8
DEFAULT_2
100
AcDbSpline
 62
8
  6
HIDDEN
 70
0
 71
3
 72
17
 73
13
 74
0
 42
0.0000001
 43
0.0000001
 44
0.0000000001
 40
0.0
 40
0.0
 40
0.0
 40
0.0
 40
0.1335747062
 40
0.2852050946
 40
0.4465642499
 40
0.6046379831
 40
0.7454736112
 40
0.8564080718
 40
0.8997829534
 40
0.9363696965
 40
0.96854054
 40
1.0
 40
1.0
 40
1.0
 40
1.0
 10
67.2160410342
 20
104.8796221042
 30
0.0
 10
67.2390432138
 20
104.8490617294
 30
0.0
 10
67.2812164212
 20
104.7785643643
 30
0.0
 10
67.3306567792
 20
104.6602816099
 30
0.0
 10
67.3666207724
 20
104.5299326266
 30
0.0
 10
67.3865493539
 20
104.3992448848
 30
0.0
 10
67.3884970668
 20
104.2816706222
 30
0.0
 10
67.3747062206
 20
104.1971001507
 30
0.0
 10
67.3517113212
 20
104.1471255749
 30
0.0
 10
67.3314835011
 20
104.1216033901
 30
0.0
 10
67.3065876613
 20
104.1060455264
 30
0.0
 10
67.2881510597
 20
104.102933505
 30
0.0
 10
67.279142777
 20
104.1028647523
 30
0.0
  0
SPLINE
  5
3FA
100
AcDbEntity
  8
DEFAULT_2
100
AcDbSpline
 62
8
  6
HIDDEN
 70
0
 71
3
 72
13
 73
9
 74
0
 42
0.0000001
 43
0.0000001
 44
0.0000000001
 40
0.0
 40
0.0
 40
0.0
 40
0.0
 40
0.3748703066
 40
0.6667394223
 40
0.7772817243
 40
0.8659338478
 40
0.9371364084
 40
1.0
 40
1.0
 40
1.0
 40
1.0
 10
69.3880497656
 20
104.3277283558
 30
0.0
 10
69.3880497666
 20
104.296311622
 30
0.0
 10
69.3854702206
 20
104.2404460261
 30
0.0
 10
69.3742739514
 20
104.1757827431
 30
0.0
 10
69.359169668
 20
104.1373215673
 30
0.0
 10
69.3469404803
 20
104.1180219222
 30
0.0
 10
69.3324273317
 20
104.1055716527
 30
0.0
 10
69.3210137287
 20
104.1027862183
 30
0.0
 10
69.3157453627
 20
104.1028065621
 30
0.0
  0
SPLINE
  5
3FB
100
AcDbEntity
  8
DEFAULT_2
100
AcDbSpline
 62
8
  6
HIDDEN
 70
0
 71
3
 72
14
 73
10
 74
0
 42
0.0000001
 43
0.0000001
 44
0.0000000001
 40
0.0
 40
0.0
 40
0.0
 40
0.0
 40
0.3699130223
 40
0.5337813848
 40
0.6747924682
 40
0.7867465766
 40
0.86926824
 40
0.9342567988
 40
1.0
 40
1.0
 40
1.0
 40
1.0
 10
67.2160410342
 20
103.5493921206
 30
0.0
 10
67.1760510506
 20
103.6245931338
 30
0.0
 10
67.1197973704
 20
103.7340504716
 30
0.0
 10
67.0608119972
 20
103.8779265746
 30
0.0
 10
67.0327092007
 20
103.9699163693
 30
0.0
 10
67.0209588962
 20
104.0466655315
 30
0.0
 10
67.0299295331
 20
104.1075772172
 30
0.0
 10
67.063378948
 20
104.1477815276
 30
0.0
 10
67.0948448544
 20
104.1542318694
 30
0.0
 10
67.1099819564
 20
104.1543291694
 30
0.0
  0
SPLINE
  5
3FC
100
AcDbEntity
  8
DEFAULT_2
100
AcDbSpline
 62
8
  6
HIDDEN
 70
0
 71
3
 72
9
 73
5
 74
0
 42
0.0000001
 43
0.0000001
 44
0.0000000001
 40
0.0
 40
0.0
 40
0.0
 40
0.0
 40
0.2763320376
 40
1.0
 40
1.0
 40
1.0
 40
1.0
 10
69.2774470109
 20
106.7819161952
 30
0.0
 10
69.2750129155
 20
106.7796618393
 30
0.0
 10
69.2660612303
 20
106.7716680265
 30
0.0
 10
69.2564794532
 20
106.7643180776
 30
0.0
 10
69.2490657162
 20
106.7597875852
 30
0.0
  0
SPLINE
  5
3FD
100
AcDbEntity
  8
DEFAULT_2
100
AcDbSpline
 62
8
  6
HIDDEN
 70
0
 71
3
 72
9
 73
5
 74
0
 42
0.0000001
 43
0.0000001
 44
0.0000000001
 40
0.0
 40
0.0
 40
0.0
 40
0.0
 40
0.2666492063
 40
1.0
 40
1.0
 40
1.0
 40
1.0
 10
69.2490657162
 20
106.7597875852
 30
0.0
 10
69.2478858923
 20
106.7590666015
 30
0.0
 10
69.2434142808
 20
106.7564425199
 30
0.0
 10
69.2387379811
 20
106.7541509717
 30
0.0
 10
69.2351971989
 20
106.7527640884
 30
0.0
  0
SPLINE
  5
3FE
100
AcDbEntity
  8
DEFAULT_2
100
AcDbSpline
 62
8
  6
HIDDEN
 70
0
 71
3
 72
8
 73
4
 74
0
 42
0.0000001
 43
0.0000001
 44
0.0000000001
 40
0.0
 40
0.0
 40
0.0
 40
0.0
 40
1.0
 40
1.0
 40
1.0
 40
1.0
 10
69.2351971989
 20
106.7527640884
 30
0.0
 10
69.2316857832
 20
106.7513887075
 30
0.0
 10
69.228033501
 20
106.7502922685
 30
0.0
 10
69.2243126374
 20
106.7496783573
 30
0.0
  0
SPLINE
  5
3FF
100
AcDbEntity
  8
DEFAULT_2
100
AcDbSpline
 62
8
  6
HIDDEN
 70
0
 71
3
 72
8
 73
4
 74
0
 42
0.0000001
 43
0.0000001
 44
0.0000000001
 40
0.0
 40
0.0
 40
0.0
 40
0.0
 40
1.0
 40
1.0
 40
1.0
 40
1.0
 10
69.2243126374
 20
106.7496783573
 30
0.0
 10
69.222264193
 20
106.7493403812
 30
0.0
 10
69.2201833801
 20
106.7491485365
 30
0.0
 10
69.2181072479
 20
106.7491432758
 30
0.0
  0
SPLINE
  5
400
100
AcDbEntity
  8
DEFAULT_2
100
AcDbSpline
 62
8
  6
HIDDEN
 70
0
 71
3
 72
9
 73
5
 74
0
 42
0.0000001
 43
0.0000001
 44
0.0000000001
 40
0.0
 40
0.0
 40
0.0
 40
0.0
 40
0.5883452012
 40
1.0
 40
1.0
 40
1.0
 40
1.0
 10
69.2774470109
 20
104.121456228
 30
0.0
 10
69.2675490219
 20
104.1306233253
 30
0.0
 10
69.2499169127
 20
104.1452329813
 30
0.0
 10
69.2275466016
 20
104.1542052291
 30
0.0
 10
69.2181072479
 20
104.1542291473
 30
0.0
  0
SPLINE
  5
401
100
AcDbEntity
  8
DEFAULT_2
100
AcDbSpline
 62
8
  6
HIDDEN
 70
0
 71
3
 72
8
 73
4
 74
0
 42
0.0000001
 43
0.0000001
 44
0.0000000001
 40
0.0
 40
0.0
 40
0.0
 40
0.0
 40
1.0
 40
1.0
 40
1.0
 40
1.0
 10
69.2181144103
 20
104.1542291096
 30
0.0
 10
69.2201914143
 20
104.1542234234
 30
0.0
 10
69.2222730631
 20
104.1540310411
 30
0.0
 10
69.2243222939
 20
104.1536924684
 30
0.0
  0
SPLINE
  5
402
100
AcDbEntity
  8
DEFAULT_2
100
AcDbSpline
 62
8
  6
HIDDEN
 70
0
 71
3
 72
8
 73
4
 74
0
 42
0.0000001
 43
0.0000001
 44
0.0000000001
 40
0.0
 40
0.0
 40
0.0
 40
0.0
 40
1.0
 40
1.0
 40
1.0
 40
1.0
 10
69.2243222939
 20
104.1536924684
 30
0.0
 10
69.2280398179
 20
104.1530782613
 30
0.0
 10
69.2316887946
 20
104.1519825418
 30
0.0
 10
69.2351971866
 20
104.1506083435
 30
0.0
  0
SPLINE
  5
403
100
AcDbEntity
  8
DEFAULT_2
100
AcDbSpline
 62
8
  6
HIDDEN
 70
0
 71
3
 72
9
 73
5
 74
0
 42
0.0000001
 43
0.0000001
 44
0.0000000001
 40
0.0
 40
0.0
 40
0.0
 40
0.0
 40
0.2339590877
 40
1.0
 40
1.0
 40
1.0
 40
1.0
 10
69.2351971866
 20
104.1506083435
 30
0.0
 10
69.2363268711
 20
104.1501658586
 30
0.0
 10
69.2411047058
 20
104.1481451441
 30
0.0
 10
69.2456760594
 20
104.1456562365
 30
0.0
 10
69.2490657416
 20
104.1435848254
 30
0.0
  0
SPLINE
  5
404
100
AcDbEntity
  8
DEFAULT_2
100
AcDbSpline
 62
8
  6
HIDDEN
 70
0
 71
3
 72
9
 73
5
 74
0
 42
0.0000001
 43
0.0000001
 44
0.0000000001
 40
0.0
 40
0.0
 40
0.0
 40
0.0
 40
0.2241508545
 40
1.0
 40
1.0
 40
1.0
 40
1.0
 10
69.2490657416
 20
104.1435848254
 30
0.0
 10
69.251362406
 20
104.1421813499
 30
0.0
 10
69.2613908123
 20
104.1355633427
 30
0.0
 10
69.2706119451
 20
104.1277865758
 30
0.0
 10
69.2774470109
 20
104.121456228
 30
0.0
  0
SPLINE
  5
405
100
AcDbEntity
  8
DEFAULT_2
100
AcDbSpline
 62
8
  6
HIDDEN
 70
0
 71
3
 72
9
 73
5
 74
0
 42
0.0000001
 43
0.0000001
 44
0.0000000001
 40
0.0
 40
0.0
 40
0.0
 40
0.0
 40
0.4116694073
 40
1.0
 40
1.0
 40
1.0
 40
1.0
 10
69.2181144103
 20
106.7491433136
 30
0.0
 10
69.2275531453
 20
106.7491691538
 30
0.0
 10
69.2499198155
 20
106.7581420931
 30
0.0
 10
69.2675502622
 20
106.7727502467
 30
0.0
 10
69.2774470109
 20
106.7819161952
 30
0.0
  0
SPLINE
  5
406
100
AcDbEntity
  8
DEFAULT_2
100
AcDbSpline
 62
8
  6
HIDDEN
 70
0
 71
3
 72
17
 73
13
 74
0
 42
0.0000001
 43
0.0000001
 44
0.0000000001
 40
0.0
 40
0.0
 40
0.0
 40
0.0
 40
0.1997572394
 40
0.3866568012
 40
0.5550557639
 40
0.6995754543
 40
0.815820949
 40
0.9013847208
 40
0.9330466488
 40
0.9583878283
 40
0.9795435489
 40
1.0
 40
1.0
 40
1.0
 40
1.0
 10
69.2774470109
 20
103.5493921206
 30
0.0
 10
69.2646459716
 20
103.58978773
 30
0.0
 10
69.2411900154
 20
103.668406377
 30
0.0
 10
69.2118910901
 20
103.7824882018
 30
0.0
 10
69.1902644148
 20
103.8863200774
 30
0.0
 10
69.1769598497
 20
103.9764985483
 30
0.0
 10
69.1724827431
 20
104.0498478225
 30
0.0
 10
69.175946617
 20
104.0997102783
 30
0.0
 10
69.1848940251
 20
104.128758657
 30
0.0
 10
69.1933563519
 20
104.1432831342
 30
0.0
 10
69.2047551812
 20
104.1524741666
 30
0.0
 10
69.2137749109
 20
104.1542409898
 30
0.0
 10
69.2181144103
 20
104.1542291096
 30
0.0
  0
SPLINE
  5
407
100
AcDbEntity
  8
DEFAULT_2
100
AcDbSpline
 62
8
  6
HIDDEN
 70
0
 71
3
 72
11
 73
7
 74
0
 42
0.0000001
 43
0.0000001
 44
0.0000000001
 40
0.0
 40
0.0
 40
0.0
 40
0.0
 40
0.2532177204
 40
0.5233016352
 40
0.7803904151
 40
1.0
 40
1.0
 40
1.0
 40
1.0
 10
69.388049766
 20
104.327728296
 30
0.0
 10
69.3880497679
 20
104.375507088
 30
0.0
 10
69.3815237916
 20
104.4742577644
 30
0.0
 10
69.3586449292
 20
104.6198956867
 30
0.0
 10
69.3245376774
 20
104.7567735428
 30
0.0
 10
69.2944052954
 20
104.8418137238
 30
0.0
 10
69.2774470109
 20
104.8796221042
 30
0.0
  0
SPLINE
  5
408
100
AcDbEntity
  8
DEFAULT_2
100
AcDbSpline
 62
8
  6
HIDDEN
 70
0
 71
3
 72
11
 73
7
 74
0
 42
0.0000001
 43
0.0000001
 44
0.0000000001
 40
0.0
 40
0.0
 40
0.0
 40
0.0
 40
0.2294183914
 40
0.4999986482
 40
0.7705800762
 40
1.0
 40
1.0
 40
1.0
 40
1.0
 10
69.2774470109
 20
104.8796221042
 30
0.0
 10
69.2408746098
 20
104.9611600245
 30
0.0
 10
69.1896720952
 20
105.1513617255
 30
0.0
 10
69.165333031
 20
105.4516850757
 30
0.0
 10
69.1896717246
 20
105.7520090613
 30
0.0
 10
69.2408743655
 20
105.942211854
 30
0.0
 10
69.2774470109
 20
106.023750319
 30
0.0
  0
SPLINE
  5
409
100
AcDbEntity
  8
DEFAULT_2
100
AcDbSpline
 62
8
  6
HIDDEN
 70
0
 71
3
 72
9
 73
5
 74
0
 42
0.0000001
 43
0.0000001
 44
0.0000000001
 40
0.0
 40
0.0
 40
0.0
 40
0.0
 40
0.500155558
 40
1.0
 40
1.0
 40
1.0
 40
1.0
 10
67.2160410342
 20
106.023750319
 30
0.0
 10
67.0950635219
 20
105.8630212843
 30
0.0
 10
66.9536243576
 20
105.4515962592
 30
0.0
 10
67.0951387746
 20
105.0402511592
 30
0.0
 10
67.2160410342
 20
104.8796221042
 30
0.0
  0
SPLINE
  5
40A
100
AcDbEntity
  8
DEFAULT_2
100
AcDbSpline
 62
8
  6
HIDDEN
 70
0
 71
3
 72
9
 73
5
 74
0
 42
0.0000001
 43
0.0000001
 44
0.0000000001
 40
0.0
 40
0.0
 40
0.0
 40
0.0
 40
0.5251157286
 40
1.0
 40
1.0
 40
1.0
 40
1.0
 10
67.3466071745
 20
106.7615976805
 30
0.0
 10
67.3386432079
 20
106.7732144038
 30
0.0
 10
67.3193231454
 20
106.7935296339
 30
0.0
 10
67.2918796089
 20
106.8004104613
 30
0.0
 10
67.279142777
 20
106.8005076709
 30
0.0
  0
SPLINE
  5
40B
100
AcDbEntity
  8
DEFAULT_2
100
AcDbSpline
 62
8
  6
HIDDEN
 70
0
 71
3
 72
14
 73
10
 74
0
 42
0.0000001
 43
0.0000001
 44
0.0000000001
 40
0.0
 40
0.0
 40
0.0
 40
0.0
 40
0.3699130223
 40
0.5337813848
 40
0.6747924682
 40
0.7867465766
 40
0.86926824
 40
0.9342567988
 40
1.0
 40
1.0
 40
1.0
 40
1.0
 10
67.2160410342
 20
107.3539803026
 30
0.0
 10
67.1760510506
 20
107.2787792894
 30
0.0
 10
67.1197973704
 20
107.1693219516
 30
0.0
 10
67.0608119972
 20
107.0254458486
 30
0.0
 10
67.0327092007
 20
106.9334560539
 30
0.0
 10
67.0209588962
 20
106.8567068916
 30
0.0
 10
67.0299295331
 20
106.7957952059
 30
0.0
 10
67.063378948
 20
106.7555908956
 30
0.0
 10
67.0948448544
 20
106.7491405538
 30
0.0
 10
67.1099819564
 20
106.7490432537
 30
0.0
  0
SPLINE
  5
40C
100
AcDbEntity
  8
DEFAULT_2
100
AcDbSpline
 62
8
  6
HIDDEN
 70
0
 71
3
 72
21
 73
17
 74
0
 42
0.0000001
 43
0.0000001
 44
0.0000000001
 40
0.0
 40
0.0
 40
0.0
 40
0.0
 40
0.0012682531
 40
0.0050444688
 40
0.0112858327
 40
0.0199495359
 40
0.0443727477
 40
0.0779717416
 40
0.1204042326
 40
0.1712653136
 40
0.2299438463
 40
0.2957867
 40
0.4463552272
 40
0.6176886778
 40
0.8041513214
 40
1.0
 40
1.0
 40
1.0
 40
1.0
 10
67.3868846136
 20
103.2037704455
 30
0.0
 10
67.387037847
 20
103.203826045
 30
0.0
 10
67.3862310436
 20
103.2046396215
 30
0.0
 10
67.3861388089
 20
103.2057422466
 30
0.0
 10
67.3848451794
 20
103.2080433916
 30
0.0
 10
67.3828975774
 20
103.2125598797
 30
0.0
 10
67.3791654252
 20
103.2203885928
 30
0.0
 10
67.3737735923
 20
103.2320676846
 30
0.0
 10
67.3668382847
 20
103.2468493332
 30
0.0
 10
67.3585334405
 20
103.2645218045
 30
0.0
 10
67.3488826076
 20
103.2848957183
 30
0.0
 10
67.3336480076
 20
103.31680164
 30
0.0
 10
67.3119137113
 20
103.3616507313
 30
0.0
 10
67.282885047
 20
103.4201893757
 30
0.0
 10
67.2506341831
 20
103.4836228281
 30
0.0
 10
67.2278598995
 20
103.527166789
 30
0.0
 10
67.2160410342
 20
103.5493921206
 30
0.0
  0
SPLINE
  5
40D
100
AcDbEntity
  8
DEFAULT_2
100
AcDbSpline
 62
8
  6
HIDDEN
 70
0
 71
3
 72
21
 73
17
 74
0
 42
0.0000001
 43
0.0000001
 44
0.0000000001
 40
0.0
 40
0.0
 40
0.0
 40
0.0
 40
0.0012141761
 40
0.0048337895
 40
0.0108244703
 40
0.0191518484
 40
0.0426792176
 40
0.0751409395
 40
0.1162620578
 40
0.1657533444
 40
0.2231645761
 40
0.2879439604
 40
0.4373936739
 40
0.609596116
 40
0.7991324087
 40
1.0
 40
1.0
 40
1.0
 40
1.0
 10
69.3880497853
 20
103.2037704455
 30
0.0
 10
69.388178907
 20
103.2038404338
 30
0.0
 10
69.3875760101
 20
103.2045659485
 30
0.0
 10
69.3875790383
 20
103.2056493542
 30
0.0
 10
69.3866835228
 20
103.2078051369
 30
0.0
 10
69.3854125369
 20
103.2121063973
 30
0.0
 10
69.3829207243
 20
103.2195498824
 30
0.0
 10
69.3793602497
 20
103.2307096532
 30
0.0
 10
69.3747724522
 20
103.2448856622
 30
0.0
 10
69.3692868903
 20
103.2619253525
 30
0.0
 10
69.3629206509
 20
103.2816941296
 30
0.0
 10
69.3528629457
 20
103.312974683
 30
0.0
 10
69.3385805572
 20
103.3574834253
 30
0.0
 10
69.3197450629
 20
103.4163794365
 30
0.0
 10
69.2990795928
 20
103.4812203222
 30
0.0
 10
69.2847869576
 20
103.5262298121
 30
0.0
 10
69.2774470109
 20
103.5493921206
 30
0.0
  0
SPLINE
  5
40E
100
AcDbEntity
  8
DEFAULT_2
100
AcDbSpline
 62
8
  6
HIDDEN
 70
0
 71
3
 72
16
 73
12
 74
0
 42
0.0000001
 43
0.0000001
 44
0.0000000001
 40
0.0
 40
0.0
 40
0.0
 40
0.0
 40
0.3903798778
 40
0.5625679587
 40
0.7120202214
 40
0.8342206316
 40
0.9248405847
 40
0.9573082391
 40
0.9808415988
 40
0.9951643057
 40
1.0
 40
1.0
 40
1.0
 40
1.0
 10
69.2774470109
 20
107.3539803026
 30
0.0
 10
69.2917119668
 20
107.3989955216
 30
0.0
 10
69.3123444437
 20
107.463842504
 30
0.0
 10
69.3385731105
 20
107.5458784014
 30
0.0
 10
69.3549926078
 20
107.5969966537
 30
0.0
 10
69.3683704309
 20
107.638719238
 30
0.0
 10
69.3775693957
 20
107.6669432982
 30
0.0
 10
69.3828848297
 20
107.6838431435
 30
0.0
 10
69.3857229494
 20
107.6919014499
 30
0.0
 10
69.3869100049
 20
107.6968806563
 30
0.0
 10
69.3880437586
 20
107.6990170704
 30
0.0
 10
69.3880497853
 20
107.6996019777
 30
0.0
  0
SPLINE
  5
40F
100
AcDbEntity
  8
DEFAULT_2
100
AcDbSpline
 62
8
  6
HIDDEN
 70
0
 71
3
 72
9
 73
5
 74
0
 42
0.0000001
 43
0.0000001
 44
0.0000000001
 40
0.0
 40
0.0
 40
0.0
 40
0.0
 40
0.4748835616
 40
1.0
 40
1.0
 40
1.0
 40
1.0
 10
67.2791432715
 20
104.1028647952
 30
0.0
 10
67.2918801516
 20
104.1029620845
 30
0.0
 10
67.3193237852
 20
104.1098431626
 30
0.0
 10
67.3386437925
 20
104.1301586495
 30
0.0
 10
67.346607726
 20
104.1417755094
 30
0.0
  0
SPLINE
  5
410
100
AcDbEntity
  8
DEFAULT_2
100
AcDbSpline
 62
8
  6
HIDDEN
 70
0
 71
3
 72
10
 73
6
 74
0
 42
0.0000001
 43
0.0000001
 44
0.0000000001
 40
0.0
 40
0.0
 40
0.0
 40
0.0
 40
0.1759675249
 40
0.5096974143
 40
1.0
 40
1.0
 40
1.0
 40
1.0
 10
69.3157699621
 20
104.1028082591
 30
0.0
 10
69.3219294106
 20
104.1027889759
 30
0.0
 10
69.3400295529
 20
104.1082890063
 30
0.0
 10
69.3614516893
 20
104.138473915
 30
0.0
 10
69.3700559188
 20
104.1659196982
 30
0.0
 10
69.3740786388
 20
104.1826038953
 30
0.0
  0
SPLINE
  5
411
100
AcDbEntity
  8
DEFAULT_2
100
AcDbSpline
 62
8
  6
HIDDEN
 70
0
 71
3
 72
9
 73
5
 74
0
 42
0.0000001
 43
0.0000001
 44
0.0000000001
 40
0.0
 40
0.0
 40
0.0
 40
0.0
 40
0.4524876711
 40
1.0
 40
1.0
 40
1.0
 40
1.0
 10
69.3740786388
 20
104.1826038953
 30
0.0
 10
69.3792411502
 20
104.204015368
 30
0.0
 10
69.3861469609
 20
104.2523900756
 30
0.0
 10
69.3880497666
 20
104.30107788
 30
0.0
 10
69.388049766
 20
104.327728296
 30
0.0
  0
SPLINE
  5
412
100
AcDbEntity
  8
DEFAULT_2
100
AcDbSpline
 62
8
  6
HIDDEN
 70
0
 71
3
 72
13
 73
9
 74
0
 42
0.0000001
 43
0.0000001
 44
0.0000000001
 40
0.0
 40
0.0
 40
0.0
 40
0.0
 40
0.3823170072
 40
0.7042352416
 40
0.8287639021
 40
0.9220602524
 40
0.9800639013
 40
1.0
 40
1.0
 40
1.0
 40
1.0
 10
67.2160410342
 20
107.3539803026
 30
0.0
 10
67.2391124579
 20
107.3973660278
 30
0.0
 10
67.2805988436
 20
107.4778245057
 30
0.0
 10
67.3274204329
 20
107.5735104256
 30
0.0
 10
67.3573530234
 20
107.6360878452
 30
0.0
 10
67.3721531072
 20
107.6683162947
 30
0.0
 10
67.3819108851
 20
107.6880261465
 30
0.0
 10
67.3856034334
 20
107.6973829085
 30
0.0
 10
67.3868846135
 20
107.6996019777
 30
0.0
  0
SPLINE
  5
413
100
AcDbEntity
  8
DEFAULT_2
100
AcDbSpline
 62
8
  6
HIDDEN
 70
0
 71
3
 72
9
 73
5
 74
0
 42
0.0000001
 43
0.0000001
 44
0.0000000001
 40
0.0
 40
0.0
 40
0.0
 40
0.0
 40
0.4641848869
 40
1.0
 40
1.0
 40
1.0
 40
1.0
 10
69.2181072479
 20
106.7491432758
 30
0.0
 10
69.2120426179
 20
106.7491279088
 30
0.0
 10
69.1985538269
 20
106.7532606009
 30
0.0
 10
69.1906455758
 20
106.764560137
 30
0.0
 10
69.1874631998
 20
106.7707954895
 30
0.0
  0
SPLINE
  5
414
100
AcDbEntity
  8
DEFAULT_2
100
AcDbSpline
 62
8
  6
HIDDEN
 70
0
 71
3
 72
9
 73
5
 74
0
 42
0.0000001
 43
0.0000001
 44
0.0000000001
 40
0.0
 40
0.0
 40
0.0
 40
0.0
 40
0.418384545
 40
1.0
 40
1.0
 40
1.0
 40
1.0
 10
69.1874631998
 20
106.7707954895
 30
0.0
 10
69.1820779358
 20
106.7813470461
 30
0.0
 10
69.1752695809
 20
106.8094004216
 30
0.0
 10
69.1738972398
 20
106.8376756294
 30
0.0
 10
69.1738796244
 20
106.8541437956
 30
0.0
  0
SPLINE
  5
415
100
AcDbEntity
  8
DEFAULT_2
100
AcDbSpline
 62
8
  6
HIDDEN
 70
0
 71
3
 72
10
 73
6
 74
0
 42
0.0000001
 43
0.0000001
 44
0.0000000001
 40
0.0
 40
0.0
 40
0.0
 40
0.0
 40
0.1865243022
 40
0.4230577366
 40
1.0
 40
1.0
 40
1.0
 40
1.0
 10
69.1738796244
 20
106.8541437956
 30
0.0
 10
69.1738455849
 20
106.8859665356
 30
0.0
 10
69.1803557812
 20
106.9580916455
 30
0.0
 10
69.2103957512
 20
107.1260930621
 30
0.0
 10
69.2477121105
 20
107.2601473412
 30
0.0
 10
69.2774470109
 20
107.3539803026
 30
0.0
  0
SPLINE
  5
416
100
AcDbEntity
  8
0
100
AcDbSpline
 62
7
  6
CONTINUOUS
 70
0
 71
3
 72
15
 73
11
 74
0
 42
0.0000001
 43
0.0000001
 44
0.0000000001
 40
0.0
 40
0.0
 40
0.0
 40
0.0
 40
0.1250245363
 40
0.2500293709
 40
0.3750074733
 40
0.4999666607
 40
0.6249397407
 40
0.7499416157
 40
0.8749633898
 40
1.0
 40
1.0
 40
1.0
 40
1.0
 10
73.1492171611
 20
98.4507627765
 30
0.0
 10
73.0608969556
 20
98.6150866841
 30
0.0
 10
72.8966474493
 20
98.9507015283
 30
0.0
 10
72.7057752733
 20
99.4782644455
 30
0.0
 10
72.5949928539
 20
100.0293971287
 30
0.0
 10
72.5870559992
 20
100.592216398
 30
0.0
 10
72.6839999901
 20
101.1461078836
 30
0.0
 10
72.8648631282
 20
101.6773630656
 30
0.0
 10
73.1044023991
 20
102.1840486785
 30
0.0
 10
73.2905230645
 20
102.5077999201
 30
0.0
 10
73.3880497633
 20
102.6668535921
 30
0.0
  0
SPLINE
  5
417
100
AcDbEntity
  8
0
100
AcDbSpline
 62
7
  6
CONTINUOUS
 70
0
 71
3
 72
9
 73
5
 74
0
 42
0.0000001
 43
0.0000001
 44
0.0000000001
 40
0.0
 40
0.0
 40
0.0
 40
0.0
 40
0.5009299054
 40
1.0
 40
1.0
 40
1.0
 40
1.0
 10
73.1490474197
 20
100.6016862116
 30
0.0
 10
73.1602019608
 20
100.7597041133
 30
0.0
 10
73.2153766992
 20
101.073448361
 30
0.0
 10
73.3242618379
 20
101.3717350011
 30
0.0
 10
73.3880497633
 20
101.5160928658
 30
0.0
  0
SPLINE
  5
418
100
AcDbEntity
  8
0
100
AcDbSpline
 62
7
  6
CONTINUOUS
 70
0
 71
3
 72
9
 73
5
 74
0
 42
0.0000001
 43
0.0000001
 44
0.0000000001
 40
0.0
 40
0.0
 40
0.0
 40
0.0
 40
0.4990716142
 40
1.0
 40
1.0
 40
1.0
 40
1.0
 10
73.3880497633
 20
99.1872795574
 30
0.0
 10
73.3242616443
 20
99.3316378601
 30
0.0
 10
73.2153766895
 20
99.6299245714
 30
0.0
 10
73.1602019269
 20
99.9436687908
 30
0.0
 10
73.1490474197
 20
100.1016862116
 30
0.0
  0
SPLINE
  5
419
100
AcDbEntity
  8
A_RUNDUNGEN
100
AcDbSpline
 62
7
  6
CONTINUOUS
 70
0
 71
3
 72
12
 73
8
 74
0
 42
0.0000001
 43
0.0000001
 44
0.0000000001
 40
0.0
 40
0.0
 40
0.0
 40
0.0
 40
0.3016107602
 40
0.5768876566
 40
0.8129482285
 40
0.9127827061
 40
1.0
 40
1.0
 40
1.0
 40
1.0
 10
77.5510341148
 20
59.2251714908
 30
0.0
 10
77.6543537239
 20
59.1756830069
 30
0.0
 10
77.8532652326
 20
59.0834920111
 30
0.0
 10
78.1397247099
 20
58.968316231
 30
0.0
 10
78.363585489
 20
58.9022515854
 30
0.0
 10
78.5236957452
 20
58.8841785749
 30
0.0
 10
78.5953279801
 20
58.8889601346
 30
0.0
 10
78.6277202101
 20
58.8959013268
 30
0.0
  0
SPLINE
  5
41A
100
AcDbEntity
  8
A_RUNDUNGEN
100
AcDbSpline
 62
7
  6
CONTINUOUS
 70
0
 71
3
 72
14
 73
10
 74
0
 42
0.0000001
 43
0.0000001
 44
0.0000000001
 40
0.0
 40
0.0
 40
0.0
 40
0.0
 40
0.3820312629
 40
0.5547774445
 40
0.7063658421
 40
0.831008064
 40
0.9236945867
 40
0.9807312587
 40
1.0
 40
1.0
 40
1.0
 40
1.0
 10
85.7908359492
 20
61.4516862469
 30
0.0
 10
85.8043149082
 20
61.3244450839
 30
0.0
 10
85.8235943923
 20
61.1396369858
 30
0.0
 10
85.8474865375
 20
60.9042639699
 30
0.0
 10
85.8622435745
 20
60.7546154584
 30
0.0
 10
85.8740281224
 20
60.6316151569
 30
0.0
 10
85.8825945638
 20
60.5401287682
 30
0.0
 10
85.8869491278
 20
60.4836787478
 30
0.0
 10
85.8878937991
 20
60.4581393039
 30
0.0
 10
85.88804977
 20
60.4516862471
 30
0.0
  0
ENDSEC
  0
SECTION
  2
OBJECTS
  0
DICTIONARY
  5
41B
100
AcDbDictionary
  3
ACAD_GROUP
350
41C
  3
ACAD_MLINESTYLE
350
41D
  0
DICTIONARY
  5
41C
102
{ACAD_REACTORS
330
41B
102
}
100
AcDbDictionary
  0
DICTIONARY
  5
41D
102
{ACAD_REACTORS
330
41B
102
}
100
AcDbDictionary
  3
STANDARD
350
41E
  0
MLINESTYLE
  5
41E
102
{ACAD_REACTORS
330
41D
102
}
100
AcDbMlineStyle
  2
STANDARD
 70
0
  3

 62
256
 51
90.0
 52
90.0
 71
2
 49
0.5
 62
256
  6
BYLAYER
 49
-0.5
 62
256
  6
BYLAYER
  0
ENDSEC
  0
EOF
