999
DXF file: d:\tmp\workingDir\0000062579\te_680_3d_fd_q04_01.dxf
999
Pro/ENGINEER 2016380 by Parametric Technology Corporation
  0
SECTION
  2
HEADER
  9
$ACADVER
  1
AC1014
  9
$DWGCODEPAGE
  3
ANSI_1252
  9
$EXTMAX
 10
199.898
 20
200.0
 30
0.0
  9
$EXTMIN
 10
0.0
 20
0.0
 30
0.0
  9
$LIMMIN
 10
0.0
 20
0.0
  9
$LIMMAX
 10
199.898
 20
200.0
  9
$VIEWCTR
 10
99.949
 20
100.0
  9
$VIEWSIZE
 40
200.0
  9
$CLAYER
  8
0
  9
$LTSCALE
 40
13.037037037
  9
$CELTYPE
  6
BYLAYER
  9
$DIMSCALE
 40
1.0
  9
$DIMASZ
 40
3.5
  9
$DIMEXO
 40
0.0
  9
$DIMDLI
 40
9.0074074074
  9
$DIMEXE
 40
2.0
  9
$DIMCEN
 40
2.1333333333
  9
$DIMLFAC
 40
1.0
  9
$DIMBLK
  1
_ARROW_FILLED
  9
$DIMALT
 70
0
  9
$DIMALTF
 40
25.4
  9
$DIMTXT
 40
3.5
  9
$DIMTOL
 70
1
  9
$DIMLIM
 70
0
  9
$DIMTFAC
 40
1.0
  9
$DIMTP
 40
0.01
  9
$DIMTM
 40
0.01
  9
$DIMGAP
 40
0.625
  9
$AUNITS
 70
0
  9
$PDMODE
 70
0
  9
$PDSIZE
 40
0.04
  9
$HANDSEED
  5
41F
  9
$TILEMODE
 70
1
  9
$MEASUREMENT
 70
1
  0
ENDSEC
  0
SECTION
  2
CLASSES
  0
ENDSEC
  0
SECTION
  2
TABLES
  0
TABLE
  2
VPORT
  5
8
100
AcDbSymbolTable
 70
2
  0
VPORT
  5
1F4
100
AcDbSymbolTableRecord
100
AcDbViewportTableRecord
  2
*ACTIVE
 70
0
 10
0.0
 20
0.0
 11
1.0
 21
1.0
 12
99.949
 22
100.0
 13
0.0
 23
0.0
 14
1.0
 24
1.0
 15
0.0
 25
0.0
 16
0.0
 26
0.0
 36
1.0
 17
0.0
 27
0.0
 37
0.0
 40
200.0
 41
0.99949
 42
50.0
 43
0.0
 44
0.0
 50
0.0
 51
0.0
 71
0
 72
100
 73
1
 74
1
 75
0
 76
0
 77
0
 78
0
  0
ENDTAB
  0
TABLE
  2
LTYPE
  5
5
100
AcDbSymbolTable
 70
6
  0
LTYPE
  5
14
100
AcDbSymbolTableRecord
100
AcDbLinetypeTableRecord
  2
BYBLOCK
 70
0
  3

 72
65
 73
0
 40
0.0
  0
LTYPE
  5
15
100
AcDbSymbolTableRecord
100
AcDbLinetypeTableRecord
  2
BYLAYER
 70
0
  3

 72
65
 73
0
 40
0.0
  0
LTYPE
  5
16
100
AcDbSymbolTableRecord
100
AcDbLinetypeTableRecord
  2
CONTINUOUS
 70
64
  3
Solid line
 72
65
 73
0
 40
0.0
  0
LTYPE
  5
1F5
100
AcDbSymbolTableRecord
100
AcDbLinetypeTableRecord
  2
CENTER
 70
64
  3
____ _ ____ _ ____ _ ____ _ ____ _ ____ _ ____
 72
65
 73
4
 40
0.6
 49
0.375
 74
0
 49
-0.075
 74
0
 49
0.075
 74
0
 49
-0.075
 74
0
  0
LTYPE
  5
1F6
100
AcDbSymbolTableRecord
100
AcDbLinetypeTableRecord
  2
HIDDEN
 70
64
  3
- - - - - - - - - - - - - - - - - - - -
 72
65
 73
2
 40
0.2
 49
0.1
 74
0
 49
-0.1
 74
0
  0
LTYPE
  5
1F7
100
AcDbSymbolTableRecord
100
AcDbLinetypeTableRecord
  2
PHANTOM
 70
64
  3
_____ _ _ _____ _ _ _____ _ _ _____
 72
65
 73
6
 40
0.8
 49
0.45
 74
0
 49
-0.05
 74
0
 49
0.1
 74
0
 49
-0.05
 74
0
 49
0.1
 74
0
 49
-0.05
 74
0
  0
LTYPE
  5
1F8
100
AcDbSymbolTableRecord
100
AcDbLinetypeTableRecord
  2
DOT
 70
64
  3
. . . . . . . . . . . . . . . . . . . .
 72
65
 73
2
 40
0.2
 49
0.1
 74
0
 49
-0.1
 74
0
  0
LTYPE
  5
1F9
100
AcDbSymbolTableRecord
100
AcDbLinetypeTableRecord
  2
DASHED
 70
64
  3
- - - - - - - - - - - - - - - - - - - -
 72
65
 73
2
 40
0.2
 49
0.1
 74
0
 49
-0.1
 74
0
  0
ENDTAB
  0
TABLE
  2
LAYER
  5
2
100
AcDbSymbolTable
 70
36
  0
LAYER
  5
10
100
AcDbSymbolTableRecord
100
AcDbLayerTableRecord
  2
0
 70
0
 62
7
  6
CONTINUOUS
  0
LAYER
  5
1FA
100
AcDbSymbolTableRecord
100
AcDbLayerTableRecord
  2
DEFAULT_1
 70
0
 62
7
  6
CENTER
  0
LAYER
  5
1FB
100
AcDbSymbolTableRecord
100
AcDbLayerTableRecord
  2
DEFAULT_2
 70
0
 62
8
  6
HIDDEN
  0
LAYER
  5
1FC
100
AcDbSymbolTableRecord
100
AcDbLayerTableRecord
  2
DEFAULT_3
 70
0
 62
7
  6
PHANTOM
  0
LAYER
  5
1FD
100
AcDbSymbolTableRecord
100
AcDbLayerTableRecord
  2
A_ACHSEN
 70
0
 62
7
  6
CONTINUOUS
  0
LAYER
  5
1FE
100
AcDbSymbolTableRecord
100
AcDbLayerTableRecord
  2
A_BASISEBENEN
 70
0
 62
7
  6
CONTINUOUS
  0
LAYER
  5
1FF
100
AcDbSymbolTableRecord
100
AcDbLayerTableRecord
  2
A_BEMASSUNGEN
 70
0
 62
7
  6
CONTINUOUS
  0
LAYER
  5
200
100
AcDbSymbolTableRecord
100
AcDbLayerTableRecord
  2
A_BOHRUNGEN
 70
0
 62
7
  6
CONTINUOUS
  0
LAYER
  5
201
100
AcDbSymbolTableRecord
100
AcDbLayerTableRecord
  2
A_EBENEN
 70
0
 62
7
  6
CONTINUOUS
  0
LAYER
  5
202
100
AcDbSymbolTableRecord
100
AcDbLayerTableRecord
  2
A_FASEN
 70
0
 62
7
  6
CONTINUOUS
  0
LAYER
  5
203
100
AcDbSymbolTableRecord
100
AcDbLayerTableRecord
  2
A_FLAECHEN
 70
0
 62
7
  6
CONTINUOUS
  0
LAYER
  5
204
100
AcDbSymbolTableRecord
100
AcDbLayerTableRecord
  2
A_FL_VERBAENDE
 70
0
 62
7
  6
CONTINUOUS
  0
LAYER
  5
205
100
AcDbSymbolTableRecord
100
AcDbLayerTableRecord
  2
A_KURVEN
 70
0
 62
7
  6
CONTINUOUS
  0
LAYER
  5
206
100
AcDbSymbolTableRecord
100
AcDbLayerTableRecord
  2
A_NOTIZEN_SYMB
 70
0
 62
7
  6
CONTINUOUS
  0
LAYER
  5
207
100
AcDbSymbolTableRecord
100
AcDbLayerTableRecord
  2
A_PUNKTE
 70
0
 62
7
  6
CONTINUOUS
  0
LAYER
  5
208
100
AcDbSymbolTableRecord
100
AcDbLayerTableRecord
  2
A_RUNDUNGEN
 70
0
 62
7
  6
CONTINUOUS
  0
LAYER
  5
209
100
AcDbSymbolTableRecord
100
AcDbLayerTableRecord
  2
BASISEBENEN
 70
0
 62
7
  6
CONTINUOUS
  0
LAYER
  5
20A
100
AcDbSymbolTableRecord
100
AcDbLayerTableRecord
  2
GRUNDEBENE
 70
0
 62
7
  6
CONTINUOUS
  0
LAYER
  5
20B
100
AcDbSymbolTableRecord
100
AcDbLayerTableRecord
  2
IMPORT_KE
 70
0
 62
7
  6
CONTINUOUS
  0
LAYER
  5
20C
100
AcDbSymbolTableRecord
100
AcDbLayerTableRecord
  2
INTFCLR_3
 70
0
 62
7
  6
CONTINUOUS
  0
LAYER
  5
20D
100
AcDbSymbolTableRecord
100
AcDbLayerTableRecord
  2
INTF_1
 70
0
 62
7
  6
CONTINUOUS
  0
LAYER
  5
20E
100
AcDbSymbolTableRecord
100
AcDbLayerTableRecord
  2
INTF_2
 70
0
 62
7
  6
CONTINUOUS
  0
LAYER
  5
20F
100
AcDbSymbolTableRecord
100
AcDbLayerTableRecord
  2
INTF_3
 70
0
 62
7
  6
CONTINUOUS
  0
LAYER
  5
210
100
AcDbSymbolTableRecord
100
AcDbLayerTableRecord
  2
INTF_4
 70
0
 62
7
  6
CONTINUOUS
  0
LAYER
  5
211
100
AcDbSymbolTableRecord
100
AcDbLayerTableRecord
  2
INTF_MAGENTA
 70
0
 62
7
  6
CONTINUOUS
  0
LAYER
  5
212
100
AcDbSymbolTableRecord
100
AcDbLayerTableRecord
  2
INTF_YELLOW
 70
0
 62
7
  6
CONTINUOUS
  0
LAYER
  5
213
100
AcDbSymbolTableRecord
100
AcDbLayerTableRecord
  2
PROFIL
 70
0
 62
7
  6
CONTINUOUS
  0
LAYER
  5
214
100
AcDbSymbolTableRecord
100
AcDbLayerTableRecord
  2
QUER1
 70
0
 62
7
  6
CONTINUOUS
  0
LAYER
  5
215
100
AcDbSymbolTableRecord
100
AcDbLayerTableRecord
  2
QUER2
 70
0
 62
7
  6
CONTINUOUS
  0
LAYER
  5
216
100
AcDbSymbolTableRecord
100
AcDbLayerTableRecord
  2
QUER3
 70
0
 62
7
  6
CONTINUOUS
  0
LAYER
  5
217
100
AcDbSymbolTableRecord
100
AcDbLayerTableRecord
  2
SCHRAFFUR
 70
0
 62
7
  6
CONTINUOUS
  0
ENDTAB
  0
TABLE
  2
STYLE
  5
3
100
AcDbSymbolTable
 70
1
  0
STYLE
  5
11
100
AcDbSymbolTableRecord
100
AcDbTextStyleTableRecord
  2
STANDARD
 70
0
 40
0.0
 41
1.0
 50
0.0
 71
0
 42
0.2
  3
txt
  4

  0
STYLE
  5
218
100
AcDbSymbolTableRecord
100
AcDbTextStyleTableRecord
  2
TEXTSTYLE_1
 70
0
 40
0.0
 41
0.8
 50
0.0
 71
0
 42
0.2
  3
gdt
  4

  0
STYLE
  5
219
100
AcDbSymbolTableRecord
100
AcDbTextStyleTableRecord
  2
TEXTSTYLE_2
 70
0
 40
0.0
 41
1.0
 50
0.0
 71
0
 42
0.2
  3
txt
  4

  0
ENDTAB
  0
TABLE
  2
VIEW
  5
6
100
AcDbSymbolTable
 70
0
  0
ENDTAB
  0
TABLE
  2
UCS
  5
7
100
AcDbSymbolTable
 70
0
  0
ENDTAB
  0
TABLE
  2
APPID
  5
9
100
AcDbSymbolTable
 70
1
  0
APPID
  5
21A
100
AcDbSymbolTableRecord
100
AcDbRegAppTableRecord
  2
ACAD
 70
0
  0
ENDTAB
  0
TABLE
  2
BLOCK_RECORD
  5
1
100
AcDbSymbolTable
 70
0
  0
BLOCK_RECORD
  5
1F
100
AcDbSymbolTableRecord
100
AcDbBlockTableRecord
  2
*MODEL_SPACE
  0
BLOCK_RECORD
  5
1B
100
AcDbSymbolTableRecord
100
AcDbBlockTableRecord
  2
*PAPER_SPACE
  0
BLOCK_RECORD
  5
21B
100
AcDbSymbolTableRecord
100
AcDbBlockTableRecord
  2
_ARROW_FILLED
  0
BLOCK_RECORD
  5
21C
100
AcDbSymbolTableRecord
100
AcDbBlockTableRecord
  2
*D0
  0
BLOCK_RECORD
  5
21D
100
AcDbSymbolTableRecord
100
AcDbBlockTableRecord
  2
*D1
  0
BLOCK_RECORD
  5
21E
100
AcDbSymbolTableRecord
100
AcDbBlockTableRecord
  2
*D2
  0
BLOCK_RECORD
  5
21F
100
AcDbSymbolTableRecord
100
AcDbBlockTableRecord
  2
*D3
  0
BLOCK_RECORD
  5
220
100
AcDbSymbolTableRecord
100
AcDbBlockTableRecord
  2
*D4
  0
BLOCK_RECORD
  5
221
100
AcDbSymbolTableRecord
100
AcDbBlockTableRecord
  2
*D5
  0
BLOCK_RECORD
  5
222
100
AcDbSymbolTableRecord
100
AcDbBlockTableRecord
  2
*D6
  0
BLOCK_RECORD
  5
223
100
AcDbSymbolTableRecord
100
AcDbBlockTableRecord
  2
*D7
  0
BLOCK_RECORD
  5
224
100
AcDbSymbolTableRecord
100
AcDbBlockTableRecord
  2
*D8
  0
BLOCK_RECORD
  5
225
100
AcDbSymbolTableRecord
100
AcDbBlockTableRecord
  2
*D9
  0
ENDTAB
  0
TABLE
  2
DIMSTYLE
  5
A
100
AcDbSymbolTable
 70
1
  0
DIMSTYLE
105
226
100
AcDbSymbolTableRecord
100
AcDbDimStyleTableRecord
  2
STANDARD
 70
0
  3

  4

  5
_ARROW_FILLED
  6
_ARROW_FILLED
  7
_ARROW_FILLED
 40
1.0
 41
3.5
 42
0.0
 43
0.38
 44
2.0
 45
0.0
 46
0.0
 47
0.01
 48
0.01
140
3.5
141
0.09
142
0.0
143
25.4
144
1.0
145
0.0
146
1.0
147
0.625
 71
1.0
 72
0.0
 73
0
 74
0
 75
0
 76
0
 77
1
 78
8
170
0
171
1
172
0
173
0
174
0
175
0
176
0
177
0
178
5
270
2
271
2
272
2
273
2
274
2
275
0
280
0
281
0
282
0
283
1
284
8
285
0
286
0
287
3
288
0
340
11
  0
DIMSTYLE
105
227
100
AcDbSymbolTableRecord
100
AcDbDimStyleTableRecord
  2
DIMSTYLE_1
 70
0
  3

  4

  5
_ARROW_FILLED
  6
_ARROW_FILLED
  7
_ARROW_FILLED
 40
1.0
 41
3.5
 42
0.0
 43
0.38
 44
2.0
 45
0.0
 46
0.0
 47
0.1
 48
0.1
140
3.5
141
0.09
142
0.0
143
25.4
144
1.0
145
0.0
146
1.0
147
0.875
 71
0.0
 72
0.0
 73
0
 74
0
 75
0
 76
0
 77
1
 78
8
170
0
171
1
172
0
173
0
174
0
175
0
176
0
177
0
178
5
270
2
271
4
272
-1
273
2
274
2
275
0
280
0
281
0
282
0
283
1
284
8
285
0
286
0
287
3
288
0
340
219
  0
DIMSTYLE
105
228
100
AcDbSymbolTableRecord
100
AcDbDimStyleTableRecord
  2
DIMSTYLE_2
 70
0
  3

  4

  5
_ARROW_FILLED
  6
_ARROW_FILLED
  7
_ARROW_FILLED
 40
1.0
 41
3.5
 42
0.0
 43
0.38
 44
2.0
 45
0.0
 46
0.0
 47
0.3
 48
0.3
140
3.5
141
0.09
142
0.0
143
25.4
144
1.0
145
0.0
146
1.0
147
0.875
 71
0.0
 72
0.0
 73
0
 74
0
 75
0
 76
0
 77
1
 78
8
170
0
171
1
172
0
173
0
174
0
175
0
176
0
177
0
178
5
270
2
271
4
272
-1
273
2
274
2
275
0
280
0
281
0
282
0
283
1
284
8
285
0
286
0
287
3
288
0
340
219
  0
DIMSTYLE
105
229
100
AcDbSymbolTableRecord
100
AcDbDimStyleTableRecord
  2
DIMSTYLE_3
 70
0
  3

  4

  5
_ARROW_FILLED
  6
_ARROW_FILLED
  7
_ARROW_FILLED
 40
1.0
 41
3.5
 42
0.0
 43
0.38
 44
2.0
 45
0.0
 46
0.0
 47
0.1
 48
0.1
140
3.5
141
0.09
142
0.0
143
25.4
144
1.0
145
0.0
146
1.0
147
0.875
 71
0.0
 72
0.0
 73
0
 74
0
 75
0
 76
0
 77
1
 78
8
170
0
171
1
172
0
173
0
174
0
175
0
176
0
177
0
178
5
270
2
271
2
272
-1
273
2
274
2
275
0
280
0
281
0
282
0
283
1
284
8
285
0
286
0
287
3
288
0
340
219
  0
DIMSTYLE
105
22A
100
AcDbSymbolTableRecord
100
AcDbDimStyleTableRecord
  2
DIMSTYLE_4
 70
0
  3

  4

  5
_ARROW_FILLED
  6
_ARROW_FILLED
  7
_ARROW_FILLED
 40
1.0
 41
3.5
 42
0.0
 43
0.38
 44
2.0
 45
0.0
 46
0.0
 47
0.2
 48
0.2
140
3.5
141
0.09
142
0.0
143
25.4
144
1.0
145
0.0
146
1.0
147
0.875
 71
0.0
 72
0.0
 73
0
 74
0
 75
0
 76
0
 77
1
 78
8
170
0
171
1
172
0
173
0
174
0
175
0
176
0
177
0
178
5
270
2
271
3
272
-1
273
2
274
2
275
0
280
0
281
0
282
0
283
1
284
8
285
0
286
0
287
3
288
0
340
219
  0
DIMSTYLE
105
22B
100
AcDbSymbolTableRecord
100
AcDbDimStyleTableRecord
  2
DIMSTYLE_5
 70
0
  3

  4

  5
_ARROW_FILLED
  6
_ARROW_FILLED
  7
_ARROW_FILLED
 40
1.0
 41
3.5
 42
0.0
 43
0.38
 44
2.0
 45
0.0
 46
0.0
 47
0.2
 48
0.2
140
3.5
141
0.09
142
0.0
143
25.4
144
1.0
145
0.0
146
1.0
147
0.875
 71
0.0
 72
0.0
 73
0
 74
0
 75
0
 76
0
 77
1
 78
8
170
0
171
1
172
0
173
0
174
0
175
0
176
0
177
0
178
5
270
2
271
4
272
-1
273
2
274
2
275
0
280
0
281
0
282
0
283
1
284
8
285
0
286
0
287
3
288
0
340
219
  0
DIMSTYLE
105
22C
100
AcDbSymbolTableRecord
100
AcDbDimStyleTableRecord
  2
DIMSTYLE_6
 70
0
  3

  4

  5
_ARROW_FILLED
  6
_ARROW_FILLED
  7
_ARROW_FILLED
 40
1.0
 41
3.5
 42
0.0
 43
0.38
 44
2.0
 45
0.0
 46
0.0
 47
0.1
 48
0.1
140
3.5
141
0.09
142
0.0
143
25.4
144
1.0
145
0.0
146
1.0
147
0.875
 71
0.0
 72
0.0
 73
0
 74
0
 75
0
 76
0
 77
1
 78
8
170
0
171
1
172
0
173
0
174
0
175
0
176
0
177
0
178
5
270
2
271
1
272
-1
273
2
274
2
275
0
280
0
281
0
282
0
283
1
284
8
285
0
286
0
287
3
288
0
340
219
  0
ENDTAB
  0
ENDSEC
  0
SECTION
  2
BLOCKS
  0
BLOCK
  5
20
100
AcDbEntity
  8
0
100
AcDbBlockBegin
  2
*MODEL_SPACE
 70
0
 10
0.0
 20
0.0
 30
0.0
  3
*MODEL_SPACE
  1

  0
ENDBLK
  5
21
100
AcDbEntity
  8
0
100
AcDbBlockEnd
  0
BLOCK
  5
1C
100
AcDbEntity
  8
0
100
AcDbBlockBegin
  2
*PAPER_SPACE
 70
0
 10
0.0
 20
0.0
 30
0.0
  3
*PAPER_SPACE
  1

  0
ENDBLK
  5
1D
100
AcDbEntity
  8
0
100
AcDbBlockEnd
  0
BLOCK
  5
22D
100
AcDbEntity
  8
0
100
AcDbBlockBegin
  2
_ARROW_FILLED
 70
64
 10
0.0
 20
0.0
  3
_ARROW_FILLED
  1

  0
SOLID
  5
22E
100
AcDbEntity
  8
0
  6
BYBLOCK
 62
0
100
AcDbTrace
 10
0.0
 20
0.0
 11
-1.0
 21
0.1428571429
 12
-1.0
 22
-0.1428571429
 13
-1.0
 23
-0.1428571429
  0
ENDBLK
  5
22F
100
AcDbEntity
  8
0
  6
BYBLOCK
 62
0
100
AcDbBlockEnd
  0
BLOCK
  5
230
100
AcDbEntity
  8
A_BEMASSUNGEN
100
AcDbBlockBegin
 62
2
  6
CONTINUOUS
  2
*D0
 70
65
 10
0.0
 20
0.0
  3
*D0
  1

  0
MTEXT
  5
231
100
AcDbEntity
  8
A_BEMASSUNGEN
100
AcDbMText
 62
5
  6
CONTINUOUS
  7
TEXTSTYLE_2
 71
3
 72
1
 10
180.2564159448
 20
53.4598967783
 30
0.0
 11
0.0
 21
1.0
 31
0.0
  1
4
 40
3.5
 41
4.125
  0
LINE
  5
232
100
AcDbEntity
  8
A_BEMASSUNGEN
100
AcDbLine
 62
2
  6
CONTINUOUS
 10
166.5454145407
 20
56.6758396373
 11
186.6314159448
 21
56.6758396373
  0
LINE
  5
233
100
AcDbEntity
  8
A_BEMASSUNGEN
100
AcDbLine
 62
2
  6
CONTINUOUS
 10
101.5454145407
 20
60.6758396373
 11
186.6314159448
 21
60.6758396373
  0
LINE
  5
234
100
AcDbEntity
  8
A_BEMASSUNGEN
100
AcDbLine
 62
2
  6
CONTINUOUS
 10
184.6314159448
 20
56.6758396373
 11
184.6314159448
 21
50.7098967783
  0
LINE
  5
235
100
AcDbEntity
  8
A_BEMASSUNGEN
100
AcDbLine
 62
2
  6
CONTINUOUS
 10
184.6314159448
 20
50.7098967783
 11
184.6314159448
 21
58.6758396373
  0
LINE
  5
236
100
AcDbEntity
  8
A_BEMASSUNGEN
100
AcDbLine
 62
2
  6
CONTINUOUS
 10
184.6314159448
 20
60.6758396373
 11
184.6314159448
 21
68.1758396373
  0
LINE
  5
237
100
AcDbEntity
  8
A_BEMASSUNGEN
100
AcDbLine
 62
2
  6
CONTINUOUS
 10
184.6314159448
 20
68.1758396373
 11
184.6314159448
 21
58.6758396373
  0
INSERT
  5
238
100
AcDbEntity
  8
A_BEMASSUNGEN
100
AcDbBlockReference
 62
2
  6
CONTINUOUS
  2
_ARROW_FILLED
 10
184.6314159448
 20
56.6758396373
 41
3.5
 42
3.5
 43
3.5
 50
90.0
  0
INSERT
  5
239
100
AcDbEntity
  8
A_BEMASSUNGEN
100
AcDbBlockReference
 62
2
  6
CONTINUOUS
  2
_ARROW_FILLED
 10
184.6314159448
 20
60.6758396373
 41
3.5
 42
3.5
 43
3.5
 50
270.0
  0
ENDBLK
  5
23A
100
AcDbEntity
  8
0
  6
BYBLOCK
 62
0
100
AcDbBlockEnd
  0
BLOCK
  5
23B
100
AcDbEntity
  8
A_BEMASSUNGEN
100
AcDbBlockBegin
 62
2
  6
CONTINUOUS
  2
*D1
 70
65
 10
0.0
 20
0.0
  3
*D1
  1

  0
MTEXT
  5
23C
100
AcDbEntity
  8
A_BEMASSUNGEN
100
AcDbMText
 62
5
  6
CONTINUOUS
  7
TEXTSTYLE_2
 71
2
 72
1
 10
180.2600660786
 20
81.0258396373
 30
0.0
 11
0.0
 21
1.0
 31
0.0
  1
40.7
 40
3.5
 41
15.375
  0
LINE
  5
23D
100
AcDbEntity
  8
A_BEMASSUNGEN
100
AcDbLine
 62
2
  6
CONTINUOUS
 10
101.5454145407
 20
60.6758396373
 11
186.6350660786
 21
60.6758396373
  0
LINE
  5
23E
100
AcDbEntity
  8
A_BEMASSUNGEN
100
AcDbLine
 62
2
  6
CONTINUOUS
 10
101.5454145407
 20
101.3758396373
 11
186.6350660786
 21
101.3758396373
  0
LINE
  5
23F
100
AcDbEntity
  8
A_BEMASSUNGEN
100
AcDbLine
 62
2
  6
CONTINUOUS
 10
184.6350660786
 20
60.6758396373
 11
184.6350660786
 21
81.0258396373
  0
LINE
  5
240
100
AcDbEntity
  8
A_BEMASSUNGEN
100
AcDbLine
 62
2
  6
CONTINUOUS
 10
184.6350660786
 20
101.3758396373
 11
184.6350660786
 21
81.0258396373
  0
INSERT
  5
241
100
AcDbEntity
  8
A_BEMASSUNGEN
100
AcDbBlockReference
 62
2
  6
CONTINUOUS
  2
_ARROW_FILLED
 10
184.6350660786
 20
60.6758396373
 41
3.5
 42
3.5
 43
3.5
 50
270.0
  0
INSERT
  5
242
100
AcDbEntity
  8
A_BEMASSUNGEN
100
AcDbBlockReference
 62
2
  6
CONTINUOUS
  2
_ARROW_FILLED
 10
184.6350660786
 20
101.3758396373
 41
3.5
 42
3.5
 43
3.5
 50
90.0
  0
ENDBLK
  5
243
100
AcDbEntity
  8
0
  6
BYBLOCK
 62
0
100
AcDbBlockEnd
  0
BLOCK
  5
244
100
AcDbEntity
  8
A_BEMASSUNGEN
100
AcDbBlockBegin
 62
2
  6
CONTINUOUS
  2
*D2
 70
65
 10
0.0
 20
0.0
  3
*D2
  1

  0
MTEXT
  5
245
100
AcDbEntity
  8
A_BEMASSUNGEN
100
AcDbMText
 62
5
  6
CONTINUOUS
  7
TEXTSTYLE_2
 71
3
 72
1
 10
50.1051514319
 20
70.3196128518
 30
0.0
 11
0.0
 21
1.0
 31
0.0
  1
6
 40
3.5
 41
4.125
  0
LINE
  5
246
100
AcDbEntity
  8
A_BEMASSUNGEN
100
AcDbLine
 62
2
  6
CONTINUOUS
 10
67.0454145407
 20
74.6758396373
 11
52.4801514319
 21
74.6758396373
  0
LINE
  5
247
100
AcDbEntity
  8
A_BEMASSUNGEN
100
AcDbLine
 62
2
  6
CONTINUOUS
 10
54.4801514319
 20
80.6758396373
 11
54.4801514319
 21
88.1758396373
  0
LINE
  5
248
100
AcDbEntity
  8
A_BEMASSUNGEN
100
AcDbLine
 62
2
  6
CONTINUOUS
 10
54.4801514319
 20
88.1758396373
 11
54.4801514319
 21
77.6758396373
  0
LINE
  5
249
100
AcDbEntity
  8
A_BEMASSUNGEN
100
AcDbLine
 62
2
  6
CONTINUOUS
 10
54.4801514319
 20
74.6758396373
 11
54.4801514319
 21
67.5696128518
  0
LINE
  5
24A
100
AcDbEntity
  8
A_BEMASSUNGEN
100
AcDbLine
 62
2
  6
CONTINUOUS
 10
54.4801514319
 20
67.5696128518
 11
54.4801514319
 21
77.6758396373
  0
INSERT
  5
24B
100
AcDbEntity
  8
A_BEMASSUNGEN
100
AcDbBlockReference
 62
2
  6
CONTINUOUS
  2
_ARROW_FILLED
 10
54.4801514319
 20
80.6758396373
 41
3.5
 42
3.5
 43
3.5
 50
270.0
  0
INSERT
  5
24C
100
AcDbEntity
  8
A_BEMASSUNGEN
100
AcDbBlockReference
 62
2
  6
CONTINUOUS
  2
_ARROW_FILLED
 10
54.4801514319
 20
74.6758396373
 41
3.5
 42
3.5
 43
3.5
 50
90.0
  0
ENDBLK
  5
24D
100
AcDbEntity
  8
0
  6
BYBLOCK
 62
0
100
AcDbBlockEnd
  0
BLOCK
  5
24E
100
AcDbEntity
  8
A_BEMASSUNGEN
100
AcDbBlockBegin
 62
2
  6
CONTINUOUS
  2
*D3
 70
65
 10
0.0
 20
0.0
  3
*D3
  1

  0
MTEXT
  5
24F
100
AcDbEntity
  8
A_BEMASSUNGEN
100
AcDbMText
 62
5
  6
CONTINUOUS
  7
TEXTSTYLE_2
 71
2
 72
1
 10
40.5813349398
 20
68.6758396373
 30
0.0
 11
0.0
 21
1.0
 31
0.0
  1
24
 40
3.5
 41
8.25
  0
LINE
  5
250
100
AcDbEntity
  8
A_BEMASSUNGEN
100
AcDbLine
 62
2
  6
CONTINUOUS
 10
67.0454145407
 20
56.6758396373
 11
42.9563349398
 21
56.6758396373
  0
LINE
  5
251
100
AcDbEntity
  8
A_BEMASSUNGEN
100
AcDbLine
 62
2
  6
CONTINUOUS
 10
44.9563349398
 20
80.6758396373
 11
44.9563349398
 21
68.6758396373
  0
LINE
  5
252
100
AcDbEntity
  8
A_BEMASSUNGEN
100
AcDbLine
 62
2
  6
CONTINUOUS
 10
44.9563349398
 20
56.6758396373
 11
44.9563349398
 21
68.6758396373
  0
INSERT
  5
253
100
AcDbEntity
  8
A_BEMASSUNGEN
100
AcDbBlockReference
 62
2
  6
CONTINUOUS
  2
_ARROW_FILLED
 10
44.9563349398
 20
80.6758396373
 41
3.5
 42
3.5
 43
3.5
 50
90.0
  0
INSERT
  5
254
100
AcDbEntity
  8
A_BEMASSUNGEN
100
AcDbBlockReference
 62
2
  6
CONTINUOUS
  2
_ARROW_FILLED
 10
44.9563349398
 20
56.6758396373
 41
3.5
 42
3.5
 43
3.5
 50
270.0
  0
ENDBLK
  5
255
100
AcDbEntity
  8
0
  6
BYBLOCK
 62
0
100
AcDbBlockEnd
  0
BLOCK
  5
256
100
AcDbEntity
  8
A_BEMASSUNGEN
100
AcDbBlockBegin
 62
2
  6
CONTINUOUS
  2
*D4
 70
65
 10
0.0
 20
0.0
  3
*D4
  1

  0
MTEXT
  5
257
100
AcDbEntity
  8
A_BEMASSUNGEN
100
AcDbMText
 62
5
  6
CONTINUOUS
  7
TEXTSTYLE_2
 71
3
 72
1
 10
5.9665645899
 20
74.5507976373
 30
0.0
 11
0.0
 21
1.0
 31
0.0
  1
7
 40
3.5
 41
4.125
  0
LINE
  5
258
100
AcDbEntity
  8
A_BEMASSUNGEN
100
AcDbLine
 62
2
  6
CONTINUOUS
 10
19.0454145407
 20
80.6758396373
 11
8.3415645899
 21
80.6758396373
  0
LINE
  5
259
100
AcDbEntity
  8
A_BEMASSUNGEN
100
AcDbLine
 62
2
  6
CONTINUOUS
 10
44.0454145407
 20
87.6758396373
 11
8.3415645899
 21
87.6758396373
  0
LINE
  5
25A
100
AcDbEntity
  8
A_BEMASSUNGEN
100
AcDbLine
 62
2
  6
CONTINUOUS
 10
10.3415645899
 20
80.6758396373
 11
10.3415645899
 21
71.8007976373
  0
LINE
  5
25B
100
AcDbEntity
  8
A_BEMASSUNGEN
100
AcDbLine
 62
2
  6
CONTINUOUS
 10
10.3415645899
 20
71.8007976373
 11
10.3415645899
 21
84.1758396373
  0
LINE
  5
25C
100
AcDbEntity
  8
A_BEMASSUNGEN
100
AcDbLine
 62
2
  6
CONTINUOUS
 10
10.3415645899
 20
87.6758396373
 11
10.3415645899
 21
95.1758396373
  0
LINE
  5
25D
100
AcDbEntity
  8
A_BEMASSUNGEN
100
AcDbLine
 62
2
  6
CONTINUOUS
 10
10.3415645899
 20
95.1758396373
 11
10.3415645899
 21
84.1758396373
  0
INSERT
  5
25E
100
AcDbEntity
  8
A_BEMASSUNGEN
100
AcDbBlockReference
 62
2
  6
CONTINUOUS
  2
_ARROW_FILLED
 10
10.3415645899
 20
80.6758396373
 41
3.5
 42
3.5
 43
3.5
 50
90.0
  0
INSERT
  5
25F
100
AcDbEntity
  8
A_BEMASSUNGEN
100
AcDbBlockReference
 62
2
  6
CONTINUOUS
  2
_ARROW_FILLED
 10
10.3415645899
 20
87.6758396373
 41
3.5
 42
3.5
 43
3.5
 50
270.0
  0
ENDBLK
  5
260
100
AcDbEntity
  8
0
  6
BYBLOCK
 62
0
100
AcDbBlockEnd
  0
BLOCK
  5
261
100
AcDbEntity
  8
A_BEMASSUNGEN
100
AcDbBlockBegin
 62
2
  6
CONTINUOUS
  2
*D5
 70
65
 10
0.0
 20
0.0
  3
*D5
  1

  0
MTEXT
  5
262
100
AcDbEntity
  8
A_BEMASSUNGEN
100
AcDbMText
 62
5
  6
CONTINUOUS
  7
TEXTSTYLE_2
 71
2
 72
1
 10
5.9665645899
 20
102.6758396373
 30
0.0
 11
0.0
 21
1.0
 31
0.0
  1
30
 40
3.5
 41
7.875
  0
LINE
  5
263
100
AcDbEntity
  8
A_BEMASSUNGEN
100
AcDbLine
 62
2
  6
CONTINUOUS
 10
44.0454145407
 20
87.6758396373
 11
8.3415645899
 21
87.6758396373
  0
LINE
  5
264
100
AcDbEntity
  8
A_BEMASSUNGEN
100
AcDbLine
 62
2
  6
CONTINUOUS
 10
44.0454145407
 20
117.6758396373
 11
8.3415645899
 21
117.6758396373
  0
LINE
  5
265
100
AcDbEntity
  8
A_BEMASSUNGEN
100
AcDbLine
 62
2
  6
CONTINUOUS
 10
10.3415645899
 20
87.6758396373
 11
10.3415645899
 21
102.6758396373
  0
LINE
  5
266
100
AcDbEntity
  8
A_BEMASSUNGEN
100
AcDbLine
 62
2
  6
CONTINUOUS
 10
10.3415645899
 20
117.6758396373
 11
10.3415645899
 21
102.6758396373
  0
INSERT
  5
267
100
AcDbEntity
  8
A_BEMASSUNGEN
100
AcDbBlockReference
 62
2
  6
CONTINUOUS
  2
_ARROW_FILLED
 10
10.3415645899
 20
87.6758396373
 41
3.5
 42
3.5
 43
3.5
 50
270.0
  0
INSERT
  5
268
100
AcDbEntity
  8
A_BEMASSUNGEN
100
AcDbBlockReference
 62
2
  6
CONTINUOUS
  2
_ARROW_FILLED
 10
10.3415645899
 20
117.6758396373
 41
3.5
 42
3.5
 43
3.5
 50
90.0
  0
ENDBLK
  5
269
100
AcDbEntity
  8
0
  6
BYBLOCK
 62
0
100
AcDbBlockEnd
  0
BLOCK
  5
26A
100
AcDbEntity
  8
A_BEMASSUNGEN
100
AcDbBlockBegin
 62
2
  6
CONTINUOUS
  2
*D6
 70
65
 10
0.0
 20
0.0
  3
*D6
  1

  0
MTEXT
  5
26B
100
AcDbEntity
  8
A_BEMASSUNGEN
100
AcDbMText
 62
5
  6
CONTINUOUS
  7
TEXTSTYLE_2
 71
1
 72
1
 10
88.181753666
 20
170.2639288916
 30
0.0
 11
1.0
 21
0.0
 31
0.0
  1
5
 40
3.5
 41
3.75
  0
LINE
  5
26C
100
AcDbEntity
  8
A_BEMASSUNGEN
100
AcDbLine
 62
2
  6
CONTINUOUS
 10
82.0454145407
 20
107.6758396373
 11
82.0454145407
 21
167.8889288916
  0
LINE
  5
26D
100
AcDbEntity
  8
A_BEMASSUNGEN
100
AcDbLine
 62
2
  6
CONTINUOUS
 10
77.0454145407
 20
117.0758396373
 11
77.0454145407
 21
167.8889288916
  0
LINE
  5
26E
100
AcDbEntity
  8
A_BEMASSUNGEN
100
AcDbLine
 62
2
  6
CONTINUOUS
 10
82.0454145407
 20
165.8889288916
 11
90.681753666
 21
165.8889288916
  0
LINE
  5
26F
100
AcDbEntity
  8
A_BEMASSUNGEN
100
AcDbLine
 62
2
  6
CONTINUOUS
 10
90.681753666
 20
165.8889288916
 11
79.5454145407
 21
165.8889288916
  0
LINE
  5
270
100
AcDbEntity
  8
A_BEMASSUNGEN
100
AcDbLine
 62
2
  6
CONTINUOUS
 10
77.0454145407
 20
165.8889288916
 11
69.5454145407
 21
165.8889288916
  0
LINE
  5
271
100
AcDbEntity
  8
A_BEMASSUNGEN
100
AcDbLine
 62
2
  6
CONTINUOUS
 10
69.5454145407
 20
165.8889288916
 11
79.5454145407
 21
165.8889288916
  0
INSERT
  5
272
100
AcDbEntity
  8
A_BEMASSUNGEN
100
AcDbBlockReference
 62
2
  6
CONTINUOUS
  2
_ARROW_FILLED
 10
82.0454145407
 20
165.8889288916
 41
3.5
 42
3.5
 43
3.5
 50
180.0
  0
INSERT
  5
273
100
AcDbEntity
  8
A_BEMASSUNGEN
100
AcDbBlockReference
 62
2
  6
CONTINUOUS
  2
_ARROW_FILLED
 10
77.0454145407
 20
165.8889288916
 41
3.5
 42
3.5
 43
3.5
  0
ENDBLK
  5
274
100
AcDbEntity
  8
0
  6
BYBLOCK
 62
0
100
AcDbBlockEnd
  0
BLOCK
  5
275
100
AcDbEntity
  8
A_BEMASSUNGEN
100
AcDbBlockBegin
 62
2
  6
CONTINUOUS
  2
*D7
 70
65
 10
0.0
 20
0.0
  3
*D7
  1

  0
MTEXT
  5
276
100
AcDbEntity
  8
A_BEMASSUNGEN
100
AcDbMText
 62
5
  6
CONTINUOUS
  7
TEXTSTYLE_2
 71
2
 72
1
 10
60.5454145407
 20
170.2650386971
 30
0.0
 11
1.0
 21
0.0
 31
0.0
  1
33
 40
3.5
 41
7.5
  0
LINE
  5
277
100
AcDbEntity
  8
A_BEMASSUNGEN
100
AcDbLine
 62
2
  6
CONTINUOUS
 10
77.0454145407
 20
117.0758396373
 11
77.0454145407
 21
167.8900386971
  0
LINE
  5
278
100
AcDbEntity
  8
A_BEMASSUNGEN
100
AcDbLine
 62
2
  6
CONTINUOUS
 10
44.0454145407
 20
117.6758396373
 11
44.0454145407
 21
167.8900386971
  0
LINE
  5
279
100
AcDbEntity
  8
A_BEMASSUNGEN
100
AcDbLine
 62
2
  6
CONTINUOUS
 10
77.0454145407
 20
165.8900386971
 11
60.5454145407
 21
165.8900386971
  0
LINE
  5
27A
100
AcDbEntity
  8
A_BEMASSUNGEN
100
AcDbLine
 62
2
  6
CONTINUOUS
 10
44.0454145407
 20
165.8900386971
 11
60.5454145407
 21
165.8900386971
  0
INSERT
  5
27B
100
AcDbEntity
  8
A_BEMASSUNGEN
100
AcDbBlockReference
 62
2
  6
CONTINUOUS
  2
_ARROW_FILLED
 10
77.0454145407
 20
165.8900386971
 41
3.5
 42
3.5
 43
3.5
  0
INSERT
  5
27C
100
AcDbEntity
  8
A_BEMASSUNGEN
100
AcDbBlockReference
 62
2
  6
CONTINUOUS
  2
_ARROW_FILLED
 10
44.0454145407
 20
165.8900386971
 41
3.5
 42
3.5
 43
3.5
 50
180.0
  0
ENDBLK
  5
27D
100
AcDbEntity
  8
0
  6
BYBLOCK
 62
0
100
AcDbBlockEnd
  0
BLOCK
  5
27E
100
AcDbEntity
  8
A_BEMASSUNGEN
100
AcDbBlockBegin
 62
2
  6
CONTINUOUS
  2
*D8
 70
65
 10
0.0
 20
0.0
  3
*D8
  1

  0
MTEXT
  5
27F
100
AcDbEntity
  8
A_BEMASSUNGEN
100
AcDbMText
 62
5
  6
CONTINUOUS
  7
TEXTSTYLE_2
 71
2
 72
1
 10
73.0454145407
 20
52.8612579157
 30
0.0
 11
1.0
 21
0.0
 31
0.0
  1
18
 40
3.5
 41
7.125
  0
LINE
  5
280
100
AcDbEntity
  8
A_BEMASSUNGEN
100
AcDbLine
 62
2
  6
CONTINUOUS
 10
64.0454145407
 20
60.7758396373
 11
64.0454145407
 21
46.4862579157
  0
LINE
  5
281
100
AcDbEntity
  8
A_BEMASSUNGEN
100
AcDbLine
 62
2
  6
CONTINUOUS
 10
82.0454145407
 20
82.7759539174
 11
82.0454145407
 21
46.4862579157
  0
LINE
  5
282
100
AcDbEntity
  8
A_BEMASSUNGEN
100
AcDbLine
 62
2
  6
CONTINUOUS
 10
64.0454145407
 20
48.4862579157
 11
73.0454145407
 21
48.4862579157
  0
LINE
  5
283
100
AcDbEntity
  8
A_BEMASSUNGEN
100
AcDbLine
 62
2
  6
CONTINUOUS
 10
82.0454145407
 20
48.4862579157
 11
73.0454145407
 21
48.4862579157
  0
INSERT
  5
284
100
AcDbEntity
  8
A_BEMASSUNGEN
100
AcDbBlockReference
 62
2
  6
CONTINUOUS
  2
_ARROW_FILLED
 10
64.0454145407
 20
48.4862579157
 41
3.5
 42
3.5
 43
3.5
 50
180.0
  0
INSERT
  5
285
100
AcDbEntity
  8
A_BEMASSUNGEN
100
AcDbBlockReference
 62
2
  6
CONTINUOUS
  2
_ARROW_FILLED
 10
82.0454145407
 20
48.4862579157
 41
3.5
 42
3.5
 43
3.5
 50
0.0
  0
ENDBLK
  5
286
100
AcDbEntity
  8
0
  6
BYBLOCK
 62
0
100
AcDbBlockEnd
  0
BLOCK
  5
287
100
AcDbEntity
  8
A_BEMASSUNGEN
100
AcDbBlockBegin
 62
2
  6
CONTINUOUS
  2
*D9
 70
65
 10
0.0
 20
0.0
  3
*D9
  1

  0
MTEXT
  5
288
100
AcDbEntity
  8
A_BEMASSUNGEN
100
AcDbMText
 62
5
  6
CONTINUOUS
  7
TEXTSTYLE_2
 71
2
 72
1
 10
80.296038208
 20
44.1551159533
 30
0.0
 11
1.0
 21
0.0
 31
0.0
  1
37.5
 40
3.5
 41
14.625
  0
LINE
  5
289
100
AcDbEntity
  8
A_BEMASSUNGEN
100
AcDbLine
 62
2
  6
CONTINUOUS
 10
64.0454145407
 20
60.7758396373
 11
64.0454145407
 21
37.7801159533
  0
LINE
  5
28A
100
AcDbEntity
  8
A_BEMASSUNGEN
100
AcDbLine
 62
2
  6
CONTINUOUS
 10
101.5454145407
 20
60.6758396373
 11
101.5454145407
 21
37.7801159533
  0
LINE
  5
28B
100
AcDbEntity
  8
A_BEMASSUNGEN
100
AcDbLine
 62
2
  6
CONTINUOUS
 10
64.0454145407
 20
39.7801159533
 11
82.7954145407
 21
39.7801159533
  0
LINE
  5
28C
100
AcDbEntity
  8
A_BEMASSUNGEN
100
AcDbLine
 62
2
  6
CONTINUOUS
 10
101.5454145407
 20
39.7801159533
 11
82.7954145407
 21
39.7801159533
  0
INSERT
  5
28D
100
AcDbEntity
  8
A_BEMASSUNGEN
100
AcDbBlockReference
 62
2
  6
CONTINUOUS
  2
_ARROW_FILLED
 10
64.0454145407
 20
39.7801159533
 41
3.5
 42
3.5
 43
3.5
 50
180.0
  0
INSERT
  5
28E
100
AcDbEntity
  8
A_BEMASSUNGEN
100
AcDbBlockReference
 62
2
  6
CONTINUOUS
  2
_ARROW_FILLED
 10
101.5454145407
 20
39.7801159533
 41
3.5
 42
3.5
 43
3.5
 50
0.0
  0
ENDBLK
  5
28F
100
AcDbEntity
  8
0
  6
BYBLOCK
 62
0
100
AcDbBlockEnd
  0
ENDSEC
  0
SECTION
  2
ENTITIES
  0
DIMENSION
  5
290
100
AcDbEntity
  8
A_BEMASSUNGEN
100
AcDbDimension
 62
2
  6
CONTINUOUS
  2
*D0
 10
184.6314159448
 20
60.6758396373
 11
184.6314159448
 21
51.5849027085
 70
160
  3
DIMSTYLE_1
100
AcDbAlignedDimension
 13
166.5454145407
 23
56.6758396373
 14
101.5454145407
 24
60.6758396373
 50
90.0
100
AcDbRotatedDimension
  0
DIMENSION
  5
291
100
AcDbEntity
  8
A_BEMASSUNGEN
100
AcDbDimension
 62
2
  6
CONTINUOUS
  2
*D1
 10
184.6350660786
 20
101.3758396373
 11
184.6350660786
 21
80.525841267
 70
160
  3
DIMSTYLE_2
100
AcDbAlignedDimension
 13
101.5454145407
 23
60.6758396373
 14
101.5454145407
 24
101.3758396373
 50
90.0
100
AcDbRotatedDimension
  0
DIMENSION
  5
292
100
AcDbEntity
  8
A_BEMASSUNGEN
100
AcDbDimension
 62
2
  6
CONTINUOUS
  2
*D2
 10
54.4801514319
 20
74.6758396373
 11
54.4801514319
 21
68.4446101467
 70
160
  3
DIMSTYLE_3
100
AcDbAlignedDimension
 13
75.0454145407
 23
80.6758396373
 14
67.0454145407
 24
74.6758396373
 50
270.0
100
AcDbRotatedDimension
  0
DIMENSION
  5
293
100
AcDbEntity
  8
A_BEMASSUNGEN
100
AcDbDimension
 62
2
  6
CONTINUOUS
  2
*D3
 10
44.9563349398
 20
56.6758396373
 11
44.9563349398
 21
68.175839767
 70
160
  3
DIMSTYLE_4
100
AcDbAlignedDimension
 13
75.0454145407
 23
80.6758396373
 14
67.0454145407
 24
56.6758396373
 50
270.0
100
AcDbRotatedDimension
  0
DIMENSION
  5
294
100
AcDbEntity
  8
A_BEMASSUNGEN
100
AcDbDimension
 62
2
  6
CONTINUOUS
  2
*D4
 10
10.3415645899
 20
87.6758396373
 11
10.3415645899
 21
72.6757985132
 70
160
  3
DIMSTYLE_5
100
AcDbAlignedDimension
 13
19.0454145407
 23
80.6758396373
 14
44.0454145407
 24
87.6758396373
 50
90.0
100
AcDbRotatedDimension
  0
DIMENSION
  5
295
100
AcDbEntity
  8
A_BEMASSUNGEN
100
AcDbDimension
 62
2
  6
CONTINUOUS
  2
*D5
 10
10.3415645899
 20
117.6758396373
 11
10.3415645899
 21
102.175839609
 70
160
  3
DIMSTYLE_5
100
AcDbAlignedDimension
 13
44.0454145407
 23
87.6758396373
 14
44.0454145407
 24
117.6758396373
 50
90.0
100
AcDbRotatedDimension
  0
DIMENSION
  5
296
100
AcDbEntity
  8
A_BEMASSUNGEN
100
AcDbDimension
 62
2
  6
CONTINUOUS
  2
*D6
 10
77.0454145407
 20
165.8889288916
 11
88.9317546296
 21
165.8889288916
 70
160
  3
DIMSTYLE_6
100
AcDbAlignedDimension
 13
82.0454145407
 23
107.6758396373
 14
77.0454145407
 24
117.0758396373
 50
180.0
100
AcDbRotatedDimension
  0
DIMENSION
  5
297
100
AcDbEntity
  8
A_BEMASSUNGEN
100
AcDbDimension
 62
2
  6
CONTINUOUS
  2
*D7
 10
44.0454145407
 20
165.8900386971
 11
60.045412037
 21
165.8900386971
 70
160
  3
DIMSTYLE_2
100
AcDbAlignedDimension
 13
77.0454145407
 23
117.0758396373
 14
44.0454145407
 24
117.6758396373
 50
180.0
100
AcDbRotatedDimension
  0
DIMENSION
  5
298
100
AcDbEntity
  8
A_BEMASSUNGEN
100
AcDbDimension
 62
2
  6
CONTINUOUS
  2
*D8
 10
82.0454145407
 20
48.4862579157
 11
72.545412037
 21
48.4862579157
 70
160
  3
DIMSTYLE_5
100
AcDbAlignedDimension
 13
64.0454145407
 23
60.7758396373
 14
82.0454145407
 24
82.7759539174
100
AcDbRotatedDimension
  0
DIMENSION
  5
299
100
AcDbEntity
  8
A_BEMASSUNGEN
100
AcDbDimension
 62
2
  6
CONTINUOUS
  2
*D9
 10
101.5454145407
 20
39.7801159533
 11
79.7960413773
 21
39.7801159533
 70
160
  3
DIMSTYLE_2
100
AcDbAlignedDimension
 13
64.0454145407
 23
60.7758396373
 14
101.5454145407
 24
60.6758396373
100
AcDbRotatedDimension
  0
LINE
  5
29A
100
AcDbEntity
  8
0
100
AcDbLine
 62
7
  6
CONTINUOUS
 10
17.0454145407
 20
82.6758396373
 11
17.0454145407
 21
101.0016036373
  0
LINE
  5
29B
100
AcDbEntity
  8
0
100
AcDbLine
 62
7
  6
CONTINUOUS
 10
17.0454145407
 20
154.5149386373
 11
17.0454145407
 21
156.6758396373
  0
LINE
  5
29C
100
AcDbEntity
  8
0
100
AcDbLine
 62
7
  6
CONTINUOUS
 10
17.5454145407
 20
117.3457116373
 11
17.5454145407
 21
132.0059676373
  0
LINE
  5
29D
100
AcDbEntity
  8
0
100
AcDbLine
 62
7
  6
CONTINUOUS
 10
21.0454145407
 20
147.3238566373
 11
21.0454145407
 21
152.1314316373
  0
LINE
  5
29E
100
AcDbEntity
  8
0
100
AcDbLine
 62
7
  6
CONTINUOUS
 10
27.0454145407
 20
102.8732326373
 11
27.0454145407
 21
115.4784456373
  0
LINE
  5
29F
100
AcDbEntity
  8
0
100
AcDbLine
 62
7
  6
CONTINUOUS
 10
27.0454145407
 20
133.8732326373
 11
27.0454145407
 21
146.4784456373
  0
LINE
  5
2A0
100
AcDbEntity
  8
0
100
AcDbLine
 62
7
  6
CONTINUOUS
 10
44.0454145407
 20
87.6758396373
 11
44.0454145407
 21
117.6758396373
  0
LINE
  5
2A1
100
AcDbEntity
  8
0
100
AcDbLine
 62
7
  6
CONTINUOUS
 10
44.5454145407
 20
115.1758396373
 11
44.5454145407
 21
109.1758396373
  0
LINE
  5
2A2
100
AcDbEntity
  8
0
100
AcDbLine
 62
7
  6
CONTINUOUS
 10
44.5454145407
 20
99.3258396373
 11
44.5454145407
 21
92.3258396373
  0
LINE
  5
2A3
100
AcDbEntity
  8
0
100
AcDbLine
 62
7
  6
CONTINUOUS
 10
46.7954145407
 20
102.6758396373
 11
46.7954145407
 21
108.6758396373
  0
LINE
  5
2A4
100
AcDbEntity
  8
0
100
AcDbLine
 62
7
  6
CONTINUOUS
 10
49.0454145407
 20
100.4258396373
 11
49.0454145407
 21
110.9258396373
  0
LINE
  5
2A5
100
AcDbEntity
  8
0
100
AcDbLine
 62
7
  6
CONTINUOUS
 10
50.0454145407
 20
87.8583113381
 11
50.0454145407
 21
117.4933679365
  0
LINE
  5
2A6
100
AcDbEntity
  8
A_FASEN
100
AcDbLine
 62
7
  6
CONTINUOUS
 10
50.5454145407
 20
92.3758396373
 11
50.5454145407
 21
99.3758396373
  0
LINE
  5
2A7
100
AcDbEntity
  8
0
100
AcDbLine
 62
7
  6
CONTINUOUS
 10
51.5454145407
 20
99.3758396373
 11
51.5454145407
 21
92.3758396373
  0
LINE
  5
2A8
100
AcDbEntity
  8
0
100
AcDbLine
 62
7
  6
CONTINUOUS
 10
52.8454145407
 20
90.860906352
 11
52.8454145407
 21
114.4907729225
  0
LINE
  5
2A9
100
AcDbEntity
  8
0
100
AcDbLine
 62
7
  6
CONTINUOUS
 10
54.5454145407
 20
109.7758396373
 11
54.5454145407
 21
105.7758396373
  0
LINE
  5
2AA
100
AcDbEntity
  8
0
100
AcDbLine
 62
7
  6
CONTINUOUS
 10
54.5454145407
 20
99.2758396373
 11
54.5454145407
 21
95.2758396373
  0
LINE
  5
2AB
100
AcDbEntity
  8
0
100
AcDbLine
 62
7
  6
CONTINUOUS
 10
55.0454145407
 20
94.7758396373
 11
55.0454145407
 21
99.7758396373
  0
LINE
  5
2AC
100
AcDbEntity
  8
0
100
AcDbLine
 62
7
  6
CONTINUOUS
 10
55.0454145407
 20
105.2758396373
 11
55.0454145407
 21
110.2758396373
  0
LINE
  5
2AD
100
AcDbEntity
  8
0
100
AcDbLine
 62
7
  6
CONTINUOUS
 10
56.0454145407
 20
91.0067997717
 11
56.0454145407
 21
105.2758396373
  0
LINE
  5
2AE
100
AcDbEntity
  8
0
100
AcDbLine
 62
7
  6
CONTINUOUS
 10
56.0454145407
 20
110.2758396373
 11
56.0454145407
 21
114.3448795028
  0
LINE
  5
2AF
100
AcDbEntity
  8
0
100
AcDbLine
 62
7
  6
CONTINUOUS
 10
166.5454145407
 20
56.6758396373
 11
67.0454145407
 21
56.6758396373
  0
LINE
  5
2B0
100
AcDbEntity
  8
0
100
AcDbLine
 62
7
  6
CONTINUOUS
 10
174.0454145407
 20
59.6758396373
 11
169.5454145407
 21
59.6758396373
  0
LINE
  5
2B1
100
AcDbEntity
  8
0
100
AcDbLine
 62
7
  6
CONTINUOUS
 10
44.0454145407
 20
99.8258396373
 11
44.5454145407
 21
99.3258396373
  0
LINE
  5
2B2
100
AcDbEntity
  8
0
100
AcDbLine
 62
7
  6
CONTINUOUS
 10
61.0454145407
 20
91.8132829549
 11
61.0454145407
 21
103.3383963197
  0
LINE
  5
2B3
100
AcDbEntity
  8
0
100
AcDbLine
 62
7
  6
CONTINUOUS
 10
62.3454145407
 20
116.0606449824
 11
62.3454145407
 21
115.9008396373
  0
LINE
  5
2B4
100
AcDbEntity
  8
0
100
AcDbLine
 62
7
  6
CONTINUOUS
 10
62.3454145407
 20
89.4508396373
 11
62.3454145407
 21
89.2910342921
  0
LINE
  5
2B5
100
AcDbEntity
  8
A_FASEN
100
AcDbLine
 62
7
  6
CONTINUOUS
 10
63.0454145407
 20
99.3758396373
 11
63.0454145407
 21
92.3758396373
  0
LINE
  5
2B6
100
AcDbEntity
  8
QUER2
100
AcDbLine
 62
7
  6
CONTINUOUS
 10
63.5454145407
 20
114.0758396373
 11
63.5454145407
 21
111.8758396373
  0
LINE
  5
2B7
100
AcDbEntity
  8
QUER2
100
AcDbLine
 62
7
  6
CONTINUOUS
 10
63.5454145407
 20
103.6758396373
 11
63.5454145407
 21
91.0758396373
  0
LINE
  5
2B8
100
AcDbEntity
  8
0
100
AcDbLine
 62
7
  6
CONTINUOUS
 10
63.5454145407
 20
89.4543814474
 11
63.5454145407
 21
91.8758396373
  0
LINE
  5
2B9
100
AcDbEntity
  8
0
100
AcDbLine
 62
7
  6
CONTINUOUS
 10
63.5454145407
 20
99.8758396373
 11
63.5454145407
 21
105.2758396373
  0
LINE
  5
2BA
100
AcDbEntity
  8
0
100
AcDbLine
 62
7
  6
CONTINUOUS
 10
63.5454145407
 20
110.2758396373
 11
63.5454145407
 21
115.8972978272
  0
LINE
  5
2BB
100
AcDbEntity
  8
0
100
AcDbLine
 62
7
  6
CONTINUOUS
 10
64.0454145407
 20
60.7758396373
 11
64.0454145407
 21
59.6758396373
  0
LINE
  5
2BC
100
AcDbEntity
  8
A_RUNDUNGEN
100
AcDbLine
 62
7
  6
CONTINUOUS
 10
64.0454145407
 20
60.7758396373
 11
64.0454145407
 21
72.7758396373
  0
LINE
  5
2BD
100
AcDbEntity
  8
0
100
AcDbLine
 62
7
  6
CONTINUOUS
 10
49.0454145407
 20
110.9258396373
 11
46.7954145407
 21
108.6758396373
  0
LINE
  5
2BE
100
AcDbEntity
  8
0
100
AcDbLine
 62
7
  6
CONTINUOUS
 10
99.5558864684
 20
60.9617737327
 11
81.0454145407
 21
60.8648522426
  0
LINE
  5
2BF
100
AcDbEntity
  8
A_RUNDUNGEN
100
AcDbLine
 62
7
  6
CONTINUOUS
 10
64.0454145407
 20
60.7758396373
 11
69.1702301528
 21
60.8026733543
  0
LINE
  5
2C0
100
AcDbEntity
  8
A_RUNDUNGEN
100
AcDbLine
 62
7
  6
CONTINUOUS
 10
69.9798722988
 20
60.8069126694
 11
81.0454145407
 21
60.8648522426
  0
LINE
  5
2C1
100
AcDbEntity
  8
0
100
AcDbLine
 62
7
  6
CONTINUOUS
 10
101.5454145407
 20
60.6758396373
 11
64.0454145407
 21
60.6758396373
  0
LINE
  5
2C2
100
AcDbEntity
  8
QUER2
100
AcDbLine
 62
7
  6
CONTINUOUS
 10
69.5454145407
 20
61.2758396373
 11
76.5454145407
 21
61.2758396373
  0
LINE
  5
2C3
100
AcDbEntity
  8
0
100
AcDbLine
 62
7
  6
CONTINUOUS
 10
93.0454145407
 20
62.7758396373
 11
88.0454145407
 21
62.7758396373
  0
LINE
  5
2C4
100
AcDbEntity
  8
A_ACHSEN
100
AcDbLine
 62
7
  6
CENTER
 10
62.1110149369
 20
66.2758396373
 11
76.9798141445
 21
66.2758396373
  0
LINE
  5
2C5
100
AcDbEntity
  8
0
100
AcDbLine
 62
7
  6
CONTINUOUS
 10
49.0454145407
 20
100.4258396373
 11
46.7954145407
 21
102.6758396373
  0
LINE
  5
2C6
100
AcDbEntity
  8
0
100
AcDbLine
 62
7
  6
CONTINUOUS
 10
55.0454145407
 20
94.7758396373
 11
54.5454145407
 21
95.2758396373
  0
LINE
  5
2C7
100
AcDbEntity
  8
0
100
AcDbLine
 62
7
  6
CONTINUOUS
 10
50.0454145407
 20
99.8758396373
 11
50.5454145407
 21
99.3758396373
  0
LINE
  5
2C8
100
AcDbEntity
  8
0
100
AcDbLine
 62
7
  6
CONTINUOUS
 10
63.5454145407
 20
91.8758396373
 11
63.0454145407
 21
92.3758396373
  0
LINE
  5
2C9
100
AcDbEntity
  8
QUER2
100
AcDbLine
 62
7
  6
CONTINUOUS
 10
67.7207559847
 20
77.6463477364
 11
67.6159621111
 21
78.9505944735
  0
LINE
  5
2CA
100
AcDbEntity
  8
DEFAULT_2
100
AcDbLine
 62
8
  6
HIDDEN
 10
66.5454145407
 20
110.2758396373
 11
66.5454145407
 21
105.2758396373
  0
LINE
  5
2CB
100
AcDbEntity
  8
A_RUNDUNGEN
100
AcDbLine
 62
7
  6
CONTINUOUS
 10
66.5454145407
 20
111.7258395963
 11
66.5454145407
 21
103.8258396783
  0
LINE
  5
2CC
100
AcDbEntity
  8
QUER2
100
AcDbLine
 62
7
  6
CONTINUOUS
 10
66.5454145407
 20
101.9758396373
 11
66.5454145407
 21
103.9331456507
  0
LINE
  5
2CD
100
AcDbEntity
  8
QUER2
100
AcDbLine
 62
7
  6
CONTINUOUS
 10
66.5454145407
 20
111.725839597
 11
66.5454145407
 21
113.5758396373
  0
LINE
  5
2CE
100
AcDbEntity
  8
0
100
AcDbLine
 62
7
  6
CONTINUOUS
 10
67.4454145407
 20
116.1051520082
 11
67.4454145407
 21
115.9313326116
  0
LINE
  5
2CF
100
AcDbEntity
  8
0
100
AcDbLine
 62
7
  6
CONTINUOUS
 10
67.4454145407
 20
89.420346663
 11
67.4454145407
 21
89.2465272664
  0
LINE
  5
2D0
100
AcDbEntity
  8
0
100
AcDbLine
 62
7
  6
CONTINUOUS
 10
68.464017121
 20
115.9402218216
 11
68.464017121
 21
114.3758396373
  0
LINE
  5
2D1
100
AcDbEntity
  8
0
100
AcDbLine
 62
7
  6
CONTINUOUS
 10
68.464017121
 20
90.7758396373
 11
68.464017121
 21
89.411457453
  0
LINE
  5
2D2
100
AcDbEntity
  8
0
100
AcDbLine
 62
7
  6
CONTINUOUS
 10
68.5454145407
 20
125.6758396373
 11
68.5454145407
 21
120.6758396373
  0
LINE
  5
2D3
100
AcDbEntity
  8
A_ACHSEN
100
AcDbLine
 62
7
  6
CENTER
 10
69.5454145407
 20
58.8414400335
 11
69.5454145407
 21
73.710239241
  0
LINE
  5
2D4
100
AcDbEntity
  8
DEFAULT_2
100
AcDbLine
 62
8
  6
HIDDEN
 10
71.5454145407
 20
110.023755456
 11
71.5454145407
 21
105.5279238186
  0
LINE
  5
2D5
100
AcDbEntity
  8
A_RUNDUNGEN
100
AcDbLine
 62
7
  6
CONTINUOUS
 10
71.5454145407
 20
111.7258386861
 11
71.5454145407
 21
103.8258405885
  0
LINE
  5
2D6
100
AcDbEntity
  8
0
100
AcDbLine
 62
7
  6
CONTINUOUS
 10
55.0454145407
 20
110.2758396373
 11
54.5454145407
 21
109.7758396373
  0
LINE
  5
2D7
100
AcDbEntity
  8
0
100
AcDbLine
 62
7
  6
CONTINUOUS
 10
88.0454145407
 20
62.7758396373
 11
81.0454145407
 21
61.2758396373
  0
LINE
  5
2D8
100
AcDbEntity
  8
A_RUNDUNGEN
100
AcDbLine
 62
7
  6
CONTINUOUS
 10
80.7850849777
 20
61.2200547309
 11
81.0454145407
 21
61.2758396373
  0
LINE
  5
2D9
100
AcDbEntity
  8
A_RUNDUNGEN
100
AcDbLine
 62
7
  6
CONTINUOUS
 10
95.0715941472
 20
73.0466010048
 11
94.5930871252
 21
73.0424251372
  0
LINE
  5
2DA
100
AcDbEntity
  8
A_RUNDUNGEN
100
AcDbLine
 62
7
  6
CONTINUOUS
 10
78.7557586506
 20
72.9042148655
 11
64.0454145407
 21
72.7758396373
  0
LINE
  5
2DB
100
AcDbEntity
  8
QUER2
100
AcDbLine
 62
7
  6
CONTINUOUS
 10
76.5454145407
 20
71.2758396373
 11
69.5454145407
 21
71.2758396373
  0
LINE
  5
2DC
100
AcDbEntity
  8
0
100
AcDbLine
 62
7
  6
CONTINUOUS
 10
98.0454145407
 20
72.7758396373
 11
96.0454145407
 21
72.7758396373
  0
LINE
  5
2DD
100
AcDbEntity
  8
0
100
AcDbLine
 62
7
  6
CONTINUOUS
 10
55.0454145407
 20
105.2758396373
 11
54.5454145407
 21
105.7758396373
  0
LINE
  5
2DE
100
AcDbEntity
  8
0
100
AcDbLine
 62
7
  6
CONTINUOUS
 10
72.5454145407
 20
115.9758396373
 11
72.5454145407
 21
114.0758396373
  0
LINE
  5
2DF
100
AcDbEntity
  8
0
100
AcDbLine
 62
7
  6
CONTINUOUS
 10
72.5454145407
 20
90.7758396373
 11
72.5454145407
 21
89.3758396373
  0
LINE
  5
2E0
100
AcDbEntity
  8
QUER2
100
AcDbLine
 62
7
  6
CONTINUOUS
 10
72.5454145407
 20
102.2758396373
 11
72.5454145407
 21
114.0758396373
  0
LINE
  5
2E1
100
AcDbEntity
  8
0
100
AcDbLine
 62
7
  6
CONTINUOUS
 10
75.3454145407
 20
117.6258396373
 11
75.3454145407
 21
117.5723486243
  0
LINE
  5
2E2
100
AcDbEntity
  8
0
100
AcDbLine
 62
7
  6
CONTINUOUS
 10
75.3454145407
 20
87.7258396373
 11
75.3454145407
 21
87.7793306503
  0
LINE
  5
2E3
100
AcDbEntity
  8
A_RUNDUNGEN
100
AcDbLine
 62
7
  6
CONTINUOUS
 10
75.3454145407
 20
102.135821827
 11
75.3454145407
 21
103.215469976
  0
LINE
  5
2E4
100
AcDbEntity
  8
A_RUNDUNGEN
100
AcDbLine
 62
7
  6
CONTINUOUS
 10
75.5454145407
 20
116.1758396373
 11
75.5454145407
 21
100.7758396373
  0
LINE
  5
2E5
100
AcDbEntity
  8
A_RUNDUNGEN
100
AcDbLine
 62
7
  6
CONTINUOUS
 10
75.5454145407
 20
90.7758396373
 11
75.5454145407
 21
89.1758396373
  0
LINE
  5
2E6
100
AcDbEntity
  8
0
100
AcDbLine
 62
7
  6
CONTINUOUS
 10
75.5454145407
 20
87.7758396373
 11
75.5454145407
 21
89.1758396373
  0
LINE
  5
2E7
100
AcDbEntity
  8
0
100
AcDbLine
 62
7
  6
CONTINUOUS
 10
75.5454145407
 20
116.1758396373
 11
75.5454145407
 21
117.5758396373
  0
LINE
  5
2E8
100
AcDbEntity
  8
A_RUNDUNGEN
100
AcDbLine
 62
7
  6
CONTINUOUS
 10
77.0454145407
 20
117.5758396373
 11
77.0454145407
 21
100.7400789315
  0
LINE
  5
2E9
100
AcDbEntity
  8
A_RUNDUNGEN
100
AcDbLine
 62
7
  6
CONTINUOUS
 10
77.0454145407
 20
90.734826025
 11
77.0454145407
 21
87.7758396373
  0
LINE
  5
2EA
100
AcDbEntity
  8
0
100
AcDbLine
 62
7
  6
CONTINUOUS
 10
77.0454145407
 20
82.6758396373
 11
77.0454145407
 21
87.7941191176
  0
LINE
  5
2EB
100
AcDbEntity
  8
0
100
AcDbLine
 62
7
  6
CONTINUOUS
 10
77.0454145407
 20
117.557560157
 11
77.0454145407
 21
120.6758396373
  0
LINE
  5
2EC
100
AcDbEntity
  8
QUER2
100
AcDbLine
 62
7
  6
CONTINUOUS
 10
74.1349523055
 20
80.0039572931
 11
74.0466304747
 21
78.5221038976
  0
LINE
  5
2ED
100
AcDbEntity
  8
DEFAULT_2
100
AcDbLine
 62
8
  6
HIDDEN
 10
68.2464145407
 20
107.7758396373
 11
69.5442493134
 21
110.0237554034
  0
LINE
  5
2EE
100
AcDbEntity
  8
0
100
AcDbLine
 62
7
  6
CONTINUOUS
 10
44.0454145407
 20
91.8258396373
 11
44.5454145407
 21
92.3258396373
  0
LINE
  5
2EF
100
AcDbEntity
  8
0
100
AcDbLine
 62
7
  6
CONTINUOUS
 10
55.0454145407
 20
99.7758396373
 11
54.5454145407
 21
99.2758396373
  0
LINE
  5
2F0
100
AcDbEntity
  8
0
100
AcDbLine
 62
7
  6
CONTINUOUS
 10
50.0454145407
 20
91.8758396373
 11
50.5454145407
 21
92.3758396373
  0
LINE
  5
2F1
100
AcDbEntity
  8
QUER2
100
AcDbLine
 62
7
  6
CONTINUOUS
 10
85.4387162556
 20
74.9692440488
 11
86.3775772911
 21
75.1347905805
  0
LINE
  5
2F2
100
AcDbEntity
  8
0
100
AcDbLine
 62
7
  6
CONTINUOUS
 10
67.0454145407
 20
74.6758396373
 11
77.1274071969
 21
74.6758396373
  0
LINE
  5
2F3
100
AcDbEntity
  8
0
100
AcDbLine
 62
7
  6
CONTINUOUS
 10
79.8326256142
 20
74.6758396373
 11
81.9803004351
 21
74.6758396373
  0
LINE
  5
2F4
100
AcDbEntity
  8
0
100
AcDbLine
 62
7
  6
CONTINUOUS
 10
86.8075527618
 20
74.6758396373
 11
86.9557436672
 21
74.6758396373
  0
LINE
  5
2F5
100
AcDbEntity
  8
0
100
AcDbLine
 62
7
  6
CONTINUOUS
 10
85.1429739316
 20
79.6758396373
 11
82.0454145407
 21
79.6758396373
  0
LINE
  5
2F6
100
AcDbEntity
  8
0
100
AcDbLine
 62
7
  6
CONTINUOUS
 10
101.5454145407
 20
65.2758396373
 11
101.0454145407
 21
65.7758396373
  0
LINE
  5
2F7
100
AcDbEntity
  8
DEFAULT_2
100
AcDbLine
 62
8
  6
HIDDEN
 10
68.2464145407
 20
107.7758396373
 11
69.5442494702
 21
105.5279235995
  0
LINE
  5
2F8
100
AcDbEntity
  8
0
100
AcDbLine
 62
7
  6
CONTINUOUS
 10
81.0454145407
 20
61.2758396373
 11
81.0454145407
 21
60.8648522426
  0
LINE
  5
2F9
100
AcDbEntity
  8
0
100
AcDbLine
 62
7
  6
CONTINUOUS
 10
82.0454145407
 20
81.7758396373
 11
82.0454145407
 21
79.6758396373
  0
LINE
  5
2FA
100
AcDbEntity
  8
A_RUNDUNGEN
100
AcDbLine
 62
7
  6
CONTINUOUS
 10
82.0454145407
 20
81.7758396373
 11
82.0454145407
 21
84.6252105542
  0
LINE
  5
2FB
100
AcDbEntity
  8
A_RUNDUNGEN
100
AcDbLine
 62
7
  6
CONTINUOUS
 10
82.0454145407
 20
85.7758396373
 11
82.0454145407
 21
89.041739974
  0
LINE
  5
2FC
100
AcDbEntity
  8
0
100
AcDbLine
 62
7
  6
CONTINUOUS
 10
82.0454145407
 20
99.9897956365
 11
82.0454145407
 21
107.6758396373
  0
LINE
  5
2FD
100
AcDbEntity
  8
0
100
AcDbLine
 62
7
  6
CONTINUOUS
 10
82.0454145407
 20
107.6758396373
 11
82.935551582
 21
117.8501511096
  0
LINE
  5
2FE
100
AcDbEntity
  8
0
100
AcDbLine
 62
7
  6
CONTINUOUS
 10
63.5454145407
 20
99.8758396373
 11
63.0454145407
 21
99.3758396373
  0
LINE
  5
2FF
100
AcDbEntity
  8
0
100
AcDbLine
 62
7
  6
CONTINUOUS
 10
82.0454145407
 20
85.7758396373
 11
84.9801267243
 21
85.8526877804
  0
LINE
  5
300
100
AcDbEntity
  8
A_RUNDUNGEN
100
AcDbLine
 62
7
  6
CONTINUOUS
 10
82.0454145407
 20
85.7758396373
 11
84.9801267243
 21
85.8526877804
  0
LINE
  5
301
100
AcDbEntity
  8
0
100
AcDbLine
 62
7
  6
CONTINUOUS
 10
95.5953372928
 20
86.1306568517
 11
96.0454145407
 21
86.1424425393
  0
LINE
  5
302
100
AcDbEntity
  8
A_RUNDUNGEN
100
AcDbLine
 62
7
  6
CONTINUOUS
 10
95.5953372928
 20
86.1306568517
 11
96.0454145407
 21
86.1424425393
  0
LINE
  5
303
100
AcDbEntity
  8
0
100
AcDbLine
 62
7
  6
CONTINUOUS
 10
75.0454145407
 20
80.6758396373
 11
19.0454145407
 21
80.6758396373
  0
LINE
  5
304
100
AcDbEntity
  8
0
100
AcDbLine
 62
7
  6
CONTINUOUS
 10
101.0454145407
 20
81.2758396373
 11
101.5454145407
 21
81.2758396373
  0
LINE
  5
305
100
AcDbEntity
  8
0
100
AcDbLine
 62
7
  6
CONTINUOUS
 10
101.0454145407
 20
82.2758396373
 11
101.5454145407
 21
82.2758396373
  0
LINE
  5
306
100
AcDbEntity
  8
0
100
AcDbLine
 62
7
  6
CONTINUOUS
 10
101.0454145407
 20
84.7728252303
 11
101.5454145407
 21
84.7728252303
  0
LINE
  5
307
100
AcDbEntity
  8
0
100
AcDbLine
 62
7
  6
CONTINUOUS
 10
101.0454145407
 20
85.9252460185
 11
101.5454145407
 21
85.9252460185
  0
LINE
  5
308
100
AcDbEntity
  8
0
100
AcDbLine
 62
7
  6
CONTINUOUS
 10
101.0454145407
 20
86.6935080088
 11
101.5454145407
 21
86.6935080088
  0
LINE
  5
309
100
AcDbEntity
  8
A_RUNDUNGEN
100
AcDbLine
 62
7
  6
CONTINUOUS
 10
82.0454145407
 20
81.7758396373
 11
84.7644716795
 21
81.7046386203
  0
LINE
  5
30A
100
AcDbEntity
  8
A_RUNDUNGEN
100
AcDbLine
 62
7
  6
CONTINUOUS
 10
85.8481683786
 20
81.6762610235
 11
86.2536599832
 21
81.6656428522
  0
LINE
  5
30B
100
AcDbEntity
  8
QUER2
100
AcDbLine
 62
7
  6
CONTINUOUS
 10
82.5609802513
 20
71.3115133353
 11
82.6864271002
 21
72.0975942367
  0
LINE
  5
30C
100
AcDbEntity
  8
QUER2
100
AcDbLine
 62
7
  6
CONTINUOUS
 10
82.4364635975
 20
71.1936768869
 11
82.6020101292
 21
72.1325379224
  0
LINE
  5
30D
100
AcDbEntity
  8
DEFAULT_2
100
AcDbLine
 62
8
  6
HIDDEN
 10
71.4736474063
 20
109.1247974142
 11
71.4348117883
 21
109.1060696209
  0
LINE
  5
30E
100
AcDbEntity
  8
DEFAULT_2
100
AcDbLine
 62
8
  6
HIDDEN
 10
69.2662799331
 20
109.0732971317
 11
69.3734058116
 21
109.1060696209
  0
LINE
  5
30F
100
AcDbEntity
  8
0
100
AcDbLine
 62
7
  6
CONTINUOUS
 10
44.0454145407
 20
87.6758396373
 11
77.0454145407
 21
87.6758396373
  0
LINE
  5
310
100
AcDbEntity
  8
A_RUNDUNGEN
100
AcDbLine
 62
7
  6
CONTINUOUS
 10
77.0454145407
 20
87.7758396373
 11
75.5454145407
 21
87.7758396373
  0
LINE
  5
311
100
AcDbEntity
  8
0
100
AcDbLine
 62
7
  6
CONTINUOUS
 10
101.0454145407
 20
89.1904936018
 11
101.5454145407
 21
89.1904936018
  0
LINE
  5
312
100
AcDbEntity
  8
A_RUNDUNGEN
100
AcDbLine
 62
7
  6
CONTINUOUS
 10
54.3454145407
 20
89.4508396373
 11
62.5323247375
 21
89.4508396373
  0
LINE
  5
313
100
AcDbEntity
  8
0
100
AcDbLine
 62
7
  6
CONTINUOUS
 10
101.0454145407
 20
90.2758396373
 11
101.5454145407
 21
90.2758396373
  0
LINE
  5
314
100
AcDbEntity
  8
QUER2
100
AcDbLine
 62
7
  6
CONTINUOUS
 10
63.8454145407
 20
90.7758396373
 11
76.5454145407
 21
90.7758396373
  0
LINE
  5
315
100
AcDbEntity
  8
0
100
AcDbLine
 62
7
  6
CONTINUOUS
 10
98.5454145407
 20
91.7758396373
 11
96.0454145407
 21
91.7758396373
  0
LINE
  5
316
100
AcDbEntity
  8
0
100
AcDbLine
 62
7
  6
CONTINUOUS
 10
98.5454145407
 20
92.2758396373
 11
98.0454145407
 21
92.2758396373
  0
LINE
  5
317
100
AcDbEntity
  8
0
100
AcDbLine
 62
7
  6
CONTINUOUS
 10
98.5454145407
 20
92.3609460176
 11
98.0454145407
 21
92.3609460176
  0
LINE
  5
318
100
AcDbEntity
  8
0
100
AcDbLine
 62
7
  6
CONTINUOUS
 10
52.8454145407
 20
92.3758396373
 11
50.5454145407
 21
92.3758396373
  0
LINE
  5
319
100
AcDbEntity
  8
0
100
AcDbLine
 62
7
  6
CONTINUOUS
 10
61.0454145407
 20
92.3758396373
 11
63.0454145407
 21
92.3758396373
  0
LINE
  5
31A
100
AcDbEntity
  8
0
100
AcDbLine
 62
7
  6
CONTINUOUS
 10
98.5454145407
 20
92.5311587856
 11
98.0454145407
 21
92.5311587856
  0
LINE
  5
31B
100
AcDbEntity
  8
0
100
AcDbLine
 62
7
  6
CONTINUOUS
 10
98.5454145407
 20
92.8715843067
 11
98.0454145407
 21
92.8715843067
  0
LINE
  5
31C
100
AcDbEntity
  8
0
100
AcDbLine
 62
7
  6
CONTINUOUS
 10
98.5454145407
 20
93.2120098577
 11
98.0454145407
 21
93.2120098577
  0
LINE
  5
31D
100
AcDbEntity
  8
0
100
AcDbLine
 62
7
  6
CONTINUOUS
 10
98.5454145407
 20
93.6375417218
 11
98.0454145407
 21
93.6375417218
  0
LINE
  5
31E
100
AcDbEntity
  8
A_RUNDUNGEN
100
AcDbLine
 62
7
  6
CONTINUOUS
 10
75.3454145407
 20
87.7258396373
 11
50.0454145407
 21
87.8583113381
  0
LINE
  5
31F
100
AcDbEntity
  8
0
100
AcDbLine
 62
7
  6
CONTINUOUS
 10
46.034942613
 20
87.8793103119
 11
50.0454145407
 21
87.8583113381
  0
LINE
  5
320
100
AcDbEntity
  8
0
100
AcDbLine
 62
7
  6
CONTINUOUS
 10
75.5454145407
 20
89.1758396373
 11
54.3323247375
 21
89.3609634674
  0
LINE
  5
321
100
AcDbEntity
  8
0
100
AcDbLine
 62
7
  6
CONTINUOUS
 10
72.5454145407
 20
89.3758396373
 11
68.464017121
 21
89.411457453
  0
LINE
  5
322
100
AcDbEntity
  8
A_RUNDUNGEN
100
AcDbLine
 62
7
  6
CONTINUOUS
 10
68.464017121
 20
89.411457453
 11
63.5454145407
 21
89.4543814474
  0
LINE
  5
323
100
AcDbEntity
  8
0
100
AcDbLine
 62
7
  6
CONTINUOUS
 10
57.5323247375
 20
89.5068568871
 11
63.5454145407
 21
89.4543814474
  0
LINE
  5
324
100
AcDbEntity
  8
0
100
AcDbLine
 62
7
  6
CONTINUOUS
 10
51.519235931
 20
88.1952181449
 11
75.5454145407
 21
87.7758396373
  0
LINE
  5
325
100
AcDbEntity
  8
0
100
AcDbLine
 62
7
  6
CONTINUOUS
 10
61.0454145407
 20
92.8383963197
 11
56.0454145407
 21
93.2758396373
  0
LINE
  5
326
100
AcDbEntity
  8
DEFAULT_2
100
AcDbLine
 62
8
  6
HIDDEN
 10
71.4348117883
 20
106.4456096537
 11
71.4736723496
 21
106.4268818076
  0
LINE
  5
327
100
AcDbEntity
  8
0
100
AcDbLine
 62
7
  6
CONTINUOUS
 10
95.0454145407
 20
144.2640026373
 11
95.0454145407
 21
127.6758396373
  0
LINE
  5
328
100
AcDbEntity
  8
0
100
AcDbLine
 62
7
  6
CONTINUOUS
 10
96.0454145407
 20
72.7758396373
 11
96.0454145407
 21
91.7758396373
  0
LINE
  5
329
100
AcDbEntity
  8
0
100
AcDbLine
 62
7
  6
CONTINUOUS
 10
98.0454145407
 20
67.7758396373
 11
98.0454145407
 21
97.3956295858
  0
LINE
  5
32A
100
AcDbEntity
  8
0
100
AcDbLine
 62
7
  6
CONTINUOUS
 10
98.5454145407
 20
91.7758396373
 11
98.5454145407
 21
97.2758396373
  0
LINE
  5
32B
100
AcDbEntity
  8
0
100
AcDbLine
 62
7
  6
CONTINUOUS
 10
100.1911226793
 20
120.5021914234
 11
101.9005406077
 21
130.1967840174
  0
LINE
  5
32C
100
AcDbEntity
  8
QUER2
100
AcDbLine
 62
7
  6
CONTINUOUS
 10
86.1261369048
 20
78.8326237491
 11
85.8181704662
 21
77.5294616261
  0
LINE
  5
32D
100
AcDbEntity
  8
DEFAULT_2
100
AcDbLine
 62
8
  6
HIDDEN
 10
69.4370131188
 20
109.1247949547
 11
69.3734058116
 21
109.1060696209
  0
LINE
  5
32E
100
AcDbEntity
  8
0
100
AcDbLine
 62
7
  6
CONTINUOUS
 10
56.0454145407
 20
91.3758396373
 11
61.0454145407
 21
91.8132829549
  0
LINE
  5
32F
100
AcDbEntity
  8
0
100
AcDbLine
 62
7
  6
CONTINUOUS
 10
56.0454145407
 20
94.7758396373
 11
55.0454145407
 21
94.7758396373
  0
LINE
  5
330
100
AcDbEntity
  8
0
100
AcDbLine
 62
7
  6
CONTINUOUS
 10
98.5454145407
 20
94.9141374335
 11
98.0454145407
 21
94.9141374335
  0
LINE
  5
331
100
AcDbEntity
  8
0
100
AcDbLine
 62
2
  6
CONTINUOUS
 10
54.5454145407
 20
95.2758396373
 11
56.0454145407
 21
95.2758396373
  0
LINE
  5
332
100
AcDbEntity
  8
0
100
AcDbLine
 62
7
  6
CONTINUOUS
 10
98.5454145407
 20
95.3396695361
 11
98.0454145407
 21
95.3396695361
  0
LINE
  5
333
100
AcDbEntity
  8
0
100
AcDbLine
 62
7
  6
CONTINUOUS
 10
98.5454145407
 20
95.6800950275
 11
98.0454145407
 21
95.6800950275
  0
LINE
  5
334
100
AcDbEntity
  8
0
100
AcDbLine
 62
7
  6
CONTINUOUS
 10
98.5454145407
 20
96.0205205188
 11
98.0454145407
 21
96.0205205188
  0
LINE
  5
335
100
AcDbEntity
  8
0
100
AcDbLine
 62
7
  6
CONTINUOUS
 10
98.5454145407
 20
96.1907332645
 11
98.0454145407
 21
96.1907332645
  0
LINE
  5
336
100
AcDbEntity
  8
0
100
AcDbLine
 62
7
  6
CONTINUOUS
 10
98.5454145407
 20
96.2758396373
 11
98.0454145407
 21
96.2758396373
  0
LINE
  5
337
100
AcDbEntity
  8
0
100
AcDbLine
 62
7
  6
CONTINUOUS
 10
98.5454145407
 20
97.2758396373
 11
98.0454145407
 21
97.2758396373
  0
LINE
  5
338
100
AcDbEntity
  8
0
100
AcDbLine
 62
2
  6
CONTINUOUS
 10
54.5454145407
 20
99.2758396373
 11
56.0454145407
 21
99.2758396373
  0
LINE
  5
339
100
AcDbEntity
  8
0
100
AcDbLine
 62
7
  6
CONTINUOUS
 10
52.8454145407
 20
99.3758396373
 11
50.5454145407
 21
99.3758396373
  0
LINE
  5
33A
100
AcDbEntity
  8
0
100
AcDbLine
 62
7
  6
CONTINUOUS
 10
61.0454145407
 20
99.3758396373
 11
63.0454145407
 21
99.3758396373
  0
LINE
  5
33B
100
AcDbEntity
  8
0
100
AcDbLine
 62
7
  6
CONTINUOUS
 10
171.5454145407
 20
99.6758396373
 11
174.0454145407
 21
99.6758396373
  0
LINE
  5
33C
100
AcDbEntity
  8
0
100
AcDbLine
 62
7
  6
CONTINUOUS
 10
56.0454145407
 20
99.7758396373
 11
55.0454145407
 21
99.7758396373
  0
LINE
  5
33D
100
AcDbEntity
  8
0
100
AcDbLine
 62
7
  6
CONTINUOUS
 10
50.0454145407
 20
100.4258396373
 11
49.0454145407
 21
100.4258396373
  0
LINE
  5
33E
100
AcDbEntity
  8
0
100
AcDbLine
 62
7
  6
CONTINUOUS
 10
96.5846799632
 20
98.8951155733
 11
87.7199401536
 21
99.1272469546
  0
LINE
  5
33F
100
AcDbEntity
  8
A_RUNDUNGEN
100
AcDbLine
 62
7
  6
CONTINUOUS
 10
87.4938046877
 20
99.1331685202
 11
84.1329265639
 21
99.2211762112
  0
LINE
  5
340
100
AcDbEntity
  8
0
100
AcDbLine
 62
7
  6
CONTINUOUS
 10
56.0454145407
 20
99.1758396373
 11
61.0454145407
 21
98.7383963197
  0
LINE
  5
341
100
AcDbEntity
  8
0
100
AcDbLine
 62
7
  6
CONTINUOUS
 10
61.0454145407
 20
103.3383963197
 11
56.0454145407
 21
103.7758396373
  0
LINE
  5
342
100
AcDbEntity
  8
0
100
AcDbLine
 62
7
  6
CONTINUOUS
 10
82.0454145407
 20
100.5758396373
 11
87.4944832501
 21
99.1590817728
  0
LINE
  5
343
100
AcDbEntity
  8
DEFAULT_2
100
AcDbLine
 62
8
  6
HIDDEN
 10
69.4370131188
 20
106.4268843199
 11
69.3734058116
 21
106.4456096537
  0
LINE
  5
344
100
AcDbEntity
  8
DEFAULT_2
100
AcDbLine
 62
8
  6
HIDDEN
 10
69.3734058116
 20
106.4456096537
 11
69.2660481203
 21
106.4783812791
  0
LINE
  5
345
100
AcDbEntity
  8
0
100
AcDbLine
 62
7
  6
CONTINUOUS
 10
101.0454145407
 20
72.7758396373
 11
101.0454145407
 21
65.7758396373
  0
LINE
  5
346
100
AcDbEntity
  8
0
100
AcDbLine
 62
7
  6
CONTINUOUS
 10
101.0454145407
 20
81.2758396373
 11
101.0454145407
 21
82.2758396373
  0
LINE
  5
347
100
AcDbEntity
  8
0
100
AcDbLine
 62
7
  6
CONTINUOUS
 10
101.0454145407
 20
84.7728252303
 11
101.0454145407
 21
86.6935080088
  0
LINE
  5
348
100
AcDbEntity
  8
0
100
AcDbLine
 62
7
  6
CONTINUOUS
 10
101.0454145407
 20
89.1904936018
 11
101.0454145407
 21
90.2758396373
  0
LINE
  5
349
100
AcDbEntity
  8
0
100
AcDbLine
 62
7
  6
CONTINUOUS
 10
101.5454145407
 20
60.6758396373
 11
101.5454145407
 21
101.3758396373
  0
LINE
  5
34A
100
AcDbEntity
  8
0
100
AcDbLine
 62
7
  6
CONTINUOUS
 10
18.5323246249
 20
102.5015466293
 11
26.7480325186
 21
102.5732446371
  0
LINE
  5
34B
100
AcDbEntity
  8
QUER2
100
AcDbLine
 62
7
  6
CONTINUOUS
 10
76.5454145407
 20
100.7758396373
 11
74.0454145407
 21
100.7758396373
  0
LINE
  5
34C
100
AcDbEntity
  8
0
100
AcDbLine
 62
7
  6
CONTINUOUS
 10
101.5454145407
 20
101.3758396373
 11
82.0454145407
 21
101.3758396373
  0
LINE
  5
34D
100
AcDbEntity
  8
QUER2
100
AcDbLine
 62
7
  6
CONTINUOUS
 10
66.5454145407
 20
101.9758396373
 11
72.575720695
 21
101.9758396373
  0
LINE
  5
34E
100
AcDbEntity
  8
0
100
AcDbLine
 62
7
  6
CONTINUOUS
 10
46.7954145407
 20
102.6758396373
 11
44.0454145407
 21
102.6758396373
  0
LINE
  5
34F
100
AcDbEntity
  8
0
100
AcDbLine
 62
7
  6
CONTINUOUS
 10
71.2454145407
 20
103.5258396373
 11
66.8454145407
 21
103.5258396373
  0
LINE
  5
350
100
AcDbEntity
  8
QUER2
100
AcDbLine
 62
7
  6
CONTINUOUS
 10
63.5454145407
 20
103.6758396373
 11
66.5454145407
 21
103.6758396373
  0
LINE
  5
351
100
AcDbEntity
  8
0
100
AcDbLine
 62
7
  6
CONTINUOUS
 10
50.0454145407
 20
104.7758396373
 11
52.8454145407
 21
104.7758396373
  0
LINE
  5
352
100
AcDbEntity
  8
0
100
AcDbLine
 62
7
  6
CONTINUOUS
 10
66.2454145407
 20
105.2758396373
 11
55.0454145407
 21
105.2758396373
  0
LINE
  5
353
100
AcDbEntity
  8
A_FLAECHEN
100
AcDbLine
 62
8
  6
HIDDEN
 10
69.5442493134
 20
105.5279238712
 11
71.5454145407
 21
105.5279238712
  0
LINE
  5
354
100
AcDbEntity
  8
A_ACHSEN
100
AcDbLine
 62
7
  6
CENTER
 10
43.0454145407
 20
105.6758396373
 11
53.0454145407
 21
105.6758396373
  0
LINE
  5
355
100
AcDbEntity
  8
0
100
AcDbLine
 62
2
  6
CONTINUOUS
 10
54.5454145407
 20
105.7758396373
 11
66.5454145407
 21
105.7758396373
  0
LINE
  5
356
100
AcDbEntity
  8
A_FLAECHEN
100
AcDbLine
 62
8
  6
HIDDEN
 10
69.4303322928
 20
106.4268817542
 11
71.4717713681
 21
106.4268817542
  0
LINE
  5
357
100
AcDbEntity
  8
A_FLAECHEN
100
AcDbLine
 62
8
  6
HIDDEN
 10
69.2752699572
 20
106.4783834777
 11
71.375904404
 21
106.4783834777
  0
LINE
  5
358
100
AcDbEntity
  8
0
100
AcDbLine
 62
7
  6
CONTINUOUS
 10
99.5558864684
 20
101.0899055419
 11
82.0454145407
 21
101.1815909964
  0
LINE
  5
359
100
AcDbEntity
  8
0
100
AcDbLine
 62
7
  6
CONTINUOUS
 10
174.0454145407
 20
107.6758396373
 11
171.5454145407
 21
107.6758396373
  0
LINE
  5
35A
100
AcDbEntity
  8
A_ACHSEN
100
AcDbLine
 62
7
  6
CENTER
 10
51.5454145407
 20
107.7758396373
 11
74.5454145407
 21
107.7758396373
  0
LINE
  5
35B
100
AcDbEntity
  8
0
100
AcDbLine
 62
7
  6
CONTINUOUS
 10
46.7954145407
 20
108.6758396373
 11
44.0454145407
 21
108.6758396373
  0
LINE
  5
35C
100
AcDbEntity
  8
A_FLAECHEN
100
AcDbLine
 62
8
  6
HIDDEN
 10
69.2752699572
 20
109.0732957969
 11
71.3758988415
 21
109.0732957969
  0
LINE
  5
35D
100
AcDbEntity
  8
A_FLAECHEN
100
AcDbLine
 62
8
  6
HIDDEN
 10
69.4303319117
 20
109.1247975203
 11
71.4717465347
 21
109.1247975203
  0
LINE
  5
35E
100
AcDbEntity
  8
0
100
AcDbLine
 62
7
  6
CONTINUOUS
 10
44.5454145407
 20
109.1758396373
 11
44.0454145407
 21
109.1758396373
  0
LINE
  5
35F
100
AcDbEntity
  8
0
100
AcDbLine
 62
2
  6
CONTINUOUS
 10
54.5454145407
 20
109.7758396373
 11
66.5454145407
 21
109.7758396373
  0
LINE
  5
360
100
AcDbEntity
  8
A_FLAECHEN
100
AcDbLine
 62
8
  6
HIDDEN
 10
69.5442493134
 20
110.0237554034
 11
71.5454145407
 21
110.0237554034
  0
LINE
  5
361
100
AcDbEntity
  8
0
100
AcDbLine
 62
7
  6
CONTINUOUS
 10
44.5454145407
 20
110.2325396373
 11
44.0454145407
 21
110.2325396373
  0
LINE
  5
362
100
AcDbEntity
  8
0
100
AcDbLine
 62
7
  6
CONTINUOUS
 10
66.2454145407
 20
110.2758396373
 11
55.0454145407
 21
110.2758396373
  0
LINE
  5
363
100
AcDbEntity
  8
0
100
AcDbLine
 62
7
  6
CONTINUOUS
 10
44.5454145407
 20
110.3058013307
 11
44.0454145407
 21
110.3058013307
  0
LINE
  5
364
100
AcDbEntity
  8
0
100
AcDbLine
 62
7
  6
CONTINUOUS
 10
44.5454145407
 20
110.4523247175
 11
44.0454145407
 21
110.4523247175
  0
LINE
  5
365
100
AcDbEntity
  8
0
100
AcDbLine
 62
7
  6
CONTINUOUS
 10
44.5454145407
 20
110.745371491
 11
44.0454145407
 21
110.745371491
  0
LINE
  5
366
100
AcDbEntity
  8
0
100
AcDbLine
 62
7
  6
CONTINUOUS
 10
50.0454145407
 20
110.7758396373
 11
52.8454145407
 21
110.7758396373
  0
LINE
  5
367
100
AcDbEntity
  8
0
100
AcDbLine
 62
7
  6
CONTINUOUS
 10
50.0454145407
 20
110.9258396373
 11
49.0454145407
 21
110.9258396373
  0
LINE
  5
368
100
AcDbEntity
  8
0
100
AcDbLine
 62
7
  6
CONTINUOUS
 10
44.5454145407
 20
111.0384182646
 11
44.0454145407
 21
111.0384182646
  0
LINE
  5
369
100
AcDbEntity
  8
0
100
AcDbLine
 62
7
  6
CONTINUOUS
 10
44.5454145407
 20
111.4047269368
 11
44.0454145407
 21
111.4047269368
  0
LINE
  5
36A
100
AcDbEntity
  8
QUER2
100
AcDbLine
 62
7
  6
CONTINUOUS
 10
63.5454145407
 20
111.8758396373
 11
66.5454145407
 21
111.8758396373
  0
LINE
  5
36B
100
AcDbEntity
  8
0
100
AcDbLine
 62
7
  6
CONTINUOUS
 10
71.2454145407
 20
112.0258396373
 11
66.8454145407
 21
112.0258396373
  0
LINE
  5
36C
100
AcDbEntity
  8
0
100
AcDbLine
 62
7
  6
CONTINUOUS
 10
44.5454145407
 20
112.5036524404
 11
44.0454145407
 21
112.5036524404
  0
LINE
  5
36D
100
AcDbEntity
  8
0
100
AcDbLine
 62
7
  6
CONTINUOUS
 10
189.0454145407
 20
112.6758396373
 11
174.0454145407
 21
112.6758396373
  0
LINE
  5
36E
100
AcDbEntity
  8
0
100
AcDbLine
 62
7
  6
CONTINUOUS
 10
44.5454145407
 20
112.8699609073
 11
44.0454145407
 21
112.8699609073
  0
LINE
  5
36F
100
AcDbEntity
  8
0
100
AcDbLine
 62
7
  6
CONTINUOUS
 10
44.5454145407
 20
113.1630077322
 11
44.0454145407
 21
113.1630077322
  0
LINE
  5
370
100
AcDbEntity
  8
0
100
AcDbLine
 62
7
  6
CONTINUOUS
 10
44.5454145407
 20
113.4560545314
 11
44.0454145407
 21
113.4560545314
  0
LINE
  5
371
100
AcDbEntity
  8
QUER2
100
AcDbLine
 62
7
  6
CONTINUOUS
 10
66.5454145407
 20
113.5758396373
 11
72.5454145407
 21
113.5758396373
  0
LINE
  5
372
100
AcDbEntity
  8
0
100
AcDbLine
 62
7
  6
CONTINUOUS
 10
44.5454145407
 20
113.6025779375
 11
44.0454145407
 21
113.6025779375
  0
LINE
  5
373
100
AcDbEntity
  8
0
100
AcDbLine
 62
7
  6
CONTINUOUS
 10
44.5454145407
 20
113.6758396373
 11
44.0454145407
 21
113.6758396373
  0
LINE
  5
374
100
AcDbEntity
  8
QUER2
100
AcDbLine
 62
7
  6
CONTINUOUS
 10
72.2454145407
 20
114.3758396373
 11
63.8454145407
 21
114.3758396373
  0
LINE
  5
375
100
AcDbEntity
  8
0
100
AcDbLine
 62
7
  6
CONTINUOUS
 10
90.8220533013
 20
156.043920295
 11
94.9851074516
 21
144.606022882
  0
LINE
  5
376
100
AcDbEntity
  8
QUER2
100
AcDbLine
 62
7
  6
CONTINUOUS
 10
86.8179547705
 20
74.2888333134
 11
83.2824208646
 21
70.7532994075
  0
LINE
  5
377
100
AcDbEntity
  8
0
100
AcDbLine
 62
7
  6
CONTINUOUS
 10
51.519235931
 20
117.1564611297
 11
75.5454145407
 21
117.5758396373
  0
LINE
  5
378
100
AcDbEntity
  8
0
100
AcDbLine
 62
7
  6
CONTINUOUS
 10
57.5323247375
 20
115.8448223874
 11
63.5454145407
 21
115.8972978272
  0
LINE
  5
379
100
AcDbEntity
  8
A_RUNDUNGEN
100
AcDbLine
 62
7
  6
CONTINUOUS
 10
63.5454145407
 20
115.8972978272
 11
68.464017121
 21
115.9402218216
  0
LINE
  5
37A
100
AcDbEntity
  8
0
100
AcDbLine
 62
7
  6
CONTINUOUS
 10
68.464017121
 20
115.9402218216
 11
72.5454145407
 21
115.9758396373
  0
LINE
  5
37B
100
AcDbEntity
  8
0
100
AcDbLine
 62
7
  6
CONTINUOUS
 10
75.5454145407
 20
116.1758396373
 11
54.3323247375
 21
115.9907158071
  0
LINE
  5
37C
100
AcDbEntity
  8
0
100
AcDbLine
 62
7
  6
CONTINUOUS
 10
46.034942613
 20
117.4723689627
 11
50.0454145407
 21
117.4933679365
  0
LINE
  5
37D
100
AcDbEntity
  8
A_RUNDUNGEN
100
AcDbLine
 62
7
  6
CONTINUOUS
 10
50.0454145407
 20
117.4933679365
 11
75.3454145407
 21
117.6258396373
  0
LINE
  5
37E
100
AcDbEntity
  8
0
100
AcDbLine
 62
7
  6
CONTINUOUS
 10
44.5454145407
 20
114.8480268342
 11
44.0454145407
 21
114.8480268342
  0
LINE
  5
37F
100
AcDbEntity
  8
0
100
AcDbLine
 62
7
  6
CONTINUOUS
 10
44.5454145407
 20
115.1758396373
 11
44.0454145407
 21
115.1758396373
  0
LINE
  5
380
100
AcDbEntity
  8
A_RUNDUNGEN
100
AcDbLine
 62
7
  6
CONTINUOUS
 10
54.3454145407
 20
115.9008396373
 11
62.5323247375
 21
115.9008396373
  0
LINE
  5
381
100
AcDbEntity
  8
A_RUNDUNGEN
100
AcDbLine
 62
7
  6
CONTINUOUS
 10
77.0454145407
 20
117.5758396373
 11
75.5454145407
 21
117.5758396373
  0
LINE
  5
382
100
AcDbEntity
  8
0
100
AcDbLine
 62
7
  6
CONTINUOUS
 10
44.0454145407
 20
117.6758396373
 11
77.0454145407
 21
117.6758396373
  0
LINE
  5
383
100
AcDbEntity
  8
0
100
AcDbLine
 62
7
  6
CONTINUOUS
 10
84.9279405407
 20
119.6758396373
 11
99.2063145407
 21
119.6758396373
  0
LINE
  5
384
100
AcDbEntity
  8
0
100
AcDbLine
 62
7
  6
CONTINUOUS
 10
68.5454145407
 20
120.6758396373
 11
77.0454145407
 21
120.6758396373
  0
LINE
  5
385
100
AcDbEntity
  8
0
100
AcDbLine
 62
7
  6
CONTINUOUS
 10
26.7480325068
 20
115.7784346376
 11
19.0323247277
 21
115.8457686444
  0
LINE
  5
386
100
AcDbEntity
  8
0
100
AcDbLine
 62
7
  6
CONTINUOUS
 10
101.5454145407
 20
73.2758396373
 11
101.0454145407
 21
72.7758396373
  0
LINE
  5
387
100
AcDbEntity
  8
QUER2
100
AcDbLine
 62
7
  6
CONTINUOUS
 10
85.6793194238
 20
74.7608127447
 11
86.127227242
 21
74.9696755904
  0
LINE
  5
388
100
AcDbEntity
  8
QUER2
100
AcDbLine
 62
7
  6
CONTINUOUS
 10
80.3032521049
 20
73.9138068996
 11
81.9114332145
 21
74.6357014005
  0
LINE
  5
389
100
AcDbEntity
  8
0
100
AcDbLine
 62
7
  6
CONTINUOUS
 10
193.3874343986
 20
117.3243095856
 11
191.5193551714
 21
116.6443852308
  0
LINE
  5
38A
100
AcDbEntity
  8
0
100
AcDbLine
 62
7
  6
CONTINUOUS
 10
77.1793895407
 20
125.6758396373
 11
68.5454145407
 21
125.6758396373
  0
LINE
  5
38B
100
AcDbEntity
  8
0
100
AcDbLine
 62
7
  6
CONTINUOUS
 10
93.5454145407
 20
126.1758396373
 11
78.0454145407
 21
126.1758396373
  0
LINE
  5
38C
100
AcDbEntity
  8
0
100
AcDbLine
 62
7
  6
CONTINUOUS
 10
19.0323247277
 20
133.5059106302
 11
26.7480324981
 21
133.5732446369
  0
LINE
  5
38D
100
AcDbEntity
  8
0
100
AcDbLine
 62
7
  6
CONTINUOUS
 10
104.8549635407
 20
132.6758396373
 11
186.0632825407
 21
132.6758396373
  0
LINE
  5
38E
100
AcDbEntity
  8
0
100
AcDbLine
 62
7
  6
CONTINUOUS
 10
20.2190628697
 20
153.1162397556
 11
17.8717664129
 21
153.5301316598
  0
LINE
  5
38F
100
AcDbEntity
  8
0
100
AcDbLine
 62
7
  6
CONTINUOUS
 10
26.7480325261
 20
146.7784346374
 11
21.5410512376
 21
146.8238756399
  0
LINE
  5
390
100
AcDbEntity
  8
0
100
AcDbLine
 62
7
  6
CONTINUOUS
 10
189.5454145407
 20
113.1758396373
 11
189.0454145407
 21
112.6758396373
  0
LINE
  5
391
100
AcDbEntity
  8
0
100
AcDbLine
 62
7
  6
CONTINUOUS
 10
19.0454145407
 20
158.6758396373
 11
87.0632825407
 21
158.6758396373
  0
LINE
  5
392
100
AcDbEntity
  8
0
100
AcDbLine
 62
7
  6
CONTINUOUS
 10
171.5454145407
 20
107.6758396373
 11
171.5454145407
 21
99.6758396373
  0
LINE
  5
393
100
AcDbEntity
  8
0
100
AcDbLine
 62
7
  6
CONTINUOUS
 10
174.0454145407
 20
112.6758396373
 11
174.0454145407
 21
107.6758396373
  0
LINE
  5
394
100
AcDbEntity
  8
0
100
AcDbLine
 62
7
  6
CONTINUOUS
 10
174.0454145407
 20
99.6758396373
 11
174.0454145407
 21
59.6758396373
  0
LINE
  5
395
100
AcDbEntity
  8
0
100
AcDbLine
 62
7
  6
CONTINUOUS
 10
189.5454145407
 20
113.8253066373
 11
189.5454145407
 21
113.1758396373
  0
LINE
  5
396
100
AcDbEntity
  8
0
100
AcDbLine
 62
7
  6
CONTINUOUS
 10
189.8220524183
 20
130.0439199736
 11
193.9851065686
 21
118.6060225607
  0
ARC
  5
397
100
AcDbEntity
  8
0
100
AcDbCircle
 62
7
  6
CONTINUOUS
 10
46.0454145407
 20
89.8792828964
 40
2.0
100
AcDbArc
 50
180.0
 51
269.7
  0
ARC
  5
398
100
AcDbEntity
  8
0
100
AcDbCircle
 62
7
  6
CONTINUOUS
 10
19.0454145407
 20
82.6758396373
 40
2.0
100
AcDbArc
 50
180.0
 51
270.0
  0
ARC
  5
399
100
AcDbEntity
  8
0
100
AcDbCircle
 62
7
  6
CONTINUOUS
 10
57.5454145407
 20
91.0067997717
 40
1.5
100
AcDbArc
 50
180.0
 51
269.5
  0
ARC
  5
39A
100
AcDbEntity
  8
0
100
AcDbCircle
 62
7
  6
CONTINUOUS
 10
51.5454145407
 20
89.6949896876
 40
1.5
100
AcDbArc
 50
180.0
 51
269.0
  0
ARC
  5
39B
100
AcDbEntity
  8
0
100
AcDbCircle
 62
7
  6
CONTINUOUS
 10
54.3454145407
 20
90.860906352
 40
1.5
100
AcDbArc
 50
180.0
 51
269.5
  0
ARC
  5
39C
100
AcDbEntity
  8
A_RUNDUNGEN
100
AcDbCircle
 62
7
  6
CONTINUOUS
 10
54.3454145407
 20
90.9508396373
 40
1.5
100
AcDbArc
 50
183.4310820436
 51
270.0
  0
ARC
  5
39D
100
AcDbEntity
  8
0
100
AcDbCircle
 62
7
  6
CONTINUOUS
 10
18.5454145407
 20
101.0016036373
 40
1.5
100
AcDbArc
 50
90.5000042622
 51
180.0
  0
ARC
  5
39E
100
AcDbEntity
  8
A_RUNDUNGEN
100
AcDbCircle
 62
7
  6
CONTINUOUS
 10
58.9454145407
 20
90.320743721
 40
1.0
100
AcDbArc
 50
235.7510301834
 51
239.6666666658
  0
ARC
  5
39F
100
AcDbEntity
  8
0
100
AcDbCircle
 62
7
  6
CONTINUOUS
 10
26.7454145407
 20
102.8732326373
 40
0.3
100
AcDbArc
 50
270.5000042622
 51
360.0
  0
ARC
  5
3A0
100
AcDbEntity
  8
QUER2
100
AcDbCircle
 62
7
  6
CONTINUOUS
 10
69.6321132813
 20
65.9985672431
 40
13.3928774596
100
AcDbArc
 50
62.727386009
 51
67.20682206
  0
ARC
  5
3A1
100
AcDbEntity
  8
QUER2
100
AcDbCircle
 62
7
  6
CONTINUOUS
 10
69.6321132813
 20
65.9985672431
 40
13.3928774596
100
AcDbArc
 50
55.2845037669
 51
59.2844205334
  0
ARC
  5
3A2
100
AcDbEntity
  8
QUER2
100
AcDbCircle
 62
7
  6
CONTINUOUS
 10
69.6321132813
 20
65.9985672431
 40
13.3928774596
100
AcDbArc
 50
47.7810361635
 51
51.8421451123
  0
ARC
  5
3A3
100
AcDbEntity
  8
QUER2
100
AcDbCircle
 62
7
  6
CONTINUOUS
 10
69.6321132813
 20
65.9985672431
 40
13.3928774596
100
AcDbArc
 50
39.9704349704
 51
44.3393766357
  0
ARC
  5
3A4
100
AcDbEntity
  8
QUER2
100
AcDbCircle
 62
7
  6
CONTINUOUS
 10
69.6321132813
 20
65.9985672431
 40
13.3928774596
100
AcDbArc
 50
77.598515657
 51
97.5210600325
  0
ARC
  5
3A5
100
AcDbEntity
  8
QUER2
100
AcDbCircle
 62
7
  6
CONTINUOUS
 10
69.6321132813
 20
65.9985672431
 40
11.478516903
100
AcDbArc
 50
30.8333048429
 51
97.8460018237
  0
ARC
  5
3A6
100
AcDbEntity
  8
0
100
AcDbCircle
 62
7
  6
CONTINUOUS
 10
69.5454145407
 20
66.2758396373
 40
5.5
100
AcDbArc
 50
65.390016476
 51
294.609983524
  0
ARC
  5
3A7
100
AcDbEntity
  8
QUER2
100
AcDbCircle
 62
7
  6
CONTINUOUS
 10
69.5454145407
 20
66.2758396373
 40
5.0
100
AcDbArc
 50
90.0
 51
270.0
  0
ARC
  5
3A8
100
AcDbEntity
  8
0
100
AcDbCircle
 62
7
  6
CONTINUOUS
 10
67.0454145407
 20
59.6758396373
 40
3.0
100
AcDbArc
 50
180.0
 51
270.0
  0
CIRCLE
  5
3A9
100
AcDbEntity
  8
QUER2
100
AcDbCircle
 62
7
  6
CONTINUOUS
 10
69.5454145407
 20
66.2758396373
 40
2.5
  0
CIRCLE
  5
3AA
100
AcDbEntity
  8
A_ACHSEN
100
AcDbCircle
 62
7
  6
CONTINUOUS
 10
69.5454145407
 20
66.2758396373
 40
2.45
  0
CIRCLE
  5
3AB
100
AcDbEntity
  8
A_ACHSEN
100
AcDbCircle
 62
7
  6
CONTINUOUS
 10
69.5454145407
 20
66.2758396373
 40
1.6215728753
  0
ARC
  5
3AC
100
AcDbEntity
  8
0
100
AcDbCircle
 62
7
  6
CONTINUOUS
 10
67.0454145407
 20
71.6758396373
 40
3.0
100
AcDbArc
 50
90.0
 51
158.404713962
  0
ARC
  5
3AD
100
AcDbEntity
  8
QUER2
100
AcDbCircle
 62
7
  6
CONTINUOUS
 10
72.6162421731
 20
79.5694874326
 40
0.5022619795
100
AcDbArc
 50
257.598515657
 51
0.8619182248
  0
ARC
  5
3AE
100
AcDbEntity
  8
QUER2
100
AcDbCircle
 62
7
  6
CONTINUOUS
 10
74.4482807764
 20
78.4981646266
 40
0.4023630867
100
AcDbArc
 50
176.5890765054
 51
337.7153682265
  0
ARC
  5
3AF
100
AcDbEntity
  8
QUER2
100
AcDbCircle
 62
7
  6
CONTINUOUS
 10
68.023683454
 20
77.6706874124
 40
0.3039037208
100
AcDbArc
 50
184.5937440552
 51
277.8460018237
  0
ARC
  5
3B0
100
AcDbEntity
  8
QUER2
100
AcDbCircle
 62
7
  6
CONTINUOUS
 10
67.9188895804
 20
78.9749341494
 40
0.3039037208
100
AcDbArc
 50
97.5210600325
 51
184.5937440552
  0
ARC
  5
3B1
100
AcDbEntity
  8
QUER2
100
AcDbCircle
 62
7
  6
CONTINUOUS
 10
82.0111254774
 20
72.236726829
 40
0.6
100
AcDbArc
 50
350.0
 51
121.8763603803
  0
ARC
  5
3B2
100
AcDbEntity
  8
QUER2
100
AcDbCircle
 62
7
  6
CONTINUOUS
 10
82.1089994713
 20
72.0122536057
 40
0.5837
100
AcDbArc
 50
8.4071409463
 51
121.8587620103
  0
ARC
  5
3B3
100
AcDbEntity
  8
QUER2
100
AcDbCircle
 62
7
  6
CONTINUOUS
 10
79.9195541797
 20
72.1392204977
 40
0.5022619795
100
AcDbArc
 50
210.8333048429
 51
290.547271683
  0
ARC
  5
3B4
100
AcDbEntity
  8
QUER2
100
AcDbCircle
 62
7
  6
CONTINUOUS
 10
83.0547324811
 20
71.2327178051
 40
0.5
100
AcDbArc
 50
170.9328996899
 51
315.0
  0
ARC
  5
3B5
100
AcDbEntity
  8
QUER2
100
AcDbCircle
 62
7
  6
CONTINUOUS
 10
82.928867474
 20
71.106852798
 40
0.5
100
AcDbArc
 50
170.0
 51
315.0
  0
ARC
  5
3B6
100
AcDbEntity
  8
QUER2
100
AcDbCircle
 62
7
  6
CONTINUOUS
 10
78.9129190736
 20
75.6293548534
 40
0.4023630867
100
AcDbArc
 50
134.3466524339
 51
317.7737603653
  0
ARC
  5
3B7
100
AcDbEntity
  8
QUER2
100
AcDbCircle
 62
7
  6
CONTINUOUS
 10
80.1384757806
 20
74.280882936
 40
0.4023630867
100
AcDbArc
 50
127.0417644818
 51
294.1747780881
  0
ARC
  5
3B8
100
AcDbEntity
  8
QUER2
100
AcDbCircle
 62
7
  6
CONTINUOUS
 10
76.5454145407
 20
81.0258396373
 40
19.75
100
AcDbArc
 50
270.0
 51
90.0
  0
ARC
  5
3B9
100
AcDbEntity
  8
QUER2
100
AcDbCircle
 62
7
  6
CONTINUOUS
 10
76.5454145407
 20
81.0258396373
 40
9.75
100
AcDbArc
 50
270.0
 51
301.8763603803
  0
ARC
  5
3BA
100
AcDbEntity
  8
QUER2
100
AcDbCircle
 62
7
  6
CONTINUOUS
 10
76.5454145407
 20
81.0258396373
 40
9.75
100
AcDbArc
 50
328.1236396197
 51
90.0
  0
ARC
  5
3BB
100
AcDbEntity
  8
QUER2
100
AcDbCircle
 62
7
  6
CONTINUOUS
 10
76.7118691819
 20
80.69703283
 40
9.6414848656
100
AcDbArc
 50
290.547271683
 51
301.8587620103
  0
ARC
  5
3BC
100
AcDbEntity
  8
QUER2
100
AcDbCircle
 62
7
  6
CONTINUOUS
 10
76.7118691819
 20
80.69703283
 40
9.6414848656
100
AcDbArc
 50
328.2593605105
 51
340.8200823557
  0
ARC
  5
3BD
100
AcDbEntity
  8
QUER2
100
AcDbCircle
 62
7
  6
CONTINUOUS
 10
79.6492162185
 20
79.6752946293
 40
6.5315079261
100
AcDbArc
 50
352.5872491716
 51
180.8619182248
  0
ARC
  5
3BE
100
AcDbEntity
  8
QUER2
100
AcDbCircle
 62
7
  6
CONTINUOUS
 10
79.6492162185
 20
79.6752946293
 40
5.5240497507
100
AcDbArc
 50
294.1747780881
 51
176.5890765054
  0
ARC
  5
3BF
100
AcDbEntity
  8
QUER2
100
AcDbCircle
 62
7
  6
CONTINUOUS
 10
76.1232469413
 20
77.7117283126
 40
0.4023630867
100
AcDbArc
 50
151.6741664759
 51
330.3376400666
  0
ARC
  5
3C0
100
AcDbEntity
  8
QUER2
100
AcDbCircle
 62
7
  6
CONTINUOUS
 10
77.5882905316
 20
76.7756138379
 40
0.4023630867
100
AcDbArc
 50
144.829576765
 51
322.2970721142
  0
ARC
  5
3C1
100
AcDbEntity
  8
0
100
AcDbCircle
 62
7
  6
CONTINUOUS
 10
93.0454145407
 20
67.7758396373
 40
5.0
100
AcDbArc
 50
270.0
 51
360.0
  0
ARC
  5
3C2
100
AcDbEntity
  8
0
100
AcDbCircle
 62
7
  6
CONTINUOUS
 10
99.5454145407
 20
62.9617463172
 40
2.0
100
AcDbArc
 50
270.3
 51
360.0
  0
ARC
  5
3C3
100
AcDbEntity
  8
A_RUNDUNGEN
100
AcDbCircle
 62
7
  6
CONTINUOUS
 10
95.045414606
 20
76.0464866784
 40
2.999999909
100
AcDbArc
 50
270.4999987692
 51
289.5983349903
  0
ARC
  5
3C4
100
AcDbEntity
  8
QUER2
100
AcDbCircle
 62
7
  6
CONTINUOUS
 10
85.4243775866
 20
75.3075372789
 40
0.6032437788
100
AcDbArc
 50
148.2593605105
 51
295.0
  0
ARC
  5
3C5
100
AcDbEntity
  8
QUER2
100
AcDbCircle
 62
7
  6
CONTINUOUS
 10
85.334527349
 20
75.5601287006
 40
0.6
100
AcDbArc
 50
148.1236396197
 51
280.0
  0
ARC
  5
3C6
100
AcDbEntity
  8
QUER2
100
AcDbCircle
 62
7
  6
CONTINUOUS
 10
86.3385363729
 20
74.5165216969
 40
0.5
100
AcDbArc
 50
315.0
 51
115.0
  0
ARC
  5
3C7
100
AcDbEntity
  8
QUER2
100
AcDbCircle
 62
7
  6
CONTINUOUS
 10
86.4644013799
 20
74.642386704
 40
0.5
100
AcDbArc
 50
315.0
 51
100.0
  0
ARC
  5
3C8
100
AcDbEntity
  8
0
100
AcDbCircle
 62
7
  6
CONTINUOUS
 10
78.8523839769
 20
102.6758396373
 40
3.5547736725
100
AcDbArc
 50
175.9671753207
 51
184.0328246793
  0
ARC
  5
3C9
100
AcDbEntity
  8
0
100
AcDbCircle
 62
7
  6
CONTINUOUS
 10
99.5454145407
 20
99.0899329574
 40
2.0
100
AcDbArc
 50
0.0
 51
89.7
  0
ARC
  5
3CA
100
AcDbEntity
  8
0
100
AcDbCircle
 62
7
  6
CONTINUOUS
 10
75.0454145407
 20
82.6758396373
 40
2.0
100
AcDbArc
 50
270.0
 51
360.0
  0
ARC
  5
3CB
100
AcDbEntity
  8
0
100
AcDbCircle
 62
7
  6
CONTINUOUS
 10
96.5454145407
 20
97.3956295858
 40
1.5
100
AcDbArc
 50
0.0
 51
88.5
  0
ARC
  5
3CC
100
AcDbEntity
  8
QUER2
100
AcDbCircle
 62
7
  6
CONTINUOUS
 10
74.0454145407
 20
102.2758396373
 40
1.5
100
AcDbArc
 50
180.0
 51
270.0
  0
ARC
  5
3CD
100
AcDbEntity
  8
0
100
AcDbCircle
 62
7
  6
CONTINUOUS
 10
87.7461171019
 20
100.1269042796
 40
1.0
100
AcDbArc
 50
255.425783802
 51
268.5
  0
ARC
  5
3CE
100
AcDbEntity
  8
A_RUNDUNGEN
100
AcDbCircle
 62
7
  6
CONTINUOUS
 10
66.2454145407
 20
104.9758396373
 40
0.3
100
AcDbArc
 50
0.0007005519
 51
90.0
  0
ARC
  5
3CF
100
AcDbEntity
  8
A_RUNDUNGEN
100
AcDbCircle
 62
7
  6
CONTINUOUS
 10
66.8454145407
 20
103.8258396373
 40
0.3
100
AcDbArc
 50
179.9999923139
 51
270.0
  0
ARC
  5
3D0
100
AcDbEntity
  8
A_RUNDUNGEN
100
AcDbCircle
 62
7
  6
CONTINUOUS
 10
71.2454145407
 20
103.8258396373
 40
0.3
100
AcDbArc
 50
270.0
 51
0.0001801248
  0
ARC
  5
3D1
100
AcDbEntity
  8
QUER2
100
AcDbCircle
 62
7
  6
CONTINUOUS
 10
63.8454145407
 20
91.0758396373
 40
0.3
100
AcDbArc
 50
180.0
 51
270.0
  0
ARC
  5
3D2
100
AcDbEntity
  8
0
100
AcDbCircle
 62
7
  6
CONTINUOUS
 10
87.0632825407
 20
154.6758396373
 40
4.0
100
AcDbArc
 50
19.9999997762
 51
90.0
  0
ARC
  5
3D3
100
AcDbEntity
  8
0
100
AcDbCircle
 62
7
  6
CONTINUOUS
 10
104.8549635407
 20
129.6758396373
 40
2.9999996523
100
AcDbArc
 50
90.0
 51
170.0000017934
  0
ARC
  5
3D4
100
AcDbEntity
  8
0
100
AcDbCircle
 62
7
  6
CONTINUOUS
 10
46.0454145407
 20
115.4723963782
 40
2.0
100
AcDbArc
 50
90.3
 51
180.0
  0
ARC
  5
3D5
100
AcDbEntity
  8
0
100
AcDbCircle
 62
7
  6
CONTINUOUS
 10
19.0454145407
 20
156.6758396373
 40
2.0
100
AcDbArc
 50
90.0
 51
180.0
  0
ARC
  5
3D6
100
AcDbEntity
  8
0
100
AcDbCircle
 62
7
  6
CONTINUOUS
 10
84.9279405407
 20
117.6758396373
 40
1.999999563
100
AcDbArc
 50
90.0
 51
174.9999992829
  0
ARC
  5
3D7
100
AcDbEntity
  8
0
100
AcDbCircle
 62
7
  6
CONTINUOUS
 10
19.0454145407
 20
117.3457116373
 40
1.5000001084
100
AcDbArc
 50
180.0
 51
269.4999996651
  0
ARC
  5
3D8
100
AcDbEntity
  8
0
100
AcDbCircle
 62
7
  6
CONTINUOUS
 10
57.5454145407
 20
114.3448795028
 40
1.5
100
AcDbArc
 50
90.5
 51
180.0
  0
ARC
  5
3D9
100
AcDbEntity
  8
0
100
AcDbCircle
 62
7
  6
CONTINUOUS
 10
51.5454145407
 20
115.6566895869
 40
1.5
100
AcDbArc
 50
91.0
 51
180.0
  0
ARC
  5
3DA
100
AcDbEntity
  8
A_RUNDUNGEN
100
AcDbCircle
 62
7
  6
CONTINUOUS
 10
54.3454145407
 20
114.4008396373
 40
1.5
100
AcDbArc
 50
90.0
 51
176.5689179564
  0
ARC
  5
3DB
100
AcDbEntity
  8
0
100
AcDbCircle
 62
7
  6
CONTINUOUS
 10
54.3454145407
 20
114.4907729225
 40
1.5
100
AcDbArc
 50
90.5
 51
180.0
  0
ARC
  5
3DC
100
AcDbEntity
  8
0
100
AcDbCircle
 62
7
  6
CONTINUOUS
 10
19.0454145407
 20
132.0059676373
 40
1.5
100
AcDbArc
 50
90.5000003349
 51
180.0
  0
ARC
  5
3DD
100
AcDbEntity
  8
0
100
AcDbCircle
 62
7
  6
CONTINUOUS
 10
93.5454145407
 20
127.6758396373
 40
1.5
100
AcDbArc
 50
270.0
 51
360.0
  0
ARC
  5
3DE
100
AcDbEntity
  8
0
100
AcDbCircle
 62
7
  6
CONTINUOUS
 10
20.0454145407
 20
152.1314316373
 40
1.000000386
100
AcDbArc
 50
0.0
 51
79.9999950958
  0
ARC
  5
3DF
100
AcDbEntity
  8
0
100
AcDbCircle
 62
7
  6
CONTINUOUS
 10
99.2063145407
 20
120.6758396373
 40
1.000000386
100
AcDbArc
 50
270.0
 51
350.0000017934
  0
ARC
  5
3E0
100
AcDbEntity
  8
0
100
AcDbCircle
 62
7
  6
CONTINUOUS
 10
94.0454145407
 20
144.2640026373
 40
1.0000003073
100
AcDbArc
 50
0.0
 51
19.9999997762
  0
ARC
  5
3E1
100
AcDbEntity
  8
0
100
AcDbCircle
 62
7
  6
CONTINUOUS
 10
78.0454145407
 20
125.1758396373
 40
0.9999993981
100
AcDbArc
 50
90.0
 51
149.9999884324
  0
ARC
  5
3E2
100
AcDbEntity
  8
0
100
AcDbCircle
 62
7
  6
CONTINUOUS
 10
18.0454145407
 20
154.5149386373
 40
0.9999992276
100
AcDbArc
 50
180.0
 51
259.9999950958
  0
ARC
  5
3E3
100
AcDbEntity
  8
A_RUNDUNGEN
100
AcDbCircle
 62
7
  6
CONTINUOUS
 10
58.9453917046
 20
115.0309353543
 40
0.999992388
100
AcDbArc
 50
120.3325947204
 51
124.247925682
  0
ARC
  5
3E4
100
AcDbEntity
  8
0
100
AcDbCircle
 62
7
  6
CONTINUOUS
 10
21.5454145407
 20
147.3238566373
 40
0.5000000361
100
AcDbArc
 50
180.0
 51
269.4999959815
  0
ARC
  5
3E5
100
AcDbEntity
  8
0
100
AcDbCircle
 62
7
  6
CONTINUOUS
 10
26.7454145407
 20
146.4784456373
 40
0.3000004234
100
AcDbArc
 50
0.0
 51
89.4999959815
  0
ARC
  5
3E6
100
AcDbEntity
  8
0
100
AcDbCircle
 62
7
  6
CONTINUOUS
 10
26.7454145407
 20
115.4784456373
 40
0.3000004234
100
AcDbArc
 50
0.0
 51
89.4999996651
  0
ARC
  5
3E7
100
AcDbEntity
  8
A_RUNDUNGEN
100
AcDbCircle
 62
7
  6
CONTINUOUS
 10
66.2454145407
 20
110.5758396373
 40
0.3
100
AcDbArc
 50
270.0
 51
359.9992994481
  0
ARC
  5
3E8
100
AcDbEntity
  8
A_RUNDUNGEN
100
AcDbCircle
 62
7
  6
CONTINUOUS
 10
66.8454145407
 20
111.7258396373
 40
0.3
100
AcDbArc
 50
90.0
 51
180.0000076861
  0
ARC
  5
3E9
100
AcDbEntity
  8
A_RUNDUNGEN
100
AcDbCircle
 62
7
  6
CONTINUOUS
 10
71.2454145407
 20
111.7258396373
 40
0.3
100
AcDbArc
 50
359.9998198752
 51
90.0
  0
ARC
  5
3EA
100
AcDbEntity
  8
QUER2
100
AcDbCircle
 62
7
  6
CONTINUOUS
 10
63.8454145407
 20
114.0758396373
 40
0.3
100
AcDbArc
 50
90.0
 51
180.0
  0
ARC
  5
3EB
100
AcDbEntity
  8
QUER2
100
AcDbCircle
 62
7
  6
CONTINUOUS
 10
72.2454145407
 20
114.0758396373
 40
0.3
100
AcDbArc
 50
0.0
 51
90.0
  0
ARC
  5
3EC
100
AcDbEntity
  8
0
100
AcDbCircle
 62
7
  6
CONTINUOUS
 10
26.7454145407
 20
133.8732326373
 40
0.3
100
AcDbArc
 50
270.5000003349
 51
360.0
  0
ARC
  5
3ED
100
AcDbEntity
  8
0
100
AcDbCircle
 62
7
  6
CONTINUOUS
 10
166.5454145407
 20
59.6758396373
 40
3.0
100
AcDbArc
 50
270.0
 51
360.0
  0
ARC
  5
3EE
100
AcDbEntity
  8
0
100
AcDbCircle
 62
7
  6
CONTINUOUS
 10
186.0632825407
 20
128.6758396373
 40
4.0
100
AcDbArc
 50
19.9999997762
 51
90.0
  0
ARC
  5
3EF
100
AcDbEntity
  8
0
100
AcDbCircle
 62
7
  6
CONTINUOUS
 10
192.5454145407
 20
113.8253066373
 40
3.0
100
AcDbArc
 50
109.9999761886
 51
180.0
  0
ARC
  5
3F0
100
AcDbEntity
  8
0
100
AcDbCircle
 62
7
  6
CONTINUOUS
 10
193.0454145407
 20
118.2640026373
 40
0.9999993676
100
AcDbArc
 50
289.9999761886
 51
19.9999997762
  0
SPLINE
  5
3F1
100
AcDbEntity
  8
DEFAULT_2
100
AcDbSpline
 62
8
  6
HIDDEN
 70
0
 71
3
 72
16
 73
12
 74
0
 42
0.0000001
 43
0.0000001
 44
0.0000000001
 40
0.0
 40
0.0
 40
0.0
 40
0.0
 40
0.3903798779
 40
0.5625679588
 40
0.7120202215
 40
0.8342206317
 40
0.9248405847
 40
0.9573082391
 40
0.9808415989
 40
0.9951643057
 40
1.0
 40
1.0
 40
1.0
 40
1.0
 10
71.4348117883
 20
105.8735455463
 30
0.0
 10
71.4490767441
 20
105.8285303273
 30
0.0
 10
71.469709218
 20
105.7636833448
 30
0.0
 10
71.4959378921
 20
105.6816474475
 30
0.0
 10
71.5123573725
 20
105.630529195
 30
0.0
 10
71.5257352422
 20
105.5888066112
 30
0.0
 10
71.5349341059
 20
105.5605825499
 30
0.0
 10
71.5402496799
 20
105.5436827061
 30
0.0
 10
71.543087563
 20
105.5356243973
 30
0.0
 10
71.5442750432
 20
105.5306451953
 30
0.0
 10
71.5454083517
 20
105.5285087766
 30
0.0
 10
71.5454145626
 20
105.5279238712
 30
0.0
  0
SPLINE
  5
3F2
100
AcDbEntity
  8
DEFAULT_2
100
AcDbSpline
 62
8
  6
HIDDEN
 70
0
 71
3
 72
13
 73
9
 74
0
 42
0.0000001
 43
0.0000001
 44
0.0000000001
 40
0.0
 40
0.0
 40
0.0
 40
0.0
 40
0.3823170071
 40
0.7042352415
 40
0.828763902
 40
0.9220602523
 40
0.9800639013
 40
1.0
 40
1.0
 40
1.0
 40
1.0
 10
69.3734058116
 20
105.8735455463
 30
0.0
 10
69.3964772353
 20
105.8301598211
 30
0.0
 10
69.437963621
 20
105.7497013432
 30
0.0
 10
69.4847852103
 20
105.6540154233
 30
0.0
 10
69.5147178007
 20
105.5914380037
 30
0.0
 10
69.5295178846
 20
105.5592095542
 30
0.0
 10
69.5392756624
 20
105.5394997023
 30
0.0
 10
69.5429682107
 20
105.5301429404
 30
0.0
 10
69.5442493909
 20
105.5279238712
 30
0.0
  0
SPLINE
  5
3F3
100
AcDbEntity
  8
DEFAULT_2
100
AcDbSpline
 62
8
  6
HIDDEN
 70
0
 71
3
 72
13
 73
9
 74
0
 42
0.0000001
 43
0.0000001
 44
0.0000000001
 40
0.0
 40
0.0
 40
0.0
 40
0.0
 40
0.0628689377
 40
0.1340931028
 40
0.222776558
 40
0.3333361504
 40
0.6251621043
 40
1.0
 40
1.0
 40
1.0
 40
1.0
 10
71.4731347395
 20
109.1247175898
 30
0.0
 10
71.4784030314
 20
109.1247340831
 30
0.0
 10
71.4898154569
 20
109.12194016
 30
0.0
 10
71.504323872
 20
109.1094802813
 30
0.0
 10
71.5165472321
 20
109.0901730762
 30
0.0
 10
71.5316448864
 20
109.0517138051
 30
0.0
 10
71.5428399275
 20
108.9870623066
 30
0.0
 10
71.545414544
 20
108.931208376
 30
0.0
 10
71.5454145433
 20
108.8997975523
 30
0.0
  0
SPLINE
  5
3F4
100
AcDbEntity
  8
DEFAULT_2
100
AcDbSpline
 62
8
  6
HIDDEN
 70
0
 71
3
 72
17
 73
13
 74
0
 42
0.0000001
 43
0.0000001
 44
0.0000000001
 40
0.0
 40
0.0
 40
0.0
 40
0.0
 40
0.0314594513
 40
0.063630326
 40
0.1002171407
 40
0.1435921279
 40
0.2545267375
 40
0.3953624568
 40
0.5534361924
 40
0.7147952759
 40
0.8664254743
 40
1.0
 40
1.0
 40
1.0
 40
1.0
 10
69.4365080489
 20
109.1246610537
 30
0.0
 10
69.4455163235
 20
109.1245922449
 30
0.0
 10
69.4639528969
 20
109.1214801013
 30
0.0
 10
69.4888486709
 20
109.1059221207
 30
0.0
 10
69.5090764002
 20
109.0803998104
 30
0.0
 10
69.5320711466
 20
109.0304251025
 30
0.0
 10
69.5458618906
 20
108.9458545781
 30
0.0
 10
69.5439140609
 20
108.8282803122
 30
0.0
 10
69.5239854182
 20
108.697592653
 30
0.0
 10
69.4880214007
 20
108.5672438367
 30
0.0
 10
69.438581121
 20
108.448961265
 30
0.0
 10
69.3964079468
 20
108.3784640606
 30
0.0
 10
69.3734058116
 20
108.3479037447
 30
0.0
  0
SPLINE
  5
3F5
100
AcDbEntity
  8
DEFAULT_2
100
AcDbSpline
 62
8
  6
HIDDEN
 70
0
 71
3
 72
21
 73
17
 74
0
 42
0.0000001
 43
0.0000001
 44
0.0000000001
 40
0.0
 40
0.0
 40
0.0
 40
0.0
 40
0.0012141761
 40
0.0048337895
 40
0.0108244702
 40
0.0191518484
 40
0.0426792177
 40
0.0751409396
 40
0.116262058
 40
0.1657533446
 40
0.2231645762
 40
0.2879439606
 40
0.437393674
 40
0.609596116
 40
0.7991324087
 40
1.0
 40
1.0
 40
1.0
 40
1.0
 10
71.5454145626
 20
110.0237554034
 30
0.0
 10
71.5455447276
 20
110.023687375
 30
0.0
 10
71.5449393001
 20
110.0229571059
 30
0.0
 10
71.5449447575
 20
110.0218782639
 30
0.0
 10
71.5440478776
 20
110.019719918
 30
0.0
 10
71.5427777108
 20
110.0154201964
 30
0.0
 10
71.5402852967
 20
110.0079755812
 30
0.0
 10
71.5367251072
 20
109.9968163462
 30
0.0
 10
71.5321372008
 20
109.9826401326
 30
0.0
 10
71.5266516774
 20
109.9656005146
 30
0.0
 10
71.5202854251
 20
109.9458317134
 30
0.0
 10
71.5102277253
 20
109.91455117
 30
0.0
 10
71.4959453336
 20
109.8700424218
 30
0.0
 10
71.4771098406
 20
109.8111464129
 30
0.0
 10
71.45644437
 20
109.7463055265
 30
0.0
 10
71.442151735
 20
109.7012960367
 30
0.0
 10
71.4348117883
 20
109.6781337283
 30
0.0
  0
SPLINE
  5
3F6
100
AcDbEntity
  8
DEFAULT_2
100
AcDbSpline
 62
8
  6
HIDDEN
 70
0
 71
3
 72
21
 73
17
 74
0
 42
0.0000001
 43
0.0000001
 44
0.0000000001
 40
0.0
 40
0.0
 40
0.0
 40
0.0
 40
0.0012682531
 40
0.0050444688
 40
0.0112858327
 40
0.0199495358
 40
0.0443727477
 40
0.0779717415
 40
0.1204042326
 40
0.1712653136
 40
0.2299438463
 40
0.2957867
 40
0.4463552272
 40
0.6176886778
 40
0.8041513214
 40
1.0
 40
1.0
 40
1.0
 40
1.0
 10
69.5442493909
 20
110.0237554034
 30
0.0
 10
69.5444026243
 20
110.0236998039
 30
0.0
 10
69.5435958209
 20
110.0228862274
 30
0.0
 10
69.5435035862
 20
110.0217836023
 30
0.0
 10
69.5422099568
 20
110.0194824572
 30
0.0
 10
69.5402623548
 20
110.0149659692
 30
0.0
 10
69.5365302026
 20
110.0071372561
 30
0.0
 10
69.5311383696
 20
109.9954581643
 30
0.0
 10
69.5242030621
 20
109.9806765157
 30
0.0
 10
69.5158982178
 20
109.9630040444
 30
0.0
 10
69.5062473849
 20
109.9426301306
 30
0.0
 10
69.491012785
 20
109.9107242089
 30
0.0
 10
69.4692784887
 20
109.8658751176
 30
0.0
 10
69.4402498244
 20
109.8073364732
 30
0.0
 10
69.4079989604
 20
109.7439030208
 30
0.0
 10
69.3852246769
 20
109.7003590598
 30
0.0
 10
69.3734058116
 20
109.6781337283
 30
0.0
  0
SPLINE
  5
3F7
100
AcDbEntity
  8
DEFAULT_2
100
AcDbSpline
 62
8
  6
HIDDEN
 70
0
 71
3
 72
17
 73
13
 74
0
 42
0.0000001
 43
0.0000001
 44
0.0000000001
 40
0.0
 40
0.0
 40
0.0
 40
0.0
 40
0.1997572394
 40
0.3866568012
 40
0.5550557639
 40
0.6995754543
 40
0.815820949
 40
0.9013847208
 40
0.9330466488
 40
0.9583878283
 40
0.9795435489
 40
1.0
 40
1.0
 40
1.0
 40
1.0
 10
71.4348117883
 20
109.6781337283
 30
0.0
 10
71.422010749
 20
109.6377381188
 30
0.0
 10
71.3985547927
 20
109.5591194719
 30
0.0
 10
71.3692558675
 20
109.445037647
 30
0.0
 10
71.3476291922
 20
109.3412057715
 30
0.0
 10
71.3343246271
 20
109.2510273005
 30
0.0
 10
71.3298475204
 20
109.1776780264
 30
0.0
 10
71.3333113944
 20
109.1278155705
 30
0.0
 10
71.3422588025
 20
109.0987671919
 30
0.0
 10
71.3507211293
 20
109.0842427147
 30
0.0
 10
71.3621199586
 20
109.0750516823
 30
0.0
 10
71.3711396883
 20
109.0732848591
 30
0.0
 10
71.3754791876
 20
109.0732967393
 30
0.0
  0
SPLINE
  5
3F8
100
AcDbEntity
  8
DEFAULT_2
100
AcDbSpline
 62
8
  6
HIDDEN
 70
0
 71
3
 72
11
 73
7
 74
0
 42
0.0000001
 43
0.0000001
 44
0.0000000001
 40
0.0
 40
0.0
 40
0.0
 40
0.0
 40
0.2532177205
 40
0.5233016352
 40
0.7803904152
 40
1.0
 40
1.0
 40
1.0
 40
1.0
 10
71.5454145433
 20
108.8997975523
 30
0.0
 10
71.5454145452
 20
108.8520187603
 30
0.0
 10
71.5388885689
 20
108.753268084
 30
0.0
 10
71.5160097065
 20
108.6076301618
 30
0.0
 10
71.4819024547
 20
108.4707523059
 30
0.0
 10
71.4517700728
 20
108.385712125
 30
0.0
 10
71.4348117883
 20
108.3479037447
 30
0.0
  0
SPLINE
  5
3F9
100
AcDbEntity
  8
DEFAULT_2
100
AcDbSpline
 62
8
  6
HIDDEN
 70
0
 71
3
 72
17
 73
13
 74
0
 42
0.0000001
 43
0.0000001
 44
0.0000000001
 40
0.0
 40
0.0
 40
0.0
 40
0.0
 40
0.1335747062
 40
0.2852050946
 40
0.4465642499
 40
0.6046379831
 40
0.7454736112
 40
0.8564080718
 40
0.8997829534
 40
0.9363696965
 40
0.96854054
 40
1.0
 40
1.0
 40
1.0
 40
1.0
 10
69.3734058116
 20
107.2037755299
 30
0.0
 10
69.3964079911
 20
107.1732151551
 30
0.0
 10
69.4385811986
 20
107.10271779
 30
0.0
 10
69.4880215566
 20
106.9844350356
 30
0.0
 10
69.5239855498
 20
106.8540860523
 30
0.0
 10
69.5439141312
 20
106.7233983105
 30
0.0
 10
69.5458618442
 20
106.6058240479
 30
0.0
 10
69.532070998
 20
106.5212535764
 30
0.0
 10
69.5090760986
 20
106.4712790006
 30
0.0
 10
69.4888482784
 20
106.4457568158
 30
0.0
 10
69.4639524386
 20
106.4301989521
 30
0.0
 10
69.4455158371
 20
106.4270869307
 30
0.0
 10
69.4365075544
 20
106.427018178
 30
0.0
  0
SPLINE
  5
3FA
100
AcDbEntity
  8
DEFAULT_2
100
AcDbSpline
 62
8
  6
HIDDEN
 70
0
 71
3
 72
13
 73
9
 74
0
 42
0.0000001
 43
0.0000001
 44
0.0000000001
 40
0.0
 40
0.0
 40
0.0
 40
0.0
 40
0.3748703066
 40
0.6667394223
 40
0.7772817243
 40
0.8659338478
 40
0.9371364084
 40
1.0
 40
1.0
 40
1.0
 40
1.0
 10
71.5454145429
 20
106.6518817815
 30
0.0
 10
71.5454145439
 20
106.6204650477
 30
0.0
 10
71.542834998
 20
106.5645994518
 30
0.0
 10
71.5316387288
 20
106.4999361688
 30
0.0
 10
71.5165344454
 20
106.461474993
 30
0.0
 10
71.5043052577
 20
106.4421753479
 30
0.0
 10
71.4897921091
 20
106.4297250784
 30
0.0
 10
71.4783785061
 20
106.426939644
 30
0.0
 10
71.47311014
 20
106.4269599878
 30
0.0
  0
SPLINE
  5
3FB
100
AcDbEntity
  8
DEFAULT_2
100
AcDbSpline
 62
8
  6
HIDDEN
 70
0
 71
3
 72
14
 73
10
 74
0
 42
0.0000001
 43
0.0000001
 44
0.0000000001
 40
0.0
 40
0.0
 40
0.0
 40
0.0
 40
0.3699130223
 40
0.5337813848
 40
0.6747924682
 40
0.7867465766
 40
0.86926824
 40
0.9342567988
 40
1.0
 40
1.0
 40
1.0
 40
1.0
 10
69.3734058116
 20
105.8735455463
 30
0.0
 10
69.333415828
 20
105.9487465595
 30
0.0
 10
69.2771621478
 20
106.0582038973
 30
0.0
 10
69.2181767745
 20
106.2020800003
 30
0.0
 10
69.1900739781
 20
106.294069795
 30
0.0
 10
69.1783236736
 20
106.3708189572
 30
0.0
 10
69.1872943105
 20
106.4317306429
 30
0.0
 10
69.2207437254
 20
106.4719349533
 30
0.0
 10
69.2522096317
 20
106.4783852951
 30
0.0
 10
69.2673467338
 20
106.4784825951
 30
0.0
  0
SPLINE
  5
3FC
100
AcDbEntity
  8
DEFAULT_2
100
AcDbSpline
 62
8
  6
HIDDEN
 70
0
 71
3
 72
9
 73
5
 74
0
 42
0.0000001
 43
0.0000001
 44
0.0000000001
 40
0.0
 40
0.0
 40
0.0
 40
0.0
 40
0.2763320376
 40
1.0
 40
1.0
 40
1.0
 40
1.0
 10
71.4348117883
 20
109.1060696209
 30
0.0
 10
71.4323776928
 20
109.103815265
 30
0.0
 10
71.4234260077
 20
109.0958214522
 30
0.0
 10
71.4138442306
 20
109.0884715033
 30
0.0
 10
71.4064304936
 20
109.0839410109
 30
0.0
  0
SPLINE
  5
3FD
100
AcDbEntity
  8
DEFAULT_2
100
AcDbSpline
 62
8
  6
HIDDEN
 70
0
 71
3
 72
9
 73
5
 74
0
 42
0.0000001
 43
0.0000001
 44
0.0000000001
 40
0.0
 40
0.0
 40
0.0
 40
0.0
 40
0.2666492063
 40
1.0
 40
1.0
 40
1.0
 40
1.0
 10
71.4064304936
 20
109.0839410109
 30
0.0
 10
71.4052506697
 20
109.0832200272
 30
0.0
 10
71.4007790581
 20
109.0805959456
 30
0.0
 10
71.3961027584
 20
109.0783043974
 30
0.0
 10
71.3925619763
 20
109.0769175141
 30
0.0
  0
SPLINE
  5
3FE
100
AcDbEntity
  8
DEFAULT_2
100
AcDbSpline
 62
8
  6
HIDDEN
 70
0
 71
3
 72
8
 73
4
 74
0
 42
0.0000001
 43
0.0000001
 44
0.0000000001
 40
0.0
 40
0.0
 40
0.0
 40
0.0
 40
1.0
 40
1.0
 40
1.0
 40
1.0
 10
71.3925619763
 20
109.0769175141
 30
0.0
 10
71.3890505606
 20
109.0755421332
 30
0.0
 10
71.3853982783
 20
109.0744456942
 30
0.0
 10
71.3816774147
 20
109.073831783
 30
0.0
  0
SPLINE
  5
3FF
100
AcDbEntity
  8
DEFAULT_2
100
AcDbSpline
 62
8
  6
HIDDEN
 70
0
 71
3
 72
8
 73
4
 74
0
 42
0.0000001
 43
0.0000001
 44
0.0000000001
 40
0.0
 40
0.0
 40
0.0
 40
0.0
 40
1.0
 40
1.0
 40
1.0
 40
1.0
 10
71.3816774147
 20
109.073831783
 30
0.0
 10
71.3796289703
 20
109.0734938069
 30
0.0
 10
71.3775481574
 20
109.0733019622
 30
0.0
 10
71.3754720253
 20
109.0732967015
 30
0.0
  0
SPLINE
  5
400
100
AcDbEntity
  8
DEFAULT_2
100
AcDbSpline
 62
8
  6
HIDDEN
 70
0
 71
3
 72
9
 73
5
 74
0
 42
0.0000001
 43
0.0000001
 44
0.0000000001
 40
0.0
 40
0.0
 40
0.0
 40
0.0
 40
0.5883452012
 40
1.0
 40
1.0
 40
1.0
 40
1.0
 10
71.4348117883
 20
106.4456096537
 30
0.0
 10
71.4249137992
 20
106.454776751
 30
0.0
 10
71.4072816901
 20
106.469386407
 30
0.0
 10
71.384911379
 20
106.4783586548
 30
0.0
 10
71.3754720253
 20
106.478382573
 30
0.0
  0
SPLINE
  5
401
100
AcDbEntity
  8
DEFAULT_2
100
AcDbSpline
 62
8
  6
HIDDEN
 70
0
 71
3
 72
8
 73
4
 74
0
 42
0.0000001
 43
0.0000001
 44
0.0000000001
 40
0.0
 40
0.0
 40
0.0
 40
0.0
 40
1.0
 40
1.0
 40
1.0
 40
1.0
 10
71.3754791876
 20
106.4783825353
 30
0.0
 10
71.3775561917
 20
106.4783768491
 30
0.0
 10
71.3796378405
 20
106.4781844668
 30
0.0
 10
71.3816870713
 20
106.4778458941
 30
0.0
  0
SPLINE
  5
402
100
AcDbEntity
  8
DEFAULT_2
100
AcDbSpline
 62
8
  6
HIDDEN
 70
0
 71
3
 72
8
 73
4
 74
0
 42
0.0000001
 43
0.0000001
 44
0.0000000001
 40
0.0
 40
0.0
 40
0.0
 40
0.0
 40
1.0
 40
1.0
 40
1.0
 40
1.0
 10
71.3816870713
 20
106.4778458941
 30
0.0
 10
71.3854045953
 20
106.477231687
 30
0.0
 10
71.389053572
 20
106.4761359675
 30
0.0
 10
71.3925619639
 20
106.4747617692
 30
0.0
  0
SPLINE
  5
403
100
AcDbEntity
  8
DEFAULT_2
100
AcDbSpline
 62
8
  6
HIDDEN
 70
0
 71
3
 72
9
 73
5
 74
0
 42
0.0000001
 43
0.0000001
 44
0.0000000001
 40
0.0
 40
0.0
 40
0.0
 40
0.0
 40
0.2339590877
 40
1.0
 40
1.0
 40
1.0
 40
1.0
 10
71.3925619639
 20
106.4747617692
 30
0.0
 10
71.3936916484
 20
106.4743192843
 30
0.0
 10
71.3984694832
 20
106.4722985698
 30
0.0
 10
71.4030408368
 20
106.4698096622
 30
0.0
 10
71.406430519
 20
106.4677382511
 30
0.0
  0
SPLINE
  5
404
100
AcDbEntity
  8
DEFAULT_2
100
AcDbSpline
 62
8
  6
HIDDEN
 70
0
 71
3
 72
9
 73
5
 74
0
 42
0.0000001
 43
0.0000001
 44
0.0000000001
 40
0.0
 40
0.0
 40
0.0
 40
0.0
 40
0.2241508545
 40
1.0
 40
1.0
 40
1.0
 40
1.0
 10
71.406430519
 20
106.4677382511
 30
0.0
 10
71.4087271833
 20
106.4663347756
 30
0.0
 10
71.4187555897
 20
106.4597167684
 30
0.0
 10
71.4279767224
 20
106.4519400015
 30
0.0
 10
71.4348117883
 20
106.4456096537
 30
0.0
  0
SPLINE
  5
405
100
AcDbEntity
  8
DEFAULT_2
100
AcDbSpline
 62
8
  6
HIDDEN
 70
0
 71
3
 72
9
 73
5
 74
0
 42
0.0000001
 43
0.0000001
 44
0.0000000001
 40
0.0
 40
0.0
 40
0.0
 40
0.0
 40
0.4116694073
 40
1.0
 40
1.0
 40
1.0
 40
1.0
 10
71.3754791876
 20
109.0732967393
 30
0.0
 10
71.3849179227
 20
109.0733225795
 30
0.0
 10
71.4072845928
 20
109.0822955188
 30
0.0
 10
71.4249150396
 20
109.0969036724
 30
0.0
 10
71.4348117883
 20
109.1060696209
 30
0.0
  0
SPLINE
  5
406
100
AcDbEntity
  8
DEFAULT_2
100
AcDbSpline
 62
8
  6
HIDDEN
 70
0
 71
3
 72
17
 73
13
 74
0
 42
0.0000001
 43
0.0000001
 44
0.0000000001
 40
0.0
 40
0.0
 40
0.0
 40
0.0
 40
0.1997572394
 40
0.3866568012
 40
0.5550557639
 40
0.6995754543
 40
0.815820949
 40
0.9013847208
 40
0.9330466488
 40
0.9583878283
 40
0.9795435489
 40
1.0
 40
1.0
 40
1.0
 40
1.0
 10
71.4348117883
 20
105.8735455463
 30
0.0
 10
71.422010749
 20
105.9139411557
 30
0.0
 10
71.3985547927
 20
105.9925598027
 30
0.0
 10
71.3692558675
 20
106.1066416275
 30
0.0
 10
71.3476291922
 20
106.2104735031
 30
0.0
 10
71.3343246271
 20
106.300651974
 30
0.0
 10
71.3298475204
 20
106.3740012482
 30
0.0
 10
71.3333113944
 20
106.423863704
 30
0.0
 10
71.3422588025
 20
106.4529120827
 30
0.0
 10
71.3507211293
 20
106.4674365599
 30
0.0
 10
71.3621199586
 20
106.4766275923
 30
0.0
 10
71.3711396883
 20
106.4783944155
 30
0.0
 10
71.3754791876
 20
106.4783825353
 30
0.0
  0
SPLINE
  5
407
100
AcDbEntity
  8
DEFAULT_2
100
AcDbSpline
 62
8
  6
HIDDEN
 70
0
 71
3
 72
11
 73
7
 74
0
 42
0.0000001
 43
0.0000001
 44
0.0000000001
 40
0.0
 40
0.0
 40
0.0
 40
0.0
 40
0.2532177204
 40
0.5233016352
 40
0.7803904151
 40
1.0
 40
1.0
 40
1.0
 40
1.0
 10
71.5454145434
 20
106.6518817217
 30
0.0
 10
71.5454145452
 20
106.6996605137
 30
0.0
 10
71.5388885689
 20
106.7984111901
 30
0.0
 10
71.5160097066
 20
106.9440491124
 30
0.0
 10
71.4819024548
 20
107.0809269685
 30
0.0
 10
71.4517700728
 20
107.1659671495
 30
0.0
 10
71.4348117883
 20
107.2037755299
 30
0.0
  0
SPLINE
  5
408
100
AcDbEntity
  8
DEFAULT_2
100
AcDbSpline
 62
8
  6
HIDDEN
 70
0
 71
3
 72
11
 73
7
 74
0
 42
0.0000001
 43
0.0000001
 44
0.0000000001
 40
0.0
 40
0.0
 40
0.0
 40
0.0
 40
0.2294183914
 40
0.4999986482
 40
0.7705800762
 40
1.0
 40
1.0
 40
1.0
 40
1.0
 10
71.4348117883
 20
107.2037755299
 30
0.0
 10
71.3982393871
 20
107.2853134502
 30
0.0
 10
71.3470368726
 20
107.4755151512
 30
0.0
 10
71.3226978083
 20
107.7758385014
 30
0.0
 10
71.347036502
 20
108.076162487
 30
0.0
 10
71.3982391428
 20
108.2663652797
 30
0.0
 10
71.4348117883
 20
108.3479037447
 30
0.0
  0
SPLINE
  5
409
100
AcDbEntity
  8
DEFAULT_2
100
AcDbSpline
 62
8
  6
HIDDEN
 70
0
 71
3
 72
9
 73
5
 74
0
 42
0.0000001
 43
0.0000001
 44
0.0000000001
 40
0.0
 40
0.0
 40
0.0
 40
0.0
 40
0.500155558
 40
1.0
 40
1.0
 40
1.0
 40
1.0
 10
69.3734058116
 20
108.3479037447
 30
0.0
 10
69.2524282993
 20
108.18717471
 30
0.0
 10
69.110989135
 20
107.7757496849
 30
0.0
 10
69.252503552
 20
107.3644045849
 30
0.0
 10
69.3734058116
 20
107.2037755299
 30
0.0
  0
SPLINE
  5
40A
100
AcDbEntity
  8
DEFAULT_2
100
AcDbSpline
 62
8
  6
HIDDEN
 70
0
 71
3
 72
9
 73
5
 74
0
 42
0.0000001
 43
0.0000001
 44
0.0000000001
 40
0.0
 40
0.0
 40
0.0
 40
0.0
 40
0.5251157286
 40
1.0
 40
1.0
 40
1.0
 40
1.0
 10
69.5039719519
 20
109.0857511062
 30
0.0
 10
69.4960079853
 20
109.0973678295
 30
0.0
 10
69.4766879228
 20
109.1176830596
 30
0.0
 10
69.4492443863
 20
109.124563887
 30
0.0
 10
69.4365075544
 20
109.1246610966
 30
0.0
  0
SPLINE
  5
40B
100
AcDbEntity
  8
DEFAULT_2
100
AcDbSpline
 62
8
  6
HIDDEN
 70
0
 71
3
 72
14
 73
10
 74
0
 42
0.0000001
 43
0.0000001
 44
0.0000000001
 40
0.0
 40
0.0
 40
0.0
 40
0.0
 40
0.3699130223
 40
0.5337813848
 40
0.6747924682
 40
0.7867465766
 40
0.86926824
 40
0.9342567988
 40
1.0
 40
1.0
 40
1.0
 40
1.0
 10
69.3734058116
 20
109.6781337283
 30
0.0
 10
69.333415828
 20
109.6029327151
 30
0.0
 10
69.2771621478
 20
109.4934753773
 30
0.0
 10
69.2181767745
 20
109.3495992743
 30
0.0
 10
69.1900739781
 20
109.2576094796
 30
0.0
 10
69.1783236736
 20
109.1808603173
 30
0.0
 10
69.1872943105
 20
109.1199486316
 30
0.0
 10
69.2207437254
 20
109.0797443213
 30
0.0
 10
69.2522096317
 20
109.0732939795
 30
0.0
 10
69.2673467338
 20
109.0731966794
 30
0.0
  0
SPLINE
  5
40C
100
AcDbEntity
  8
DEFAULT_2
100
AcDbSpline
 62
8
  6
HIDDEN
 70
0
 71
3
 72
21
 73
17
 74
0
 42
0.0000001
 43
0.0000001
 44
0.0000000001
 40
0.0
 40
0.0
 40
0.0
 40
0.0
 40
0.0012682531
 40
0.0050444688
 40
0.0112858327
 40
0.0199495359
 40
0.0443727477
 40
0.0779717416
 40
0.1204042326
 40
0.1712653136
 40
0.2299438463
 40
0.2957867
 40
0.4463552272
 40
0.6176886778
 40
0.8041513214
 40
1.0
 40
1.0
 40
1.0
 40
1.0
 10
69.5442493909
 20
105.5279238712
 30
0.0
 10
69.5444026243
 20
105.5279794707
 30
0.0
 10
69.543595821
 20
105.5287930472
 30
0.0
 10
69.5435035862
 20
105.5298956723
 30
0.0
 10
69.5422099568
 20
105.5321968173
 30
0.0
 10
69.5402623548
 20
105.5367133054
 30
0.0
 10
69.5365302026
 20
105.5445420185
 30
0.0
 10
69.5311383696
 20
105.5562211103
 30
0.0
 10
69.5242030621
 20
105.5710027589
 30
0.0
 10
69.5158982178
 20
105.5886752302
 30
0.0
 10
69.5062473849
 20
105.609049144
 30
0.0
 10
69.491012785
 20
105.6409550657
 30
0.0
 10
69.4692784887
 20
105.685804157
 30
0.0
 10
69.4402498244
 20
105.7443428014
 30
0.0
 10
69.4079989604
 20
105.8077762538
 30
0.0
 10
69.3852246769
 20
105.8513202147
 30
0.0
 10
69.3734058116
 20
105.8735455463
 30
0.0
  0
SPLINE
  5
40D
100
AcDbEntity
  8
DEFAULT_2
100
AcDbSpline
 62
8
  6
HIDDEN
 70
0
 71
3
 72
21
 73
17
 74
0
 42
0.0000001
 43
0.0000001
 44
0.0000000001
 40
0.0
 40
0.0
 40
0.0
 40
0.0
 40
0.0012141761
 40
0.0048337895
 40
0.0108244703
 40
0.0191518484
 40
0.0426792176
 40
0.0751409395
 40
0.1162620578
 40
0.1657533444
 40
0.2231645761
 40
0.2879439604
 40
0.4373936739
 40
0.609596116
 40
0.7991324087
 40
1.0
 40
1.0
 40
1.0
 40
1.0
 10
71.5454145626
 20
105.5279238712
 30
0.0
 10
71.5455436844
 20
105.5279938595
 30
0.0
 10
71.5449407875
 20
105.5287193742
 30
0.0
 10
71.5449438157
 20
105.5298027799
 30
0.0
 10
71.5440483002
 20
105.5319585626
 30
0.0
 10
71.5427773142
 20
105.536259823
 30
0.0
 10
71.5402855016
 20
105.5437033081
 30
0.0
 10
71.536725027
 20
105.5548630789
 30
0.0
 10
71.5321372295
 20
105.5690390879
 30
0.0
 10
71.5266516677
 20
105.5860787782
 30
0.0
 10
71.5202854283
 20
105.6058475553
 30
0.0
 10
71.5102277231
 20
105.6371281087
 30
0.0
 10
71.4959453345
 20
105.681636851
 30
0.0
 10
71.4771098403
 20
105.7405328622
 30
0.0
 10
71.4564443701
 20
105.8053737479
 30
0.0
 10
71.442151735
 20
105.8503832378
 30
0.0
 10
71.4348117883
 20
105.8735455463
 30
0.0
  0
SPLINE
  5
40E
100
AcDbEntity
  8
DEFAULT_2
100
AcDbSpline
 62
8
  6
HIDDEN
 70
0
 71
3
 72
16
 73
12
 74
0
 42
0.0000001
 43
0.0000001
 44
0.0000000001
 40
0.0
 40
0.0
 40
0.0
 40
0.0
 40
0.3903798778
 40
0.5625679587
 40
0.7120202214
 40
0.8342206316
 40
0.9248405847
 40
0.9573082391
 40
0.9808415988
 40
0.9951643057
 40
1.0
 40
1.0
 40
1.0
 40
1.0
 10
71.4348117883
 20
109.6781337283
 30
0.0
 10
71.4490767441
 20
109.7231489473
 30
0.0
 10
71.4697092211
 20
109.7879959297
 30
0.0
 10
71.4959378879
 20
109.8700318271
 30
0.0
 10
71.5123573852
 20
109.9211500794
 30
0.0
 10
71.5257352083
 20
109.9628726637
 30
0.0
 10
71.5349341731
 20
109.9910967239
 30
0.0
 10
71.5402496071
 20
110.0079965692
 30
0.0
 10
71.5430877268
 20
110.0160548756
 30
0.0
 10
71.5442747823
 20
110.021034082
 30
0.0
 10
71.5454085359
 20
110.0231704961
 30
0.0
 10
71.5454145626
 20
110.0237554034
 30
0.0
  0
SPLINE
  5
40F
100
AcDbEntity
  8
DEFAULT_2
100
AcDbSpline
 62
8
  6
HIDDEN
 70
0
 71
3
 72
9
 73
5
 74
0
 42
0.0000001
 43
0.0000001
 44
0.0000000001
 40
0.0
 40
0.0
 40
0.0
 40
0.0
 40
0.4748835616
 40
1.0
 40
1.0
 40
1.0
 40
1.0
 10
69.4365080489
 20
106.4270182209
 30
0.0
 10
69.4492449289
 20
106.4271155102
 30
0.0
 10
69.4766885626
 20
106.4339965883
 30
0.0
 10
69.4960085698
 20
106.4543120752
 30
0.0
 10
69.5039725033
 20
106.4659289351
 30
0.0
  0
SPLINE
  5
410
100
AcDbEntity
  8
DEFAULT_2
100
AcDbSpline
 62
8
  6
HIDDEN
 70
0
 71
3
 72
10
 73
6
 74
0
 42
0.0000001
 43
0.0000001
 44
0.0000000001
 40
0.0
 40
0.0
 40
0.0
 40
0.0
 40
0.1759675249
 40
0.5096974143
 40
1.0
 40
1.0
 40
1.0
 40
1.0
 10
71.4731347395
 20
106.4269616848
 30
0.0
 10
71.479294188
 20
106.4269424016
 30
0.0
 10
71.4973943302
 20
106.432442432
 30
0.0
 10
71.5188164667
 20
106.4626273407
 30
0.0
 10
71.5274206962
 20
106.4900731239
 30
0.0
 10
71.5314434162
 20
106.506757321
 30
0.0
  0
SPLINE
  5
411
100
AcDbEntity
  8
DEFAULT_2
100
AcDbSpline
 62
8
  6
HIDDEN
 70
0
 71
3
 72
9
 73
5
 74
0
 42
0.0000001
 43
0.0000001
 44
0.0000000001
 40
0.0
 40
0.0
 40
0.0
 40
0.0
 40
0.4524876711
 40
1.0
 40
1.0
 40
1.0
 40
1.0
 10
71.5314434162
 20
106.506757321
 30
0.0
 10
71.5366059276
 20
106.5281687937
 30
0.0
 10
71.5435117382
 20
106.5765435013
 30
0.0
 10
71.5454145439
 20
106.6252313057
 30
0.0
 10
71.5454145434
 20
106.6518817217
 30
0.0
  0
SPLINE
  5
412
100
AcDbEntity
  8
DEFAULT_2
100
AcDbSpline
 62
8
  6
HIDDEN
 70
0
 71
3
 72
13
 73
9
 74
0
 42
0.0000001
 43
0.0000001
 44
0.0000000001
 40
0.0
 40
0.0
 40
0.0
 40
0.0
 40
0.3823170072
 40
0.7042352416
 40
0.8287639021
 40
0.9220602524
 40
0.9800639013
 40
1.0
 40
1.0
 40
1.0
 40
1.0
 10
69.3734058116
 20
109.6781337283
 30
0.0
 10
69.3964772353
 20
109.7215194535
 30
0.0
 10
69.437963621
 20
109.8019779314
 30
0.0
 10
69.4847852103
 20
109.8976638513
 30
0.0
 10
69.5147178008
 20
109.9602412709
 30
0.0
 10
69.5295178846
 20
109.9924697204
 30
0.0
 10
69.5392756624
 20
110.0121795722
 30
0.0
 10
69.5429682107
 20
110.0215363342
 30
0.0
 10
69.5442493909
 20
110.0237554034
 30
0.0
  0
SPLINE
  5
413
100
AcDbEntity
  8
DEFAULT_2
100
AcDbSpline
 62
8
  6
HIDDEN
 70
0
 71
3
 72
9
 73
5
 74
0
 42
0.0000001
 43
0.0000001
 44
0.0000000001
 40
0.0
 40
0.0
 40
0.0
 40
0.0
 40
0.4641848869
 40
1.0
 40
1.0
 40
1.0
 40
1.0
 10
71.3754720253
 20
109.0732967015
 30
0.0
 10
71.3694073953
 20
109.0732813345
 30
0.0
 10
71.3559186043
 20
109.0774140266
 30
0.0
 10
71.3480103531
 20
109.0887135627
 30
0.0
 10
71.3448279772
 20
109.0949489152
 30
0.0
  0
SPLINE
  5
414
100
AcDbEntity
  8
DEFAULT_2
100
AcDbSpline
 62
8
  6
HIDDEN
 70
0
 71
3
 72
9
 73
5
 74
0
 42
0.0000001
 43
0.0000001
 44
0.0000000001
 40
0.0
 40
0.0
 40
0.0
 40
0.0
 40
0.418384545
 40
1.0
 40
1.0
 40
1.0
 40
1.0
 10
71.3448279772
 20
109.0949489152
 30
0.0
 10
71.3394427132
 20
109.1055004718
 30
0.0
 10
71.3326343582
 20
109.1335538473
 30
0.0
 10
71.3312620171
 20
109.1618290551
 30
0.0
 10
71.3312444018
 20
109.1782972213
 30
0.0
  0
SPLINE
  5
415
100
AcDbEntity
  8
DEFAULT_2
100
AcDbSpline
 62
8
  6
HIDDEN
 70
0
 71
3
 72
10
 73
6
 74
0
 42
0.0000001
 43
0.0000001
 44
0.0000000001
 40
0.0
 40
0.0
 40
0.0
 40
0.0
 40
0.1865243022
 40
0.4230577366
 40
1.0
 40
1.0
 40
1.0
 40
1.0
 10
71.3312444018
 20
109.1782972213
 30
0.0
 10
71.3312103623
 20
109.2101199613
 30
0.0
 10
71.3377205586
 20
109.2822450712
 30
0.0
 10
71.3677605286
 20
109.4502464878
 30
0.0
 10
71.4050768879
 20
109.5843007669
 30
0.0
 10
71.4348117883
 20
109.6781337283
 30
0.0
  0
SPLINE
  5
416
100
AcDbEntity
  8
0
100
AcDbSpline
 62
7
  6
CONTINUOUS
 70
0
 71
3
 72
15
 73
11
 74
0
 42
0.0000001
 43
0.0000001
 44
0.0000000001
 40
0.0
 40
0.0
 40
0.0
 40
0.0
 40
0.1250245363
 40
0.2500293709
 40
0.3750074733
 40
0.4999666607
 40
0.6249397407
 40
0.7499416157
 40
0.8749633898
 40
1.0
 40
1.0
 40
1.0
 40
1.0
 10
75.3065819384
 20
100.7749162022
 30
0.0
 10
75.2182617329
 20
100.9392401098
 30
0.0
 10
75.0540122267
 20
101.274854954
 30
0.0
 10
74.8631400507
 20
101.8024178712
 30
0.0
 10
74.7523576313
 20
102.3535505543
 30
0.0
 10
74.7444207766
 20
102.9163698237
 30
0.0
 10
74.8413647675
 20
103.4702613093
 30
0.0
 10
75.0222279055
 20
104.0015164913
 30
0.0
 10
75.2617671765
 20
104.5082021042
 30
0.0
 10
75.4478878419
 20
104.8319533458
 30
0.0
 10
75.5454145407
 20
104.9910070178
 30
0.0
  0
SPLINE
  5
417
100
AcDbEntity
  8
0
100
AcDbSpline
 62
7
  6
CONTINUOUS
 70
0
 71
3
 72
9
 73
5
 74
0
 42
0.0000001
 43
0.0000001
 44
0.0000000001
 40
0.0
 40
0.0
 40
0.0
 40
0.0
 40
0.5009299054
 40
1.0
 40
1.0
 40
1.0
 40
1.0
 10
75.3064121971
 20
102.9258396373
 30
0.0
 10
75.3175667382
 20
103.083857539
 30
0.0
 10
75.3727414766
 20
103.3976017867
 30
0.0
 10
75.4816266152
 20
103.6958884268
 30
0.0
 10
75.5454145407
 20
103.8402462915
 30
0.0
  0
SPLINE
  5
418
100
AcDbEntity
  8
0
100
AcDbSpline
 62
7
  6
CONTINUOUS
 70
0
 71
3
 72
9
 73
5
 74
0
 42
0.0000001
 43
0.0000001
 44
0.0000000001
 40
0.0
 40
0.0
 40
0.0
 40
0.0
 40
0.4990716142
 40
1.0
 40
1.0
 40
1.0
 40
1.0
 10
75.5454145407
 20
101.5114329831
 30
0.0
 10
75.4816264217
 20
101.6557912858
 30
0.0
 10
75.3727414668
 20
101.9540779971
 30
0.0
 10
75.3175667043
 20
102.2678222165
 30
0.0
 10
75.3064121971
 20
102.4258396373
 30
0.0
  0
SPLINE
  5
419
100
AcDbEntity
  8
A_RUNDUNGEN
100
AcDbSpline
 62
7
  6
CONTINUOUS
 70
0
 71
3
 72
12
 73
8
 74
0
 42
0.0000001
 43
0.0000001
 44
0.0000000001
 40
0.0
 40
0.0
 40
0.0
 40
0.0
 40
0.3016107602
 40
0.5768876568
 40
0.8129482289
 40
0.9127827064
 40
1.0
 40
1.0
 40
1.0
 40
1.0
 10
79.7083988574
 20
61.5493249094
 30
0.0
 10
79.8117184689
 20
61.4998364238
 30
0.0
 10
80.0106299821
 20
61.4076454247
 30
0.0
 10
80.2970894661
 20
61.29246964
 30
0.0
 10
80.5209502505
 20
61.2264049912
 30
0.0
 10
80.6810605105
 20
61.2083319792
 30
0.0
 10
80.7526927471
 20
61.2131135387
 30
0.0
 10
80.7850849777
 20
61.2200547309
 30
0.0
  0
SPLINE
  5
41A
100
AcDbEntity
  8
A_RUNDUNGEN
100
AcDbSpline
 62
7
  6
CONTINUOUS
 70
0
 71
3
 72
14
 73
10
 74
0
 42
0.0000001
 43
0.0000001
 44
0.0000000001
 40
0.0
 40
0.0
 40
0.0
 40
0.0
 40
0.3820312629
 40
0.5547774445
 40
0.7063658421
 40
0.831008064
 40
0.9236945867
 40
0.9807312587
 40
1.0
 40
1.0
 40
1.0
 40
1.0
 10
87.9482007218
 20
63.7758396373
 30
0.0
 10
87.9616796805
 20
63.6485984743
 30
0.0
 10
87.9809591643
 20
63.4637903762
 30
0.0
 10
88.004851309
 20
63.2284173602
 30
0.0
 10
88.0196083457
 20
63.0787688486
 30
0.0
 10
88.0313928934
 20
62.9557685471
 30
0.0
 10
88.0399593346
 20
62.8642821584
 30
0.0
 10
88.0443138985
 20
62.807832138
 30
0.0
 10
88.0452585698
 20
62.7822926942
 30
0.0
 10
88.0454145407
 20
62.7758396373
 30
0.0
  0
ENDSEC
  0
SECTION
  2
OBJECTS
  0
DICTIONARY
  5
41B
100
AcDbDictionary
  3
ACAD_GROUP
350
41C
  3
ACAD_MLINESTYLE
350
41D
  0
DICTIONARY
  5
41C
102
{ACAD_REACTORS
330
41B
102
}
100
AcDbDictionary
  0
DICTIONARY
  5
41D
102
{ACAD_REACTORS
330
41B
102
}
100
AcDbDictionary
  3
STANDARD
350
41E
  0
MLINESTYLE
  5
41E
102
{ACAD_REACTORS
330
41D
102
}
100
AcDbMlineStyle
  2
STANDARD
 70
0
  3

 62
256
 51
90.0
 52
90.0
 71
2
 49
0.5
 62
256
  6
BYLAYER
 49
-0.5
 62
256
  6
BYLAYER
  0
ENDSEC
  0
EOF
