999
DXF file: d:\tmp\workingDir\0000062581\te_680_3d_fd_q03_01.dxf
999
Pro/ENGINEER 2016380 by Parametric Technology Corporation
  0
SECTION
  2
HEADER
  9
$ACADVER
  1
AC1014
  9
$DWGCODEPAGE
  3
ANSI_1252
  9
$EXTMAX
 10
199.898
 20
200.0
 30
0.0
  9
$EXTMIN
 10
0.0
 20
0.0
 30
0.0
  9
$LIMMIN
 10
0.0
 20
0.0
  9
$LIMMAX
 10
199.898
 20
200.0
  9
$VIEWCTR
 10
99.949
 20
100.0
  9
$VIEWSIZE
 40
200.0
  9
$CLAYER
  8
0
  9
$LTSCALE
 40
13.037037037
  9
$CELTYPE
  6
BYLAYER
  9
$DIMSCALE
 40
1.0
  9
$DIMASZ
 40
3.5
  9
$DIMEXO
 40
0.0
  9
$DIMDLI
 40
9.0074074074
  9
$DIMEXE
 40
2.0
  9
$DIMCEN
 40
2.1333333333
  9
$DIMLFAC
 40
1.0
  9
$DIMBLK
  1
_ARROW_FILLED
  9
$DIMALT
 70
0
  9
$DIMALTF
 40
25.4
  9
$DIMTXT
 40
3.5
  9
$DIMTOL
 70
1
  9
$DIMLIM
 70
0
  9
$DIMTFAC
 40
1.0
  9
$DIMTP
 40
0.01
  9
$DIMTM
 40
0.01
  9
$DIMGAP
 40
0.625
  9
$AUNITS
 70
0
  9
$PDMODE
 70
0
  9
$PDSIZE
 40
0.04
  9
$HANDSEED
  5
41D
  9
$TILEMODE
 70
1
  9
$MEASUREMENT
 70
1
  0
ENDSEC
  0
SECTION
  2
CLASSES
  0
ENDSEC
  0
SECTION
  2
TABLES
  0
TABLE
  2
VPORT
  5
8
100
AcDbSymbolTable
 70
2
  0
VPORT
  5
1F4
100
AcDbSymbolTableRecord
100
AcDbViewportTableRecord
  2
*ACTIVE
 70
0
 10
0.0
 20
0.0
 11
1.0
 21
1.0
 12
99.949
 22
100.0
 13
0.0
 23
0.0
 14
1.0
 24
1.0
 15
0.0
 25
0.0
 16
0.0
 26
0.0
 36
1.0
 17
0.0
 27
0.0
 37
0.0
 40
200.0
 41
0.99949
 42
50.0
 43
0.0
 44
0.0
 50
0.0
 51
0.0
 71
0
 72
100
 73
1
 74
1
 75
0
 76
0
 77
0
 78
0
  0
ENDTAB
  0
TABLE
  2
LTYPE
  5
5
100
AcDbSymbolTable
 70
6
  0
LTYPE
  5
14
100
AcDbSymbolTableRecord
100
AcDbLinetypeTableRecord
  2
BYBLOCK
 70
0
  3

 72
65
 73
0
 40
0.0
  0
LTYPE
  5
15
100
AcDbSymbolTableRecord
100
AcDbLinetypeTableRecord
  2
BYLAYER
 70
0
  3

 72
65
 73
0
 40
0.0
  0
LTYPE
  5
16
100
AcDbSymbolTableRecord
100
AcDbLinetypeTableRecord
  2
CONTINUOUS
 70
64
  3
Solid line
 72
65
 73
0
 40
0.0
  0
LTYPE
  5
1F5
100
AcDbSymbolTableRecord
100
AcDbLinetypeTableRecord
  2
CENTER
 70
64
  3
____ _ ____ _ ____ _ ____ _ ____ _ ____ _ ____
 72
65
 73
4
 40
0.6
 49
0.375
 74
0
 49
-0.075
 74
0
 49
0.075
 74
0
 49
-0.075
 74
0
  0
LTYPE
  5
1F6
100
AcDbSymbolTableRecord
100
AcDbLinetypeTableRecord
  2
HIDDEN
 70
64
  3
- - - - - - - - - - - - - - - - - - - -
 72
65
 73
2
 40
0.2
 49
0.1
 74
0
 49
-0.1
 74
0
  0
LTYPE
  5
1F7
100
AcDbSymbolTableRecord
100
AcDbLinetypeTableRecord
  2
PHANTOM
 70
64
  3
_____ _ _ _____ _ _ _____ _ _ _____
 72
65
 73
6
 40
0.8
 49
0.45
 74
0
 49
-0.05
 74
0
 49
0.1
 74
0
 49
-0.05
 74
0
 49
0.1
 74
0
 49
-0.05
 74
0
  0
LTYPE
  5
1F8
100
AcDbSymbolTableRecord
100
AcDbLinetypeTableRecord
  2
DOT
 70
64
  3
. . . . . . . . . . . . . . . . . . . .
 72
65
 73
2
 40
0.2
 49
0.1
 74
0
 49
-0.1
 74
0
  0
LTYPE
  5
1F9
100
AcDbSymbolTableRecord
100
AcDbLinetypeTableRecord
  2
DASHED
 70
64
  3
- - - - - - - - - - - - - - - - - - - -
 72
65
 73
2
 40
0.2
 49
0.1
 74
0
 49
-0.1
 74
0
  0
ENDTAB
  0
TABLE
  2
LAYER
  5
2
100
AcDbSymbolTable
 70
36
  0
LAYER
  5
10
100
AcDbSymbolTableRecord
100
AcDbLayerTableRecord
  2
0
 70
0
 62
7
  6
CONTINUOUS
  0
LAYER
  5
1FA
100
AcDbSymbolTableRecord
100
AcDbLayerTableRecord
  2
DEFAULT_1
 70
0
 62
7
  6
CENTER
  0
LAYER
  5
1FB
100
AcDbSymbolTableRecord
100
AcDbLayerTableRecord
  2
DEFAULT_2
 70
0
 62
8
  6
HIDDEN
  0
LAYER
  5
1FC
100
AcDbSymbolTableRecord
100
AcDbLayerTableRecord
  2
DEFAULT_3
 70
0
 62
7
  6
PHANTOM
  0
LAYER
  5
1FD
100
AcDbSymbolTableRecord
100
AcDbLayerTableRecord
  2
A_ACHSEN
 70
0
 62
7
  6
CONTINUOUS
  0
LAYER
  5
1FE
100
AcDbSymbolTableRecord
100
AcDbLayerTableRecord
  2
A_BASISEBENEN
 70
0
 62
7
  6
CONTINUOUS
  0
LAYER
  5
1FF
100
AcDbSymbolTableRecord
100
AcDbLayerTableRecord
  2
A_BEMASSUNGEN
 70
0
 62
7
  6
CONTINUOUS
  0
LAYER
  5
200
100
AcDbSymbolTableRecord
100
AcDbLayerTableRecord
  2
A_BOHRUNGEN
 70
0
 62
7
  6
CONTINUOUS
  0
LAYER
  5
201
100
AcDbSymbolTableRecord
100
AcDbLayerTableRecord
  2
A_EBENEN
 70
0
 62
7
  6
CONTINUOUS
  0
LAYER
  5
202
100
AcDbSymbolTableRecord
100
AcDbLayerTableRecord
  2
A_FASEN
 70
0
 62
7
  6
CONTINUOUS
  0
LAYER
  5
203
100
AcDbSymbolTableRecord
100
AcDbLayerTableRecord
  2
A_FLAECHEN
 70
0
 62
7
  6
CONTINUOUS
  0
LAYER
  5
204
100
AcDbSymbolTableRecord
100
AcDbLayerTableRecord
  2
A_FL_VERBAENDE
 70
0
 62
7
  6
CONTINUOUS
  0
LAYER
  5
205
100
AcDbSymbolTableRecord
100
AcDbLayerTableRecord
  2
A_KURVEN
 70
0
 62
7
  6
CONTINUOUS
  0
LAYER
  5
206
100
AcDbSymbolTableRecord
100
AcDbLayerTableRecord
  2
A_NOTIZEN_SYMB
 70
0
 62
7
  6
CONTINUOUS
  0
LAYER
  5
207
100
AcDbSymbolTableRecord
100
AcDbLayerTableRecord
  2
A_PUNKTE
 70
0
 62
7
  6
CONTINUOUS
  0
LAYER
  5
208
100
AcDbSymbolTableRecord
100
AcDbLayerTableRecord
  2
A_RUNDUNGEN
 70
0
 62
7
  6
CONTINUOUS
  0
LAYER
  5
209
100
AcDbSymbolTableRecord
100
AcDbLayerTableRecord
  2
BASISEBENEN
 70
0
 62
7
  6
CONTINUOUS
  0
LAYER
  5
20A
100
AcDbSymbolTableRecord
100
AcDbLayerTableRecord
  2
GRUNDEBENE
 70
0
 62
7
  6
CONTINUOUS
  0
LAYER
  5
20B
100
AcDbSymbolTableRecord
100
AcDbLayerTableRecord
  2
IMPORT_KE
 70
0
 62
7
  6
CONTINUOUS
  0
LAYER
  5
20C
100
AcDbSymbolTableRecord
100
AcDbLayerTableRecord
  2
INTFCLR_3
 70
0
 62
7
  6
CONTINUOUS
  0
LAYER
  5
20D
100
AcDbSymbolTableRecord
100
AcDbLayerTableRecord
  2
INTF_1
 70
0
 62
7
  6
CONTINUOUS
  0
LAYER
  5
20E
100
AcDbSymbolTableRecord
100
AcDbLayerTableRecord
  2
INTF_2
 70
0
 62
7
  6
CONTINUOUS
  0
LAYER
  5
20F
100
AcDbSymbolTableRecord
100
AcDbLayerTableRecord
  2
INTF_3
 70
0
 62
7
  6
CONTINUOUS
  0
LAYER
  5
210
100
AcDbSymbolTableRecord
100
AcDbLayerTableRecord
  2
INTF_4
 70
0
 62
7
  6
CONTINUOUS
  0
LAYER
  5
211
100
AcDbSymbolTableRecord
100
AcDbLayerTableRecord
  2
INTF_MAGENTA
 70
0
 62
7
  6
CONTINUOUS
  0
LAYER
  5
212
100
AcDbSymbolTableRecord
100
AcDbLayerTableRecord
  2
INTF_YELLOW
 70
0
 62
7
  6
CONTINUOUS
  0
LAYER
  5
213
100
AcDbSymbolTableRecord
100
AcDbLayerTableRecord
  2
PROFIL
 70
0
 62
7
  6
CONTINUOUS
  0
LAYER
  5
214
100
AcDbSymbolTableRecord
100
AcDbLayerTableRecord
  2
QUER1
 70
0
 62
7
  6
CONTINUOUS
  0
LAYER
  5
215
100
AcDbSymbolTableRecord
100
AcDbLayerTableRecord
  2
QUER2
 70
0
 62
7
  6
CONTINUOUS
  0
LAYER
  5
216
100
AcDbSymbolTableRecord
100
AcDbLayerTableRecord
  2
QUER3
 70
0
 62
7
  6
CONTINUOUS
  0
LAYER
  5
217
100
AcDbSymbolTableRecord
100
AcDbLayerTableRecord
  2
SCHRAFFUR
 70
0
 62
7
  6
CONTINUOUS
  0
ENDTAB
  0
TABLE
  2
STYLE
  5
3
100
AcDbSymbolTable
 70
1
  0
STYLE
  5
11
100
AcDbSymbolTableRecord
100
AcDbTextStyleTableRecord
  2
STANDARD
 70
0
 40
0.0
 41
1.0
 50
0.0
 71
0
 42
0.2
  3
txt
  4

  0
STYLE
  5
218
100
AcDbSymbolTableRecord
100
AcDbTextStyleTableRecord
  2
TEXTSTYLE_1
 70
0
 40
0.0
 41
0.8
 50
0.0
 71
0
 42
0.2
  3
gdt
  4

  0
STYLE
  5
219
100
AcDbSymbolTableRecord
100
AcDbTextStyleTableRecord
  2
TEXTSTYLE_2
 70
0
 40
0.0
 41
1.0
 50
0.0
 71
0
 42
0.2
  3
txt
  4

  0
ENDTAB
  0
TABLE
  2
VIEW
  5
6
100
AcDbSymbolTable
 70
0
  0
ENDTAB
  0
TABLE
  2
UCS
  5
7
100
AcDbSymbolTable
 70
0
  0
ENDTAB
  0
TABLE
  2
APPID
  5
9
100
AcDbSymbolTable
 70
1
  0
APPID
  5
21A
100
AcDbSymbolTableRecord
100
AcDbRegAppTableRecord
  2
ACAD
 70
0
  0
ENDTAB
  0
TABLE
  2
BLOCK_RECORD
  5
1
100
AcDbSymbolTable
 70
0
  0
BLOCK_RECORD
  5
1F
100
AcDbSymbolTableRecord
100
AcDbBlockTableRecord
  2
*MODEL_SPACE
  0
BLOCK_RECORD
  5
1B
100
AcDbSymbolTableRecord
100
AcDbBlockTableRecord
  2
*PAPER_SPACE
  0
BLOCK_RECORD
  5
21B
100
AcDbSymbolTableRecord
100
AcDbBlockTableRecord
  2
_ARROW_FILLED
  0
BLOCK_RECORD
  5
21C
100
AcDbSymbolTableRecord
100
AcDbBlockTableRecord
  2
*D0
  0
BLOCK_RECORD
  5
21D
100
AcDbSymbolTableRecord
100
AcDbBlockTableRecord
  2
*D1
  0
BLOCK_RECORD
  5
21E
100
AcDbSymbolTableRecord
100
AcDbBlockTableRecord
  2
*D2
  0
BLOCK_RECORD
  5
21F
100
AcDbSymbolTableRecord
100
AcDbBlockTableRecord
  2
*D3
  0
BLOCK_RECORD
  5
220
100
AcDbSymbolTableRecord
100
AcDbBlockTableRecord
  2
*D4
  0
BLOCK_RECORD
  5
221
100
AcDbSymbolTableRecord
100
AcDbBlockTableRecord
  2
*D5
  0
BLOCK_RECORD
  5
222
100
AcDbSymbolTableRecord
100
AcDbBlockTableRecord
  2
*D6
  0
BLOCK_RECORD
  5
223
100
AcDbSymbolTableRecord
100
AcDbBlockTableRecord
  2
*D7
  0
BLOCK_RECORD
  5
224
100
AcDbSymbolTableRecord
100
AcDbBlockTableRecord
  2
*D8
  0
BLOCK_RECORD
  5
225
100
AcDbSymbolTableRecord
100
AcDbBlockTableRecord
  2
*D9
  0
ENDTAB
  0
TABLE
  2
DIMSTYLE
  5
A
100
AcDbSymbolTable
 70
1
  0
DIMSTYLE
105
226
100
AcDbSymbolTableRecord
100
AcDbDimStyleTableRecord
  2
STANDARD
 70
0
  3

  4

  5
_ARROW_FILLED
  6
_ARROW_FILLED
  7
_ARROW_FILLED
 40
1.0
 41
3.5
 42
0.0
 43
0.38
 44
2.0
 45
0.0
 46
0.0
 47
0.01
 48
0.01
140
3.5
141
0.09
142
0.0
143
25.4
144
1.0
145
0.0
146
1.0
147
0.625
 71
1.0
 72
0.0
 73
0
 74
0
 75
0
 76
0
 77
1
 78
8
170
0
171
1
172
0
173
0
174
0
175
0
176
0
177
0
178
5
270
2
271
2
272
2
273
2
274
2
275
0
280
0
281
0
282
0
283
1
284
8
285
0
286
0
287
3
288
0
340
11
  0
DIMSTYLE
105
227
100
AcDbSymbolTableRecord
100
AcDbDimStyleTableRecord
  2
DIMSTYLE_1
 70
0
  3

  4

  5
_ARROW_FILLED
  6
_ARROW_FILLED
  7
_ARROW_FILLED
 40
1.0
 41
3.5
 42
0.0
 43
0.38
 44
2.0
 45
0.0
 46
0.0
 47
0.1
 48
0.1
140
3.5
141
0.09
142
0.0
143
25.4
144
1.0
145
0.0
146
1.0
147
0.875
 71
0.0
 72
0.0
 73
0
 74
0
 75
0
 76
0
 77
1
 78
8
170
0
171
1
172
0
173
0
174
0
175
0
176
0
177
0
178
5
270
2
271
4
272
-1
273
2
274
2
275
0
280
0
281
0
282
0
283
1
284
8
285
0
286
0
287
3
288
0
340
219
  0
DIMSTYLE
105
228
100
AcDbSymbolTableRecord
100
AcDbDimStyleTableRecord
  2
DIMSTYLE_2
 70
0
  3

  4

  5
_ARROW_FILLED
  6
_ARROW_FILLED
  7
_ARROW_FILLED
 40
1.0
 41
3.5
 42
0.0
 43
0.38
 44
2.0
 45
0.0
 46
0.0
 47
0.3
 48
0.3
140
3.5
141
0.09
142
0.0
143
25.4
144
1.0
145
0.0
146
1.0
147
0.875
 71
0.0
 72
0.0
 73
0
 74
0
 75
0
 76
0
 77
1
 78
8
170
0
171
1
172
0
173
0
174
0
175
0
176
0
177
0
178
5
270
2
271
4
272
-1
273
2
274
2
275
0
280
0
281
0
282
0
283
1
284
8
285
0
286
0
287
3
288
0
340
219
  0
DIMSTYLE
105
229
100
AcDbSymbolTableRecord
100
AcDbDimStyleTableRecord
  2
DIMSTYLE_3
 70
0
  3

  4

  5
_ARROW_FILLED
  6
_ARROW_FILLED
  7
_ARROW_FILLED
 40
1.0
 41
3.5
 42
0.0
 43
0.38
 44
2.0
 45
0.0
 46
0.0
 47
0.2
 48
0.2
140
3.5
141
0.09
142
0.0
143
25.4
144
1.0
145
0.0
146
1.0
147
0.875
 71
0.0
 72
0.0
 73
0
 74
0
 75
0
 76
0
 77
1
 78
8
170
0
171
1
172
0
173
0
174
0
175
0
176
0
177
0
178
5
270
2
271
2
272
-1
273
2
274
2
275
0
280
0
281
0
282
0
283
1
284
8
285
0
286
0
287
3
288
0
340
219
  0
DIMSTYLE
105
22A
100
AcDbSymbolTableRecord
100
AcDbDimStyleTableRecord
  2
DIMSTYLE_4
 70
0
  3

  4

  5
_ARROW_FILLED
  6
_ARROW_FILLED
  7
_ARROW_FILLED
 40
1.0
 41
3.5
 42
0.0
 43
0.38
 44
2.0
 45
0.0
 46
0.0
 47
0.2
 48
0.2
140
3.5
141
0.09
142
0.0
143
25.4
144
1.0
145
0.0
146
1.0
147
0.875
 71
0.0
 72
0.0
 73
0
 74
0
 75
0
 76
0
 77
1
 78
8
170
0
171
1
172
0
173
0
174
0
175
0
176
0
177
0
178
5
270
2
271
3
272
-1
273
2
274
2
275
0
280
0
281
0
282
0
283
1
284
8
285
0
286
0
287
3
288
0
340
219
  0
DIMSTYLE
105
22B
100
AcDbSymbolTableRecord
100
AcDbDimStyleTableRecord
  2
DIMSTYLE_5
 70
0
  3

  4

  5
_ARROW_FILLED
  6
_ARROW_FILLED
  7
_ARROW_FILLED
 40
1.0
 41
3.5
 42
0.0
 43
0.38
 44
2.0
 45
0.0
 46
0.0
 47
0.2
 48
0.2
140
3.5
141
0.09
142
0.0
143
25.4
144
1.0
145
0.0
146
1.0
147
0.875
 71
0.0
 72
0.0
 73
0
 74
0
 75
0
 76
0
 77
1
 78
8
170
0
171
1
172
0
173
0
174
0
175
0
176
0
177
0
178
5
270
2
271
4
272
-1
273
2
274
2
275
0
280
0
281
0
282
0
283
1
284
8
285
0
286
0
287
3
288
0
340
219
  0
DIMSTYLE
105
22C
100
AcDbSymbolTableRecord
100
AcDbDimStyleTableRecord
  2
DIMSTYLE_6
 70
0
  3

  4

  5
_ARROW_FILLED
  6
_ARROW_FILLED
  7
_ARROW_FILLED
 40
1.0
 41
3.5
 42
0.0
 43
0.38
 44
2.0
 45
0.0
 46
0.0
 47
0.1
 48
0.1
140
3.5
141
0.09
142
0.0
143
25.4
144
1.0
145
0.0
146
1.0
147
0.875
 71
0.0
 72
0.0
 73
0
 74
0
 75
0
 76
0
 77
1
 78
8
170
0
171
1
172
0
173
0
174
0
175
0
176
0
177
0
178
5
270
2
271
1
272
-1
273
2
274
2
275
0
280
0
281
0
282
0
283
1
284
8
285
0
286
0
287
3
288
0
340
219
  0
ENDTAB
  0
ENDSEC
  0
SECTION
  2
BLOCKS
  0
BLOCK
  5
20
100
AcDbEntity
  8
0
100
AcDbBlockBegin
  2
*MODEL_SPACE
 70
0
 10
0.0
 20
0.0
 30
0.0
  3
*MODEL_SPACE
  1

  0
ENDBLK
  5
21
100
AcDbEntity
  8
0
100
AcDbBlockEnd
  0
BLOCK
  5
1C
100
AcDbEntity
  8
0
100
AcDbBlockBegin
  2
*PAPER_SPACE
 70
0
 10
0.0
 20
0.0
 30
0.0
  3
*PAPER_SPACE
  1

  0
ENDBLK
  5
1D
100
AcDbEntity
  8
0
100
AcDbBlockEnd
  0
BLOCK
  5
22D
100
AcDbEntity
  8
0
100
AcDbBlockBegin
  2
_ARROW_FILLED
 70
64
 10
0.0
 20
0.0
  3
_ARROW_FILLED
  1

  0
SOLID
  5
22E
100
AcDbEntity
  8
0
  6
BYBLOCK
 62
0
100
AcDbTrace
 10
0.0
 20
0.0
 11
-1.0
 21
0.1428571429
 12
-1.0
 22
-0.1428571429
 13
-1.0
 23
-0.1428571429
  0
ENDBLK
  5
22F
100
AcDbEntity
  8
0
  6
BYBLOCK
 62
0
100
AcDbBlockEnd
  0
BLOCK
  5
230
100
AcDbEntity
  8
A_BEMASSUNGEN
100
AcDbBlockBegin
 62
2
  6
CONTINUOUS
  2
*D0
 70
65
 10
0.0
 20
0.0
  3
*D0
  1

  0
MTEXT
  5
231
100
AcDbEntity
  8
A_BEMASSUNGEN
100
AcDbMText
 62
5
  6
CONTINUOUS
  7
TEXTSTYLE_2
 71
3
 72
1
 10
179.066163715
 20
61.3365516006
 30
0.0
 11
0.0
 21
1.0
 31
0.0
  1
4
 40
3.5
 41
4.125
  0
LINE
  5
232
100
AcDbEntity
  8
A_BEMASSUNGEN
100
AcDbLine
 62
2
  6
CONTINUOUS
 10
165.3551623113
 20
64.5524944595
 11
185.441163715
 21
64.5524944596
  0
LINE
  5
233
100
AcDbEntity
  8
A_BEMASSUNGEN
100
AcDbLine
 62
2
  6
CONTINUOUS
 10
100.3551623112
 20
68.5524944591
 11
185.441163715
 21
68.5524944596
  0
LINE
  5
234
100
AcDbEntity
  8
A_BEMASSUNGEN
100
AcDbLine
 62
2
  6
CONTINUOUS
 10
183.441163715
 20
64.5524944596
 11
183.441163715
 21
58.5865516006
  0
LINE
  5
235
100
AcDbEntity
  8
A_BEMASSUNGEN
100
AcDbLine
 62
2
  6
CONTINUOUS
 10
183.441163715
 20
58.5865516006
 11
183.441163715
 21
66.5524944596
  0
LINE
  5
236
100
AcDbEntity
  8
A_BEMASSUNGEN
100
AcDbLine
 62
2
  6
CONTINUOUS
 10
183.441163715
 20
68.5524944596
 11
183.4411637149
 21
76.0524944596
  0
LINE
  5
237
100
AcDbEntity
  8
A_BEMASSUNGEN
100
AcDbLine
 62
2
  6
CONTINUOUS
 10
183.4411637149
 20
76.0524944596
 11
183.441163715
 21
66.5524944596
  0
INSERT
  5
238
100
AcDbEntity
  8
A_BEMASSUNGEN
100
AcDbBlockReference
 62
2
  6
CONTINUOUS
  2
_ARROW_FILLED
 10
183.441163715
 20
64.5524944596
 41
3.5
 42
3.5
 43
3.5
 50
90.0000000002
  0
INSERT
  5
239
100
AcDbEntity
  8
A_BEMASSUNGEN
100
AcDbBlockReference
 62
2
  6
CONTINUOUS
  2
_ARROW_FILLED
 10
183.441163715
 20
68.5524944596
 41
3.5
 42
3.5
 43
3.5
 50
270.0000000003
  0
ENDBLK
  5
23A
100
AcDbEntity
  8
0
  6
BYBLOCK
 62
0
100
AcDbBlockEnd
  0
BLOCK
  5
23B
100
AcDbEntity
  8
A_BEMASSUNGEN
100
AcDbBlockBegin
 62
2
  6
CONTINUOUS
  2
*D1
 70
65
 10
0.0
 20
0.0
  3
*D1
  1

  0
MTEXT
  5
23C
100
AcDbEntity
  8
A_BEMASSUNGEN
100
AcDbMText
 62
5
  6
CONTINUOUS
  7
TEXTSTYLE_2
 71
2
 72
1
 10
179.0698138488
 20
88.9024944596
 30
0.0
 11
0.0
 21
1.0
 31
0.0
  1
40.7
 40
3.5
 41
15.375
  0
LINE
  5
23D
100
AcDbEntity
  8
A_BEMASSUNGEN
100
AcDbLine
 62
2
  6
CONTINUOUS
 10
100.3551623112
 20
68.5524944591
 11
185.4448138489
 21
68.5524944596
  0
LINE
  5
23E
100
AcDbEntity
  8
A_BEMASSUNGEN
100
AcDbLine
 62
2
  6
CONTINUOUS
 10
100.355162311
 20
109.2524944591
 11
185.4448138487
 21
109.2524944596
  0
LINE
  5
23F
100
AcDbEntity
  8
A_BEMASSUNGEN
100
AcDbLine
 62
2
  6
CONTINUOUS
 10
183.4448138489
 20
68.5524944596
 11
183.4448138488
 21
88.9024944596
  0
LINE
  5
240
100
AcDbEntity
  8
A_BEMASSUNGEN
100
AcDbLine
 62
2
  6
CONTINUOUS
 10
183.4448138487
 20
109.2524944596
 11
183.4448138488
 21
88.9024944596
  0
INSERT
  5
241
100
AcDbEntity
  8
A_BEMASSUNGEN
100
AcDbBlockReference
 62
2
  6
CONTINUOUS
  2
_ARROW_FILLED
 10
183.4448138489
 20
68.5524944596
 41
3.5
 42
3.5
 43
3.5
 50
270.0000000003
  0
INSERT
  5
242
100
AcDbEntity
  8
A_BEMASSUNGEN
100
AcDbBlockReference
 62
2
  6
CONTINUOUS
  2
_ARROW_FILLED
 10
183.4448138487
 20
109.2524944596
 41
3.5
 42
3.5
 43
3.5
 50
90.0000000003
  0
ENDBLK
  5
243
100
AcDbEntity
  8
0
  6
BYBLOCK
 62
0
100
AcDbBlockEnd
  0
BLOCK
  5
244
100
AcDbEntity
  8
A_BEMASSUNGEN
100
AcDbBlockBegin
 62
2
  6
CONTINUOUS
  2
*D2
 70
65
 10
0.0
 20
0.0
  3
*D2
  1

  0
MTEXT
  5
245
100
AcDbEntity
  8
A_BEMASSUNGEN
100
AcDbMText
 62
5
  6
CONTINUOUS
  7
TEXTSTYLE_2
 71
3
 72
1
 10
50.1912897643
 20
77.13274555
 30
0.0
 11
0.0
 21
1.0
 31
0.0
  1
6
 40
3.5
 41
4.125
  0
LINE
  5
246
100
AcDbEntity
  8
A_BEMASSUNGEN
100
AcDbLine
 62
2
  6
CONTINUOUS
 10
65.8551623112
 20
81.5524944589
 11
52.5662897643
 21
81.5524944589
  0
LINE
  5
247
100
AcDbEntity
  8
A_BEMASSUNGEN
100
AcDbLine
 62
2
  6
CONTINUOUS
 10
54.5662897643
 20
87.5524944589
 11
54.5662897643
 21
95.0524944589
  0
LINE
  5
248
100
AcDbEntity
  8
A_BEMASSUNGEN
100
AcDbLine
 62
2
  6
CONTINUOUS
 10
54.5662897643
 20
95.0524944589
 11
54.5662897643
 21
84.5524944589
  0
LINE
  5
249
100
AcDbEntity
  8
A_BEMASSUNGEN
100
AcDbLine
 62
2
  6
CONTINUOUS
 10
54.5662897643
 20
81.5524944589
 11
54.5662897643
 21
74.38274555
  0
LINE
  5
24A
100
AcDbEntity
  8
A_BEMASSUNGEN
100
AcDbLine
 62
2
  6
CONTINUOUS
 10
54.5662897643
 20
74.38274555
 11
54.5662897643
 21
84.5524944589
  0
INSERT
  5
24B
100
AcDbEntity
  8
A_BEMASSUNGEN
100
AcDbBlockReference
 62
2
  6
CONTINUOUS
  2
_ARROW_FILLED
 10
54.5662897643
 20
87.5524944589
 41
3.5
 42
3.5
 43
3.5
 50
270.0
  0
INSERT
  5
24C
100
AcDbEntity
  8
A_BEMASSUNGEN
100
AcDbBlockReference
 62
2
  6
CONTINUOUS
  2
_ARROW_FILLED
 10
54.5662897643
 20
81.5524944589
 41
3.5
 42
3.5
 43
3.5
 50
90.0
  0
ENDBLK
  5
24D
100
AcDbEntity
  8
0
  6
BYBLOCK
 62
0
100
AcDbBlockEnd
  0
BLOCK
  5
24E
100
AcDbEntity
  8
A_BEMASSUNGEN
100
AcDbBlockBegin
 62
2
  6
CONTINUOUS
  2
*D3
 70
65
 10
0.0
 20
0.0
  3
*D3
  1

  0
MTEXT
  5
24F
100
AcDbEntity
  8
A_BEMASSUNGEN
100
AcDbMText
 62
5
  6
CONTINUOUS
  7
TEXTSTYLE_2
 71
2
 72
1
 10
41.3237646123
 20
76.0524944589
 30
0.0
 11
0.0
 21
1.0
 31
0.0
  1
23
 40
3.5
 41
7.875
  0
LINE
  5
250
100
AcDbEntity
  8
A_BEMASSUNGEN
100
AcDbLine
 62
2
  6
CONTINUOUS
 10
65.8551623113
 20
64.5524944589
 11
43.6987646123
 21
64.5524944589
  0
LINE
  5
251
100
AcDbEntity
  8
A_BEMASSUNGEN
100
AcDbLine
 62
2
  6
CONTINUOUS
 10
45.6987646123
 20
87.5524944589
 11
45.6987646123
 21
76.0524944589
  0
LINE
  5
252
100
AcDbEntity
  8
A_BEMASSUNGEN
100
AcDbLine
 62
2
  6
CONTINUOUS
 10
45.6987646123
 20
64.5524944589
 11
45.6987646123
 21
76.0524944589
  0
INSERT
  5
253
100
AcDbEntity
  8
A_BEMASSUNGEN
100
AcDbBlockReference
 62
2
  6
CONTINUOUS
  2
_ARROW_FILLED
 10
45.6987646123
 20
87.5524944589
 41
3.5
 42
3.5
 43
3.5
 50
90.0
  0
INSERT
  5
254
100
AcDbEntity
  8
A_BEMASSUNGEN
100
AcDbBlockReference
 62
2
  6
CONTINUOUS
  2
_ARROW_FILLED
 10
45.6987646123
 20
64.5524944589
 41
3.5
 42
3.5
 43
3.5
 50
270.0
  0
ENDBLK
  5
255
100
AcDbEntity
  8
0
  6
BYBLOCK
 62
0
100
AcDbBlockEnd
  0
BLOCK
  5
256
100
AcDbEntity
  8
A_BEMASSUNGEN
100
AcDbBlockBegin
 62
2
  6
CONTINUOUS
  2
*D4
 70
65
 10
0.0
 20
0.0
  3
*D4
  1

  0
MTEXT
  5
257
100
AcDbEntity
  8
A_BEMASSUNGEN
100
AcDbMText
 62
5
  6
CONTINUOUS
  7
TEXTSTYLE_2
 71
3
 72
1
 10
4.7763123604
 20
81.4274524589
 30
0.0
 11
0.0
 21
1.0
 31
0.0
  1
8
 40
3.5
 41
4.125
  0
LINE
  5
258
100
AcDbEntity
  8
A_BEMASSUNGEN
100
AcDbLine
 62
2
  6
CONTINUOUS
 10
17.8551623112
 20
87.5524944589
 11
7.1513123604
 21
87.5524944589
  0
LINE
  5
259
100
AcDbEntity
  8
A_BEMASSUNGEN
100
AcDbLine
 62
2
  6
CONTINUOUS
 10
42.8551623112
 20
95.5524944589
 11
7.1513123604
 21
95.5524944589
  0
LINE
  5
25A
100
AcDbEntity
  8
A_BEMASSUNGEN
100
AcDbLine
 62
2
  6
CONTINUOUS
 10
9.1513123604
 20
87.5524944589
 11
9.1513123604
 21
78.6774524589
  0
LINE
  5
25B
100
AcDbEntity
  8
A_BEMASSUNGEN
100
AcDbLine
 62
2
  6
CONTINUOUS
 10
9.1513123604
 20
78.6774524589
 11
9.1513123604
 21
91.5524944589
  0
LINE
  5
25C
100
AcDbEntity
  8
A_BEMASSUNGEN
100
AcDbLine
 62
2
  6
CONTINUOUS
 10
9.1513123604
 20
95.5524944589
 11
9.1513123604
 21
103.0524944589
  0
LINE
  5
25D
100
AcDbEntity
  8
A_BEMASSUNGEN
100
AcDbLine
 62
2
  6
CONTINUOUS
 10
9.1513123604
 20
103.0524944589
 11
9.1513123604
 21
91.5524944589
  0
INSERT
  5
25E
100
AcDbEntity
  8
A_BEMASSUNGEN
100
AcDbBlockReference
 62
2
  6
CONTINUOUS
  2
_ARROW_FILLED
 10
9.1513123604
 20
87.5524944589
 41
3.5
 42
3.5
 43
3.5
 50
90.0
  0
INSERT
  5
25F
100
AcDbEntity
  8
A_BEMASSUNGEN
100
AcDbBlockReference
 62
2
  6
CONTINUOUS
  2
_ARROW_FILLED
 10
9.1513123604
 20
95.5524944589
 41
3.5
 42
3.5
 43
3.5
 50
270.0
  0
ENDBLK
  5
260
100
AcDbEntity
  8
0
  6
BYBLOCK
 62
0
100
AcDbBlockEnd
  0
BLOCK
  5
261
100
AcDbEntity
  8
A_BEMASSUNGEN
100
AcDbBlockBegin
 62
2
  6
CONTINUOUS
  2
*D5
 70
65
 10
0.0
 20
0.0
  3
*D5
  1

  0
MTEXT
  5
262
100
AcDbEntity
  8
A_BEMASSUNGEN
100
AcDbMText
 62
5
  6
CONTINUOUS
  7
TEXTSTYLE_2
 71
2
 72
1
 10
4.7763123604
 20
110.5524944589
 30
0.0
 11
0.0
 21
1.0
 31
0.0
  1
30
 40
3.5
 41
7.875
  0
LINE
  5
263
100
AcDbEntity
  8
A_BEMASSUNGEN
100
AcDbLine
 62
2
  6
CONTINUOUS
 10
42.8551623112
 20
95.5524944589
 11
7.1513123604
 21
95.5524944589
  0
LINE
  5
264
100
AcDbEntity
  8
A_BEMASSUNGEN
100
AcDbLine
 62
2
  6
CONTINUOUS
 10
42.8551623112
 20
125.5524944589
 11
7.1513123604
 21
125.5524944589
  0
LINE
  5
265
100
AcDbEntity
  8
A_BEMASSUNGEN
100
AcDbLine
 62
2
  6
CONTINUOUS
 10
9.1513123604
 20
95.5524944589
 11
9.1513123604
 21
110.5524944589
  0
LINE
  5
266
100
AcDbEntity
  8
A_BEMASSUNGEN
100
AcDbLine
 62
2
  6
CONTINUOUS
 10
9.1513123604
 20
125.5524944589
 11
9.1513123604
 21
110.5524944589
  0
INSERT
  5
267
100
AcDbEntity
  8
A_BEMASSUNGEN
100
AcDbBlockReference
 62
2
  6
CONTINUOUS
  2
_ARROW_FILLED
 10
9.1513123604
 20
95.5524944589
 41
3.5
 42
3.5
 43
3.5
 50
270.0
  0
INSERT
  5
268
100
AcDbEntity
  8
A_BEMASSUNGEN
100
AcDbBlockReference
 62
2
  6
CONTINUOUS
  2
_ARROW_FILLED
 10
9.1513123604
 20
125.5524944589
 41
3.5
 42
3.5
 43
3.5
 50
90.0
  0
ENDBLK
  5
269
100
AcDbEntity
  8
0
  6
BYBLOCK
 62
0
100
AcDbBlockEnd
  0
BLOCK
  5
26A
100
AcDbEntity
  8
A_BEMASSUNGEN
100
AcDbBlockBegin
 62
2
  6
CONTINUOUS
  2
*D6
 70
65
 10
0.0
 20
0.0
  3
*D6
  1

  0
MTEXT
  5
26B
100
AcDbEntity
  8
A_BEMASSUNGEN
100
AcDbMText
 62
5
  6
CONTINUOUS
  7
TEXTSTYLE_2
 71
1
 72
1
 10
86.991501436
 20
177.1405837132
 30
0.0
 11
1.0
 21
0.0
 31
0.0
  1
5
 40
3.5
 41
3.75
  0
LINE
  5
26C
100
AcDbEntity
  8
A_BEMASSUNGEN
100
AcDbLine
 62
2
  6
CONTINUOUS
 10
80.855162311
 20
114.552494459
 11
80.8551623106
 21
174.7655837132
  0
LINE
  5
26D
100
AcDbEntity
  8
A_BEMASSUNGEN
100
AcDbLine
 62
2
  6
CONTINUOUS
 10
75.8551623112
 20
124.9524944589
 11
75.8551623109
 21
174.7655837131
  0
LINE
  5
26E
100
AcDbEntity
  8
A_BEMASSUNGEN
100
AcDbLine
 62
2
  6
CONTINUOUS
 10
80.8551623106
 20
172.7655837132
 11
89.491501436
 21
172.7655837132
  0
LINE
  5
26F
100
AcDbEntity
  8
A_BEMASSUNGEN
100
AcDbLine
 62
2
  6
CONTINUOUS
 10
89.491501436
 20
172.7655837132
 11
78.3551623108
 21
172.7655837131
  0
LINE
  5
270
100
AcDbEntity
  8
A_BEMASSUNGEN
100
AcDbLine
 62
2
  6
CONTINUOUS
 10
75.8551623109
 20
172.7655837131
 11
68.3551623109
 21
172.7655837131
  0
LINE
  5
271
100
AcDbEntity
  8
A_BEMASSUNGEN
100
AcDbLine
 62
2
  6
CONTINUOUS
 10
68.3551623109
 20
172.7655837131
 11
78.3551623108
 21
172.7655837131
  0
INSERT
  5
272
100
AcDbEntity
  8
A_BEMASSUNGEN
100
AcDbBlockReference
 62
2
  6
CONTINUOUS
  2
_ARROW_FILLED
 10
80.8551623106
 20
172.7655837132
 41
3.5
 42
3.5
 43
3.5
 50
180.0000000002
  0
INSERT
  5
273
100
AcDbEntity
  8
A_BEMASSUNGEN
100
AcDbBlockReference
 62
2
  6
CONTINUOUS
  2
_ARROW_FILLED
 10
75.8551623109
 20
172.7655837131
 41
3.5
 42
3.5
 43
3.5
 50
0.0000000003
  0
ENDBLK
  5
274
100
AcDbEntity
  8
0
  6
BYBLOCK
 62
0
100
AcDbBlockEnd
  0
BLOCK
  5
275
100
AcDbEntity
  8
A_BEMASSUNGEN
100
AcDbBlockBegin
 62
2
  6
CONTINUOUS
  2
*D7
 70
65
 10
0.0
 20
0.0
  3
*D7
  1

  0
MTEXT
  5
276
100
AcDbEntity
  8
A_BEMASSUNGEN
100
AcDbMText
 62
5
  6
CONTINUOUS
  7
TEXTSTYLE_2
 71
2
 72
1
 10
59.3551623112
 20
177.1416935188
 30
0.0
 11
1.0
 21
0.0
 31
0.0
  1
33
 40
3.5
 41
7.5
  0
LINE
  5
277
100
AcDbEntity
  8
A_BEMASSUNGEN
100
AcDbLine
 62
2
  6
CONTINUOUS
 10
75.8551623112
 20
124.9524944589
 11
75.8551623112
 21
174.7666935188
  0
LINE
  5
278
100
AcDbEntity
  8
A_BEMASSUNGEN
100
AcDbLine
 62
2
  6
CONTINUOUS
 10
42.8551623112
 20
125.5524944589
 11
42.8551623112
 21
174.7666935188
  0
LINE
  5
279
100
AcDbEntity
  8
A_BEMASSUNGEN
100
AcDbLine
 62
2
  6
CONTINUOUS
 10
75.8551623112
 20
172.7666935188
 11
59.3551623112
 21
172.7666935188
  0
LINE
  5
27A
100
AcDbEntity
  8
A_BEMASSUNGEN
100
AcDbLine
 62
2
  6
CONTINUOUS
 10
42.8551623112
 20
172.7666935188
 11
59.3551623112
 21
172.7666935188
  0
INSERT
  5
27B
100
AcDbEntity
  8
A_BEMASSUNGEN
100
AcDbBlockReference
 62
2
  6
CONTINUOUS
  2
_ARROW_FILLED
 10
75.8551623112
 20
172.7666935188
 41
3.5
 42
3.5
 43
3.5
  0
INSERT
  5
27C
100
AcDbEntity
  8
A_BEMASSUNGEN
100
AcDbBlockReference
 62
2
  6
CONTINUOUS
  2
_ARROW_FILLED
 10
42.8551623112
 20
172.7666935188
 41
3.5
 42
3.5
 43
3.5
 50
180.0
  0
ENDBLK
  5
27D
100
AcDbEntity
  8
0
  6
BYBLOCK
 62
0
100
AcDbBlockEnd
  0
BLOCK
  5
27E
100
AcDbEntity
  8
A_BEMASSUNGEN
100
AcDbBlockBegin
 62
2
  6
CONTINUOUS
  2
*D8
 70
65
 10
0.0
 20
0.0
  3
*D8
  1

  0
MTEXT
  5
27F
100
AcDbEntity
  8
A_BEMASSUNGEN
100
AcDbMText
 62
5
  6
CONTINUOUS
  7
TEXTSTYLE_2
 71
2
 72
1
 10
71.8551623113
 20
59.7379127373
 30
0.0
 11
1.0
 21
0.0
 31
0.0
  1
18
 40
3.5
 41
7.125
  0
LINE
  5
280
100
AcDbEntity
  8
A_BEMASSUNGEN
100
AcDbLine
 62
2
  6
CONTINUOUS
 10
62.8551623112
 20
68.6524944589
 11
62.8551623113
 21
53.3629127372
  0
LINE
  5
281
100
AcDbEntity
  8
A_BEMASSUNGEN
100
AcDbLine
 62
2
  6
CONTINUOUS
 10
80.8551623111
 20
90.6526087391
 11
80.8551623113
 21
53.3629127373
  0
LINE
  5
282
100
AcDbEntity
  8
A_BEMASSUNGEN
100
AcDbLine
 62
2
  6
CONTINUOUS
 10
62.8551623113
 20
55.3629127372
 11
71.8551623113
 21
55.3629127373
  0
LINE
  5
283
100
AcDbEntity
  8
A_BEMASSUNGEN
100
AcDbLine
 62
2
  6
CONTINUOUS
 10
80.8551623113
 20
55.3629127373
 11
71.8551623113
 21
55.3629127373
  0
INSERT
  5
284
100
AcDbEntity
  8
A_BEMASSUNGEN
100
AcDbBlockReference
 62
2
  6
CONTINUOUS
  2
_ARROW_FILLED
 10
62.8551623113
 20
55.3629127372
 41
3.5
 42
3.5
 43
3.5
 50
180.0000000003
  0
INSERT
  5
285
100
AcDbEntity
  8
A_BEMASSUNGEN
100
AcDbBlockReference
 62
2
  6
CONTINUOUS
  2
_ARROW_FILLED
 10
80.8551623113
 20
55.3629127373
 41
3.5
 42
3.5
 43
3.5
 50
0.0000000003
  0
ENDBLK
  5
286
100
AcDbEntity
  8
0
  6
BYBLOCK
 62
0
100
AcDbBlockEnd
  0
BLOCK
  5
287
100
AcDbEntity
  8
A_BEMASSUNGEN
100
AcDbBlockBegin
 62
2
  6
CONTINUOUS
  2
*D9
 70
65
 10
0.0
 20
0.0
  3
*D9
  1

  0
MTEXT
  5
288
100
AcDbEntity
  8
A_BEMASSUNGEN
100
AcDbMText
 62
5
  6
CONTINUOUS
  7
TEXTSTYLE_2
 71
2
 72
1
 10
79.1057859787
 20
51.0317707749
 30
0.0
 11
1.0
 21
0.0
 31
0.0
  1
37.5
 40
3.5
 41
14.625
  0
LINE
  5
289
100
AcDbEntity
  8
A_BEMASSUNGEN
100
AcDbLine
 62
2
  6
CONTINUOUS
 10
62.8551623112
 20
68.6524944589
 11
62.8551623114
 21
44.6567707748
  0
LINE
  5
28A
100
AcDbEntity
  8
A_BEMASSUNGEN
100
AcDbLine
 62
2
  6
CONTINUOUS
 10
100.3551623112
 20
68.5524944591
 11
100.3551623114
 21
44.656770775
  0
LINE
  5
28B
100
AcDbEntity
  8
A_BEMASSUNGEN
100
AcDbLine
 62
2
  6
CONTINUOUS
 10
62.8551623114
 20
46.6567707748
 11
81.6051623114
 21
46.6567707749
  0
LINE
  5
28C
100
AcDbEntity
  8
A_BEMASSUNGEN
100
AcDbLine
 62
2
  6
CONTINUOUS
 10
100.3551623114
 20
46.656770775
 11
81.6051623114
 21
46.6567707749
  0
INSERT
  5
28D
100
AcDbEntity
  8
A_BEMASSUNGEN
100
AcDbBlockReference
 62
2
  6
CONTINUOUS
  2
_ARROW_FILLED
 10
62.8551623114
 20
46.6567707748
 41
3.5
 42
3.5
 43
3.5
 50
180.0000000003
  0
INSERT
  5
28E
100
AcDbEntity
  8
A_BEMASSUNGEN
100
AcDbBlockReference
 62
2
  6
CONTINUOUS
  2
_ARROW_FILLED
 10
100.3551623114
 20
46.656770775
 41
3.5
 42
3.5
 43
3.5
 50
0.0000000003
  0
ENDBLK
  5
28F
100
AcDbEntity
  8
0
  6
BYBLOCK
 62
0
100
AcDbBlockEnd
  0
ENDSEC
  0
SECTION
  2
ENTITIES
  0
DIMENSION
  5
290
100
AcDbEntity
  8
A_BEMASSUNGEN
100
AcDbDimension
 62
2
  6
CONTINUOUS
  2
*D0
 10
183.441163715
 20
68.5524944596
 11
183.441163715
 21
59.4615464504
 70
160
  3
DIMSTYLE_1
100
AcDbAlignedDimension
 13
165.3551623113
 23
64.5524944595
 14
100.3551623112
 24
68.5524944591
 50
90.0000000003
100
AcDbRotatedDimension
  0
DIMENSION
  5
291
100
AcDbEntity
  8
A_BEMASSUNGEN
100
AcDbDimension
 62
2
  6
CONTINUOUS
  2
*D1
 10
183.4448138487
 20
109.2524944596
 11
183.4448138488
 21
88.4024994766
 70
160
  3
DIMSTYLE_2
100
AcDbAlignedDimension
 13
100.3551623112
 23
68.5524944591
 14
100.355162311
 24
109.2524944591
 50
90.0000000003
100
AcDbRotatedDimension
  0
DIMENSION
  5
292
100
AcDbEntity
  8
A_BEMASSUNGEN
100
AcDbDimension
 62
2
  6
CONTINUOUS
  2
*D2
 10
54.5662897643
 20
81.5524944589
 11
54.5662897643
 21
75.2577445589
 70
160
  3
DIMSTYLE_3
100
AcDbAlignedDimension
 13
73.8551623112
 23
87.5524944589
 14
65.8551623112
 24
81.5524944589
 50
270.0
100
AcDbRotatedDimension
  0
DIMENSION
  5
293
100
AcDbEntity
  8
A_BEMASSUNGEN
100
AcDbDimension
 62
2
  6
CONTINUOUS
  2
*D3
 10
45.6987646123
 20
64.5524944589
 11
45.6987646123
 21
75.5524911313
 70
160
  3
DIMSTYLE_4
100
AcDbAlignedDimension
 13
73.8551623112
 23
87.5524944589
 14
65.8551623113
 24
64.5524944589
 50
270.0
100
AcDbRotatedDimension
  0
DIMENSION
  5
294
100
AcDbEntity
  8
A_BEMASSUNGEN
100
AcDbDimension
 62
2
  6
CONTINUOUS
  2
*D4
 10
9.1513123604
 20
95.5524944589
 11
9.1513123604
 21
79.5524531048
 70
160
  3
DIMSTYLE_5
100
AcDbAlignedDimension
 13
17.8551623112
 23
87.5524944589
 14
42.8551623112
 24
95.5524944589
 50
90.0
100
AcDbRotatedDimension
  0
DIMENSION
  5
295
100
AcDbEntity
  8
A_BEMASSUNGEN
100
AcDbDimension
 62
2
  6
CONTINUOUS
  2
*D5
 10
9.1513123604
 20
125.5524944589
 11
9.1513123604
 21
110.0524942006
 70
160
  3
DIMSTYLE_5
100
AcDbAlignedDimension
 13
42.8551623112
 23
95.5524944589
 14
42.8551623112
 24
125.5524944589
 50
90.0
100
AcDbRotatedDimension
  0
DIMENSION
  5
296
100
AcDbEntity
  8
A_BEMASSUNGEN
100
AcDbDimension
 62
2
  6
CONTINUOUS
  2
*D6
 10
75.8551623109
 20
172.7655837131
 11
87.7414985533
 21
172.7655837132
 70
160
  3
DIMSTYLE_6
100
AcDbAlignedDimension
 13
80.855162311
 23
114.552494459
 14
75.8551623112
 24
124.9524944589
 50
180.0000000003
100
AcDbRotatedDimension
  0
DIMENSION
  5
297
100
AcDbEntity
  8
A_BEMASSUNGEN
100
AcDbDimension
 62
2
  6
CONTINUOUS
  2
*D7
 10
42.8551623112
 20
172.7666935188
 11
58.8551631944
 21
172.7666935188
 70
160
  3
DIMSTYLE_2
100
AcDbAlignedDimension
 13
75.8551623112
 23
124.9524944589
 14
42.8551623112
 24
125.5524944589
 50
180.0
100
AcDbRotatedDimension
  0
DIMENSION
  5
298
100
AcDbEntity
  8
A_BEMASSUNGEN
100
AcDbDimension
 62
2
  6
CONTINUOUS
  2
*D8
 10
80.8551623113
 20
55.3629127373
 11
71.3551631945
 21
55.3629127373
 70
160
  3
DIMSTYLE_5
100
AcDbAlignedDimension
 13
62.8551623112
 23
68.6524944589
 14
80.8551623111
 24
90.6526087391
100
AcDbRotatedDimension
  0
DIMENSION
  5
299
100
AcDbEntity
  8
A_BEMASSUNGEN
100
AcDbDimension
 62
2
  6
CONTINUOUS
  2
*D9
 10
100.3551623114
 20
46.656770775
 11
78.6057853009
 21
46.6567707749
 70
160
  3
DIMSTYLE_2
100
AcDbAlignedDimension
 13
62.8551623112
 23
68.6524944589
 14
100.3551623112
 24
68.5524944591
100
AcDbRotatedDimension
  0
LINE
  5
29A
100
AcDbEntity
  8
0
100
AcDbLine
 62
7
  6
CONTINUOUS
 10
15.8551623112
 20
89.5524944589
 11
15.8551623112
 21
107.8782584589
  0
LINE
  5
29B
100
AcDbEntity
  8
0
100
AcDbLine
 62
7
  6
CONTINUOUS
 10
15.8551623112
 20
161.3915934589
 11
15.8551623112
 21
163.5524944589
  0
LINE
  5
29C
100
AcDbEntity
  8
0
100
AcDbLine
 62
7
  6
CONTINUOUS
 10
16.3551623112
 20
124.2223664589
 11
16.3551623112
 21
138.8826224589
  0
LINE
  5
29D
100
AcDbEntity
  8
0
100
AcDbLine
 62
7
  6
CONTINUOUS
 10
19.8551623112
 20
154.2005114589
 11
19.8551623112
 21
159.0080864589
  0
LINE
  5
29E
100
AcDbEntity
  8
0
100
AcDbLine
 62
7
  6
CONTINUOUS
 10
25.8551623112
 20
109.7498874589
 11
25.8551623112
 21
122.3551004589
  0
LINE
  5
29F
100
AcDbEntity
  8
0
100
AcDbLine
 62
7
  6
CONTINUOUS
 10
25.8551623112
 20
140.7498874589
 11
25.8551623112
 21
153.3551004589
  0
LINE
  5
2A0
100
AcDbEntity
  8
0
100
AcDbLine
 62
7
  6
CONTINUOUS
 10
42.8551623112
 20
95.5524944589
 11
42.8551623112
 21
125.5524944589
  0
LINE
  5
2A1
100
AcDbEntity
  8
0
100
AcDbLine
 62
7
  6
CONTINUOUS
 10
43.3551623112
 20
123.0524944589
 11
43.3551623112
 21
117.0524944589
  0
LINE
  5
2A2
100
AcDbEntity
  8
0
100
AcDbLine
 62
7
  6
CONTINUOUS
 10
43.3551623112
 20
107.2024944589
 11
43.3551623112
 21
100.2024944589
  0
LINE
  5
2A3
100
AcDbEntity
  8
0
100
AcDbLine
 62
7
  6
CONTINUOUS
 10
45.6051623112
 20
110.5524944589
 11
45.6051623112
 21
116.5524944589
  0
LINE
  5
2A4
100
AcDbEntity
  8
0
100
AcDbLine
 62
7
  6
CONTINUOUS
 10
47.8551623112
 20
108.3024944589
 11
47.8551623112
 21
118.8024944589
  0
LINE
  5
2A5
100
AcDbEntity
  8
0
100
AcDbLine
 62
7
  6
CONTINUOUS
 10
48.8551623112
 20
95.7349661597
 11
48.8551623112
 21
125.3700227581
  0
LINE
  5
2A6
100
AcDbEntity
  8
A_FASEN
100
AcDbLine
 62
7
  6
CONTINUOUS
 10
49.3551623112
 20
100.2524944589
 11
49.3551623112
 21
107.2524944589
  0
LINE
  5
2A7
100
AcDbEntity
  8
0
100
AcDbLine
 62
7
  6
CONTINUOUS
 10
50.3551623112
 20
107.2524944589
 11
50.3551623112
 21
100.2524944589
  0
LINE
  5
2A8
100
AcDbEntity
  8
0
100
AcDbLine
 62
7
  6
CONTINUOUS
 10
51.6551623112
 20
98.7375611737
 11
51.6551623112
 21
122.3674277442
  0
LINE
  5
2A9
100
AcDbEntity
  8
0
100
AcDbLine
 62
7
  6
CONTINUOUS
 10
53.3551623112
 20
117.6524944589
 11
53.3551623112
 21
113.6524944589
  0
LINE
  5
2AA
100
AcDbEntity
  8
0
100
AcDbLine
 62
7
  6
CONTINUOUS
 10
53.3551623112
 20
107.1524944589
 11
53.3551623112
 21
103.1524944589
  0
LINE
  5
2AB
100
AcDbEntity
  8
0
100
AcDbLine
 62
7
  6
CONTINUOUS
 10
53.8551623112
 20
102.6524944589
 11
53.8551623112
 21
107.6524944589
  0
LINE
  5
2AC
100
AcDbEntity
  8
0
100
AcDbLine
 62
7
  6
CONTINUOUS
 10
53.8551623112
 20
113.1524944589
 11
53.8551623112
 21
118.1524944589
  0
LINE
  5
2AD
100
AcDbEntity
  8
0
100
AcDbLine
 62
7
  6
CONTINUOUS
 10
54.8551623112
 20
98.8834545934
 11
54.8551623112
 21
113.1524944589
  0
LINE
  5
2AE
100
AcDbEntity
  8
0
100
AcDbLine
 62
7
  6
CONTINUOUS
 10
54.8551623112
 20
118.1524944589
 11
54.8551623112
 21
122.2215343245
  0
LINE
  5
2AF
100
AcDbEntity
  8
0
100
AcDbLine
 62
7
  6
CONTINUOUS
 10
165.3551623113
 20
64.5524944595
 11
65.8551623113
 21
64.5524944589
  0
LINE
  5
2B0
100
AcDbEntity
  8
0
100
AcDbLine
 62
7
  6
CONTINUOUS
 10
42.8551623112
 20
107.7024944589
 11
43.3551623112
 21
107.2024944589
  0
LINE
  5
2B1
100
AcDbEntity
  8
0
100
AcDbLine
 62
7
  6
CONTINUOUS
 10
59.8551623112
 20
99.6899377765
 11
59.8551623112
 21
111.2150511413
  0
LINE
  5
2B2
100
AcDbEntity
  8
0
100
AcDbLine
 62
7
  6
CONTINUOUS
 10
61.1551623112
 20
123.9372998041
 11
61.1551623112
 21
123.7774944589
  0
LINE
  5
2B3
100
AcDbEntity
  8
0
100
AcDbLine
 62
7
  6
CONTINUOUS
 10
61.1551623112
 20
97.3274944589
 11
61.1551623112
 21
97.1676891138
  0
LINE
  5
2B4
100
AcDbEntity
  8
A_FASEN
100
AcDbLine
 62
7
  6
CONTINUOUS
 10
61.8551623112
 20
107.2524944589
 11
61.8551623112
 21
100.2524944589
  0
LINE
  5
2B5
100
AcDbEntity
  8
QUER2
100
AcDbLine
 62
7
  6
CONTINUOUS
 10
62.3551623112
 20
121.9524944589
 11
62.3551623112
 21
119.7524944589
  0
LINE
  5
2B6
100
AcDbEntity
  8
QUER2
100
AcDbLine
 62
7
  6
CONTINUOUS
 10
62.3551623112
 20
111.5524944589
 11
62.3551623112
 21
98.9524944589
  0
LINE
  5
2B7
100
AcDbEntity
  8
0
100
AcDbLine
 62
7
  6
CONTINUOUS
 10
62.3551623112
 20
97.331036269
 11
62.3551623112
 21
99.7524944589
  0
LINE
  5
2B8
100
AcDbEntity
  8
0
100
AcDbLine
 62
7
  6
CONTINUOUS
 10
62.3551623112
 20
107.7524944589
 11
62.3551623112
 21
113.1524944589
  0
LINE
  5
2B9
100
AcDbEntity
  8
0
100
AcDbLine
 62
7
  6
CONTINUOUS
 10
62.3551623112
 20
118.1524944589
 11
62.3551623112
 21
123.7739526488
  0
LINE
  5
2BA
100
AcDbEntity
  8
0
100
AcDbLine
 62
7
  6
CONTINUOUS
 10
62.8551623112
 20
68.6524944589
 11
62.8551623112
 21
67.5524944589
  0
LINE
  5
2BB
100
AcDbEntity
  8
A_RUNDUNGEN
100
AcDbLine
 62
7
  6
CONTINUOUS
 10
62.8551623112
 20
68.6524944589
 11
62.8551623112
 21
80.6524944589
  0
LINE
  5
2BC
100
AcDbEntity
  8
0
100
AcDbLine
 62
7
  6
CONTINUOUS
 10
47.8551623112
 20
118.8024944589
 11
45.6051623112
 21
116.5524944589
  0
LINE
  5
2BD
100
AcDbEntity
  8
0
100
AcDbLine
 62
7
  6
CONTINUOUS
 10
98.3656342389
 20
68.8384285545
 11
79.8551623112
 21
68.7415070643
  0
LINE
  5
2BE
100
AcDbEntity
  8
A_RUNDUNGEN
100
AcDbLine
 62
7
  6
CONTINUOUS
 10
62.8551623112
 20
68.6524944589
 11
67.9799779233
 21
68.6793281759
  0
LINE
  5
2BF
100
AcDbEntity
  8
A_RUNDUNGEN
100
AcDbLine
 62
7
  6
CONTINUOUS
 10
68.7896200693
 20
68.683567491
 11
79.8551623112
 21
68.7415070643
  0
LINE
  5
2C0
100
AcDbEntity
  8
0
100
AcDbLine
 62
7
  6
CONTINUOUS
 10
172.8551623112
 20
67.5524944595
 11
168.3551623112
 21
67.5524944595
  0
LINE
  5
2C1
100
AcDbEntity
  8
0
100
AcDbLine
 62
7
  6
CONTINUOUS
 10
100.3551623112
 20
68.5524944591
 11
62.8551623112
 21
68.5524944589
  0
LINE
  5
2C2
100
AcDbEntity
  8
QUER2
100
AcDbLine
 62
7
  6
CONTINUOUS
 10
68.3551623112
 20
69.1524944589
 11
75.3551623112
 21
69.1524944589
  0
LINE
  5
2C3
100
AcDbEntity
  8
0
100
AcDbLine
 62
7
  6
CONTINUOUS
 10
91.8551623112
 20
70.6524944591
 11
86.8551623112
 21
70.652494459
  0
LINE
  5
2C4
100
AcDbEntity
  8
0
100
AcDbLine
 62
7
  6
CONTINUOUS
 10
47.8551623112
 20
108.3024944589
 11
45.6051623112
 21
110.5524944589
  0
LINE
  5
2C5
100
AcDbEntity
  8
0
100
AcDbLine
 62
7
  6
CONTINUOUS
 10
53.8551623112
 20
102.6524944589
 11
53.3551623112
 21
103.1524944589
  0
LINE
  5
2C6
100
AcDbEntity
  8
0
100
AcDbLine
 62
7
  6
CONTINUOUS
 10
48.8551623112
 20
107.7524944589
 11
49.3551623112
 21
107.2524944589
  0
LINE
  5
2C7
100
AcDbEntity
  8
QUER2
100
AcDbLine
 62
7
  6
CONTINUOUS
 10
66.5305037552
 20
85.5230025581
 11
66.4257098816
 21
86.8272492951
  0
LINE
  5
2C8
100
AcDbEntity
  8
DEFAULT_2
100
AcDbLine
 62
8
  6
HIDDEN
 10
65.3551623112
 20
118.1524944589
 11
65.3551623112
 21
113.1524944589
  0
LINE
  5
2C9
100
AcDbEntity
  8
A_RUNDUNGEN
100
AcDbLine
 62
7
  6
CONTINUOUS
 10
65.3551623112
 20
119.602494418
 11
65.3551623112
 21
111.7024944999
  0
LINE
  5
2CA
100
AcDbEntity
  8
QUER2
100
AcDbLine
 62
7
  6
CONTINUOUS
 10
65.3551623112
 20
109.8524944589
 11
65.3551623112
 21
111.8098004723
  0
LINE
  5
2CB
100
AcDbEntity
  8
QUER2
100
AcDbLine
 62
7
  6
CONTINUOUS
 10
65.3551623112
 20
119.6024944187
 11
65.3551623112
 21
121.4524944589
  0
LINE
  5
2CC
100
AcDbEntity
  8
0
100
AcDbLine
 62
7
  6
CONTINUOUS
 10
66.2551623112
 20
123.9818068298
 11
66.2551623112
 21
123.8079874332
  0
LINE
  5
2CD
100
AcDbEntity
  8
0
100
AcDbLine
 62
7
  6
CONTINUOUS
 10
66.2551623112
 20
97.2970014847
 11
66.2551623112
 21
97.123182088
  0
LINE
  5
2CE
100
AcDbEntity
  8
0
100
AcDbLine
 62
7
  6
CONTINUOUS
 10
67.2737648915
 20
123.8168766432
 11
67.2737648915
 21
122.2524944589
  0
LINE
  5
2CF
100
AcDbEntity
  8
0
100
AcDbLine
 62
7
  6
CONTINUOUS
 10
67.2737648915
 20
98.6524944589
 11
67.2737648915
 21
97.2881122746
  0
LINE
  5
2D0
100
AcDbEntity
  8
0
100
AcDbLine
 62
7
  6
CONTINUOUS
 10
67.3551623112
 20
132.5524944589
 11
67.3551623112
 21
127.5524944589
  0
LINE
  5
2D1
100
AcDbEntity
  8
A_ACHSEN
100
AcDbLine
 62
7
  6
CENTER
 10
68.3551623112
 20
65.8640210457
 11
68.3551623112
 21
82.4409678721
  0
LINE
  5
2D2
100
AcDbEntity
  8
DEFAULT_2
100
AcDbLine
 62
8
  6
HIDDEN
 10
70.3551623112
 20
117.9004102776
 11
70.3551623112
 21
113.4045786402
  0
LINE
  5
2D3
100
AcDbEntity
  8
A_RUNDUNGEN
100
AcDbLine
 62
7
  6
CONTINUOUS
 10
70.3551623112
 20
119.6024935077
 11
70.3551623112
 21
111.7024954101
  0
LINE
  5
2D4
100
AcDbEntity
  8
DEFAULT_2
100
AcDbLine
 62
8
  6
HIDDEN
 10
67.0561623112
 20
115.6524944589
 11
68.3539970839
 21
117.900410225
  0
LINE
  5
2D5
100
AcDbEntity
  8
0
100
AcDbLine
 62
7
  6
CONTINUOUS
 10
53.8551623112
 20
118.1524944589
 11
53.3551623112
 21
117.6524944589
  0
LINE
  5
2D6
100
AcDbEntity
  8
0
100
AcDbLine
 62
7
  6
CONTINUOUS
 10
42.8551623112
 20
99.7024944589
 11
43.3551623112
 21
100.2024944589
  0
LINE
  5
2D7
100
AcDbEntity
  8
0
100
AcDbLine
 62
7
  6
CONTINUOUS
 10
86.8551623112
 20
70.652494459
 11
79.8551623112
 21
69.152494459
  0
LINE
  5
2D8
100
AcDbEntity
  8
A_RUNDUNGEN
100
AcDbLine
 62
7
  6
CONTINUOUS
 10
79.5948327483
 20
69.0967095526
 11
79.8551623112
 21
69.152494459
  0
LINE
  5
2D9
100
AcDbEntity
  8
A_ACHSEN
100
AcDbLine
 62
7
  6
CENTER
 10
60.066688898
 20
74.1524944589
 11
76.6436357244
 21
74.1524944589
  0
LINE
  5
2DA
100
AcDbEntity
  8
QUER2
100
AcDbLine
 62
7
  6
CONTINUOUS
 10
75.3551623112
 20
79.1524944589
 11
68.3551623112
 21
79.1524944589
  0
LINE
  5
2DB
100
AcDbEntity
  8
0
100
AcDbLine
 62
7
  6
CONTINUOUS
 10
62.3551623112
 20
99.7524944589
 11
61.8551623112
 21
100.2524944589
  0
LINE
  5
2DC
100
AcDbEntity
  8
0
100
AcDbLine
 62
7
  6
CONTINUOUS
 10
53.8551623112
 20
113.1524944589
 11
53.3551623112
 21
113.6524944589
  0
LINE
  5
2DD
100
AcDbEntity
  8
0
100
AcDbLine
 62
7
  6
CONTINUOUS
 10
71.3551623112
 20
123.8524944589
 11
71.3551623112
 21
121.9524944589
  0
LINE
  5
2DE
100
AcDbEntity
  8
0
100
AcDbLine
 62
7
  6
CONTINUOUS
 10
71.3551623112
 20
98.6524944589
 11
71.3551623112
 21
97.2524944589
  0
LINE
  5
2DF
100
AcDbEntity
  8
QUER2
100
AcDbLine
 62
7
  6
CONTINUOUS
 10
71.3551623112
 20
110.1524944589
 11
71.3551623112
 21
121.9524944589
  0
LINE
  5
2E0
100
AcDbEntity
  8
0
100
AcDbLine
 62
7
  6
CONTINUOUS
 10
74.1551623112
 20
125.5024944589
 11
74.1551623112
 21
125.4490034459
  0
LINE
  5
2E1
100
AcDbEntity
  8
0
100
AcDbLine
 62
7
  6
CONTINUOUS
 10
74.1551623112
 20
95.6024944589
 11
74.1551623112
 21
95.6559854719
  0
LINE
  5
2E2
100
AcDbEntity
  8
A_RUNDUNGEN
100
AcDbLine
 62
7
  6
CONTINUOUS
 10
74.1551623112
 20
110.0124766486
 11
74.1551623112
 21
111.0921247976
  0
LINE
  5
2E3
100
AcDbEntity
  8
A_RUNDUNGEN
100
AcDbLine
 62
7
  6
CONTINUOUS
 10
74.3551623112
 20
124.0524944589
 11
74.3551623112
 21
108.6524944589
  0
LINE
  5
2E4
100
AcDbEntity
  8
A_RUNDUNGEN
100
AcDbLine
 62
7
  6
CONTINUOUS
 10
74.3551623112
 20
98.6524944589
 11
74.3551623112
 21
97.0524944589
  0
LINE
  5
2E5
100
AcDbEntity
  8
0
100
AcDbLine
 62
7
  6
CONTINUOUS
 10
74.3551623112
 20
95.6524944589
 11
74.3551623112
 21
97.0524944589
  0
LINE
  5
2E6
100
AcDbEntity
  8
0
100
AcDbLine
 62
7
  6
CONTINUOUS
 10
74.3551623112
 20
124.0524944589
 11
74.3551623112
 21
125.4524944589
  0
LINE
  5
2E7
100
AcDbEntity
  8
A_RUNDUNGEN
100
AcDbLine
 62
7
  6
CONTINUOUS
 10
75.8551623112
 20
125.4524944589
 11
75.8551623112
 21
108.6167337531
  0
LINE
  5
2E8
100
AcDbEntity
  8
A_RUNDUNGEN
100
AcDbLine
 62
7
  6
CONTINUOUS
 10
75.8551623112
 20
98.6114808467
 11
75.8551623112
 21
95.6524944589
  0
LINE
  5
2E9
100
AcDbEntity
  8
0
100
AcDbLine
 62
7
  6
CONTINUOUS
 10
75.8551623112
 20
89.5524944589
 11
75.8551623112
 21
95.6707739392
  0
LINE
  5
2EA
100
AcDbEntity
  8
0
100
AcDbLine
 62
7
  6
CONTINUOUS
 10
75.8551623112
 20
125.4342149786
 11
75.8551623112
 21
127.5524944589
  0
LINE
  5
2EB
100
AcDbEntity
  8
QUER2
100
AcDbLine
 62
7
  6
CONTINUOUS
 10
72.944700076
 20
87.8806121147
 11
72.8563782452
 21
86.3987587192
  0
LINE
  5
2EC
100
AcDbEntity
  8
0
100
AcDbLine
 62
7
  6
CONTINUOUS
 10
53.8551623112
 20
107.6524944589
 11
53.3551623112
 21
107.1524944589
  0
LINE
  5
2ED
100
AcDbEntity
  8
0
100
AcDbLine
 62
7
  6
CONTINUOUS
 10
48.8551623112
 20
99.7524944589
 11
49.3551623112
 21
100.2524944589
  0
LINE
  5
2EE
100
AcDbEntity
  8
QUER2
100
AcDbLine
 62
7
  6
CONTINUOUS
 10
84.2484640261
 20
82.8458988704
 11
85.1873250616
 21
83.0114454021
  0
LINE
  5
2EF
100
AcDbEntity
  8
A_RUNDUNGEN
100
AcDbLine
 62
7
  6
CONTINUOUS
 10
93.8813419177
 20
80.9232558265
 11
93.4028348957
 21
80.919079959
  0
LINE
  5
2F0
100
AcDbEntity
  8
A_RUNDUNGEN
100
AcDbLine
 62
7
  6
CONTINUOUS
 10
77.5655064211
 20
80.7808696872
 11
62.8551623112
 21
80.6524944589
  0
LINE
  5
2F1
100
AcDbEntity
  8
0
100
AcDbLine
 62
7
  6
CONTINUOUS
 10
96.8551623112
 20
80.6524944591
 11
94.8551623112
 21
80.6524944591
  0
LINE
  5
2F2
100
AcDbEntity
  8
0
100
AcDbLine
 62
7
  6
CONTINUOUS
 10
65.8551623112
 20
81.5524944589
 11
76.943920655
 21
81.552494459
  0
LINE
  5
2F3
100
AcDbEntity
  8
0
100
AcDbLine
 62
7
  6
CONTINUOUS
 10
83.860997647
 20
86.552494459
 11
80.8551623111
 21
86.552494459
  0
LINE
  5
2F4
100
AcDbEntity
  8
0
100
AcDbLine
 62
7
  6
CONTINUOUS
 10
100.3551623112
 20
73.1524944591
 11
99.8551623112
 21
73.6524944591
  0
LINE
  5
2F5
100
AcDbEntity
  8
DEFAULT_2
100
AcDbLine
 62
8
  6
HIDDEN
 10
67.0561623112
 20
115.6524944589
 11
68.3539972407
 21
113.4045784211
  0
LINE
  5
2F6
100
AcDbEntity
  8
0
100
AcDbLine
 62
7
  6
CONTINUOUS
 10
79.8551623112
 20
69.152494459
 11
79.8551623112
 21
68.7415070643
  0
LINE
  5
2F7
100
AcDbEntity
  8
0
100
AcDbLine
 62
7
  6
CONTINUOUS
 10
80.8551623111
 20
89.652494459
 11
80.8551623111
 21
86.552494459
  0
LINE
  5
2F8
100
AcDbEntity
  8
A_RUNDUNGEN
100
AcDbLine
 62
7
  6
CONTINUOUS
 10
80.8551623111
 20
89.652494459
 11
80.8551623111
 21
92.5018653759
  0
LINE
  5
2F9
100
AcDbEntity
  8
A_RUNDUNGEN
100
AcDbLine
 62
7
  6
CONTINUOUS
 10
80.8551623111
 20
93.652494459
 11
80.8551623111
 21
96.9183947957
  0
LINE
  5
2FA
100
AcDbEntity
  8
0
100
AcDbLine
 62
7
  6
CONTINUOUS
 10
80.855162311
 20
107.8664504581
 11
80.855162311
 21
114.552494459
  0
LINE
  5
2FB
100
AcDbEntity
  8
0
100
AcDbLine
 62
7
  6
CONTINUOUS
 10
80.855162311
 20
114.552494459
 11
81.7452993522
 21
124.7268059313
  0
LINE
  5
2FC
100
AcDbEntity
  8
0
100
AcDbLine
 62
7
  6
CONTINUOUS
 10
62.3551623112
 20
107.7524944589
 11
61.8551623112
 21
107.2524944589
  0
LINE
  5
2FD
100
AcDbEntity
  8
0
100
AcDbLine
 62
7
  6
CONTINUOUS
 10
73.8551623112
 20
87.5524944589
 11
17.8551623112
 21
87.5524944589
  0
LINE
  5
2FE
100
AcDbEntity
  8
0
100
AcDbLine
 62
7
  6
CONTINUOUS
 10
99.8551623111
 20
89.1524944591
 11
100.3551623111
 21
89.1524944591
  0
LINE
  5
2FF
100
AcDbEntity
  8
0
100
AcDbLine
 62
7
  6
CONTINUOUS
 10
99.8551623111
 20
90.1524944591
 11
100.3551623111
 21
90.1524944591
  0
LINE
  5
300
100
AcDbEntity
  8
0
100
AcDbLine
 62
7
  6
CONTINUOUS
 10
99.8551623111
 20
92.6494800521
 11
100.3551623111
 21
92.6494800521
  0
LINE
  5
301
100
AcDbEntity
  8
0
100
AcDbLine
 62
7
  6
CONTINUOUS
 10
99.8551623111
 20
93.8019008403
 11
100.3551623111
 21
93.8019008403
  0
LINE
  5
302
100
AcDbEntity
  8
A_RUNDUNGEN
100
AcDbLine
 62
7
  6
CONTINUOUS
 10
80.8551623111
 20
89.652494459
 11
83.57421945
 21
89.581293442
  0
LINE
  5
303
100
AcDbEntity
  8
A_RUNDUNGEN
100
AcDbLine
 62
7
  6
CONTINUOUS
 10
84.6579161491
 20
89.5529158453
 11
85.0634077537
 21
89.5422976739
  0
LINE
  5
304
100
AcDbEntity
  8
QUER2
100
AcDbLine
 62
7
  6
CONTINUOUS
 10
81.3707280218
 20
79.1881681569
 11
81.4961748707
 21
79.9742490583
  0
LINE
  5
305
100
AcDbEntity
  8
QUER2
100
AcDbLine
 62
7
  6
CONTINUOUS
 10
81.246211368
 20
79.0703317085
 11
81.4117578997
 21
80.009192744
  0
LINE
  5
306
100
AcDbEntity
  8
DEFAULT_2
100
AcDbLine
 62
8
  6
HIDDEN
 10
70.2833951768
 20
117.0014522359
 11
70.2445595588
 21
116.9827244425
  0
LINE
  5
307
100
AcDbEntity
  8
DEFAULT_2
100
AcDbLine
 62
8
  6
HIDDEN
 10
68.0760277036
 20
116.9499519534
 11
68.1831535821
 21
116.9827244425
  0
LINE
  5
308
100
AcDbEntity
  8
DEFAULT_2
100
AcDbLine
 62
8
  6
HIDDEN
 10
68.2467608893
 20
117.0014497763
 11
68.1831535821
 21
116.9827244425
  0
LINE
  5
309
100
AcDbEntity
  8
0
100
AcDbLine
 62
7
  6
CONTINUOUS
 10
80.8551623111
 20
93.652494459
 11
83.7898744947
 21
93.7293426021
  0
LINE
  5
30A
100
AcDbEntity
  8
A_RUNDUNGEN
100
AcDbLine
 62
7
  6
CONTINUOUS
 10
80.8551623111
 20
93.652494459
 11
83.7898744947
 21
93.7293426021
  0
LINE
  5
30B
100
AcDbEntity
  8
0
100
AcDbLine
 62
7
  6
CONTINUOUS
 10
94.4050850633
 20
94.0073116735
 11
94.8551623111
 21
94.019097361
  0
LINE
  5
30C
100
AcDbEntity
  8
A_RUNDUNGEN
100
AcDbLine
 62
7
  6
CONTINUOUS
 10
94.4050850633
 20
94.0073116735
 11
94.8551623111
 21
94.019097361
  0
LINE
  5
30D
100
AcDbEntity
  8
0
100
AcDbLine
 62
7
  6
CONTINUOUS
 10
99.8551623111
 20
94.5701628307
 11
100.3551623111
 21
94.5701628307
  0
LINE
  5
30E
100
AcDbEntity
  8
0
100
AcDbLine
 62
7
  6
CONTINUOUS
 10
42.8551623112
 20
95.5524944589
 11
75.8551623112
 21
95.5524944589
  0
LINE
  5
30F
100
AcDbEntity
  8
A_RUNDUNGEN
100
AcDbLine
 62
7
  6
CONTINUOUS
 10
75.8551623112
 20
95.6524944589
 11
74.3551623112
 21
95.6524944589
  0
LINE
  5
310
100
AcDbEntity
  8
0
100
AcDbLine
 62
7
  6
CONTINUOUS
 10
99.8551623111
 20
97.0671484237
 11
100.3551623111
 21
97.0671484237
  0
LINE
  5
311
100
AcDbEntity
  8
A_RUNDUNGEN
100
AcDbLine
 62
7
  6
CONTINUOUS
 10
53.1551623112
 20
97.3274944589
 11
61.3420725079
 21
97.3274944589
  0
LINE
  5
312
100
AcDbEntity
  8
0
100
AcDbLine
 62
7
  6
CONTINUOUS
 10
99.8551623111
 20
98.1524944591
 11
100.3551623111
 21
98.1524944591
  0
LINE
  5
313
100
AcDbEntity
  8
QUER2
100
AcDbLine
 62
7
  6
CONTINUOUS
 10
62.6551623112
 20
98.6524944589
 11
75.3551623112
 21
98.6524944589
  0
LINE
  5
314
100
AcDbEntity
  8
0
100
AcDbLine
 62
7
  6
CONTINUOUS
 10
97.355162311
 20
99.6524944591
 11
94.855162311
 21
99.6524944591
  0
LINE
  5
315
100
AcDbEntity
  8
0
100
AcDbLine
 62
7
  6
CONTINUOUS
 10
97.355162311
 20
100.1524944591
 11
96.855162311
 21
100.1524944591
  0
LINE
  5
316
100
AcDbEntity
  8
0
100
AcDbLine
 62
7
  6
CONTINUOUS
 10
97.355162311
 20
100.2376008394
 11
96.855162311
 21
100.2376008394
  0
LINE
  5
317
100
AcDbEntity
  8
0
100
AcDbLine
 62
7
  6
CONTINUOUS
 10
51.6551623112
 20
100.2524944589
 11
49.3551623112
 21
100.2524944589
  0
LINE
  5
318
100
AcDbEntity
  8
0
100
AcDbLine
 62
7
  6
CONTINUOUS
 10
59.8551623112
 20
100.2524944589
 11
61.8551623112
 21
100.2524944589
  0
LINE
  5
319
100
AcDbEntity
  8
0
100
AcDbLine
 62
7
  6
CONTINUOUS
 10
97.355162311
 20
100.4078136074
 11
96.855162311
 21
100.4078136074
  0
LINE
  5
31A
100
AcDbEntity
  8
0
100
AcDbLine
 62
7
  6
CONTINUOUS
 10
97.355162311
 20
100.7482391285
 11
96.855162311
 21
100.7482391285
  0
LINE
  5
31B
100
AcDbEntity
  8
A_RUNDUNGEN
100
AcDbLine
 62
7
  6
CONTINUOUS
 10
74.1551623112
 20
95.6024944589
 11
48.8551623112
 21
95.7349661597
  0
LINE
  5
31C
100
AcDbEntity
  8
0
100
AcDbLine
 62
7
  6
CONTINUOUS
 10
44.8446903835
 20
95.7559651336
 11
48.8551623112
 21
95.7349661597
  0
LINE
  5
31D
100
AcDbEntity
  8
0
100
AcDbLine
 62
7
  6
CONTINUOUS
 10
74.3551623112
 20
97.0524944589
 11
53.1420725079
 21
97.2376182891
  0
LINE
  5
31E
100
AcDbEntity
  8
0
100
AcDbLine
 62
7
  6
CONTINUOUS
 10
71.3551623112
 20
97.2524944589
 11
67.2737648915
 21
97.2881122746
  0
LINE
  5
31F
100
AcDbEntity
  8
A_RUNDUNGEN
100
AcDbLine
 62
7
  6
CONTINUOUS
 10
67.2737648915
 20
97.2881122746
 11
62.3551623112
 21
97.331036269
  0
LINE
  5
320
100
AcDbEntity
  8
0
100
AcDbLine
 62
7
  6
CONTINUOUS
 10
56.3420725079
 20
97.3835117088
 11
62.3551623112
 21
97.331036269
  0
LINE
  5
321
100
AcDbEntity
  8
0
100
AcDbLine
 62
7
  6
CONTINUOUS
 10
50.3289837015
 20
96.0718729665
 11
74.3551623112
 21
95.6524944589
  0
LINE
  5
322
100
AcDbEntity
  8
0
100
AcDbLine
 62
7
  6
CONTINUOUS
 10
59.8551623112
 20
100.7150511413
 11
54.8551623112
 21
101.1524944589
  0
LINE
  5
323
100
AcDbEntity
  8
DEFAULT_2
100
AcDbLine
 62
8
  6
HIDDEN
 10
70.2445595588
 20
114.3222644753
 11
70.2834201201
 21
114.3035366293
  0
LINE
  5
324
100
AcDbEntity
  8
0
100
AcDbLine
 62
7
  6
CONTINUOUS
 10
93.8551623112
 20
151.1406574589
 11
93.8551623112
 21
134.5524944589
  0
LINE
  5
325
100
AcDbEntity
  8
0
100
AcDbLine
 62
7
  6
CONTINUOUS
 10
94.8551623112
 20
80.6524944591
 11
94.855162311
 21
99.6524944591
  0
LINE
  5
326
100
AcDbEntity
  8
0
100
AcDbLine
 62
7
  6
CONTINUOUS
 10
96.8551623112
 20
75.6524944591
 11
96.855162311
 21
105.2722844076
  0
LINE
  5
327
100
AcDbEntity
  8
0
100
AcDbLine
 62
7
  6
CONTINUOUS
 10
97.355162311
 20
99.6524944591
 11
97.355162311
 21
105.1524944591
  0
LINE
  5
328
100
AcDbEntity
  8
0
100
AcDbLine
 62
7
  6
CONTINUOUS
 10
99.0008704495
 20
127.3788462452
 11
100.7102883779
 21
137.0734388393
  0
LINE
  5
329
100
AcDbEntity
  8
QUER2
100
AcDbLine
 62
7
  6
CONTINUOUS
 10
84.9358846753
 20
86.7092785708
 11
84.6279182367
 21
85.4061164477
  0
LINE
  5
32A
100
AcDbEntity
  8
0
100
AcDbLine
 62
7
  6
CONTINUOUS
 10
54.8551623112
 20
99.2524944589
 11
59.8551623112
 21
99.6899377765
  0
LINE
  5
32B
100
AcDbEntity
  8
0
100
AcDbLine
 62
7
  6
CONTINUOUS
 10
97.355162311
 20
101.0886646795
 11
96.855162311
 21
101.0886646795
  0
LINE
  5
32C
100
AcDbEntity
  8
0
100
AcDbLine
 62
7
  6
CONTINUOUS
 10
97.355162311
 20
101.5141965436
 11
96.855162311
 21
101.5141965436
  0
LINE
  5
32D
100
AcDbEntity
  8
0
100
AcDbLine
 62
7
  6
CONTINUOUS
 10
54.8551623112
 20
102.6524944589
 11
53.8551623112
 21
102.6524944589
  0
LINE
  5
32E
100
AcDbEntity
  8
0
100
AcDbLine
 62
7
  6
CONTINUOUS
 10
97.355162311
 20
102.7907922553
 11
96.855162311
 21
102.7907922553
  0
LINE
  5
32F
100
AcDbEntity
  8
0
100
AcDbLine
 62
2
  6
CONTINUOUS
 10
53.3551623112
 20
103.1524944589
 11
54.8551623112
 21
103.1524944589
  0
LINE
  5
330
100
AcDbEntity
  8
0
100
AcDbLine
 62
7
  6
CONTINUOUS
 10
97.355162311
 20
103.2163243579
 11
96.855162311
 21
103.2163243579
  0
LINE
  5
331
100
AcDbEntity
  8
0
100
AcDbLine
 62
7
  6
CONTINUOUS
 10
97.355162311
 20
103.5567498493
 11
96.855162311
 21
103.5567498493
  0
LINE
  5
332
100
AcDbEntity
  8
0
100
AcDbLine
 62
7
  6
CONTINUOUS
 10
97.355162311
 20
103.8971753406
 11
96.855162311
 21
103.8971753406
  0
LINE
  5
333
100
AcDbEntity
  8
0
100
AcDbLine
 62
7
  6
CONTINUOUS
 10
97.355162311
 20
104.0673880863
 11
96.855162311
 21
104.0673880863
  0
LINE
  5
334
100
AcDbEntity
  8
0
100
AcDbLine
 62
7
  6
CONTINUOUS
 10
97.355162311
 20
104.1524944591
 11
96.855162311
 21
104.1524944591
  0
LINE
  5
335
100
AcDbEntity
  8
0
100
AcDbLine
 62
7
  6
CONTINUOUS
 10
97.355162311
 20
105.1524944591
 11
96.855162311
 21
105.1524944591
  0
LINE
  5
336
100
AcDbEntity
  8
0
100
AcDbLine
 62
7
  6
CONTINUOUS
 10
170.355162311
 20
106.5524944595
 11
172.855162311
 21
106.5524944595
  0
LINE
  5
337
100
AcDbEntity
  8
0
100
AcDbLine
 62
2
  6
CONTINUOUS
 10
53.3551623112
 20
107.1524944589
 11
54.8551623112
 21
107.1524944589
  0
LINE
  5
338
100
AcDbEntity
  8
0
100
AcDbLine
 62
7
  6
CONTINUOUS
 10
51.6551623112
 20
107.2524944589
 11
49.3551623112
 21
107.2524944589
  0
LINE
  5
339
100
AcDbEntity
  8
0
100
AcDbLine
 62
7
  6
CONTINUOUS
 10
59.8551623112
 20
107.2524944589
 11
61.8551623112
 21
107.2524944589
  0
LINE
  5
33A
100
AcDbEntity
  8
0
100
AcDbLine
 62
7
  6
CONTINUOUS
 10
95.3944277335
 20
106.7717703951
 11
86.5296879239
 21
107.0039017764
  0
LINE
  5
33B
100
AcDbEntity
  8
A_RUNDUNGEN
100
AcDbLine
 62
7
  6
CONTINUOUS
 10
86.303552458
 20
107.009823342
 11
82.9426743341
 21
107.0978310329
  0
LINE
  5
33C
100
AcDbEntity
  8
0
100
AcDbLine
 62
7
  6
CONTINUOUS
 10
54.8551623112
 20
107.0524944589
 11
59.8551623112
 21
106.6150511413
  0
LINE
  5
33D
100
AcDbEntity
  8
0
100
AcDbLine
 62
7
  6
CONTINUOUS
 10
59.8551623112
 20
111.2150511413
 11
54.8551623112
 21
111.6524944589
  0
LINE
  5
33E
100
AcDbEntity
  8
0
100
AcDbLine
 62
7
  6
CONTINUOUS
 10
80.855162311
 20
108.452494459
 11
86.3042310204
 21
107.0357365946
  0
LINE
  5
33F
100
AcDbEntity
  8
DEFAULT_2
100
AcDbLine
 62
8
  6
HIDDEN
 10
68.2467608893
 20
114.3035391415
 11
68.1831535821
 21
114.3222644753
  0
LINE
  5
340
100
AcDbEntity
  8
DEFAULT_2
100
AcDbLine
 62
8
  6
HIDDEN
 10
68.1831535821
 20
114.3222644753
 11
68.0757958908
 21
114.3550361008
  0
LINE
  5
341
100
AcDbEntity
  8
0
100
AcDbLine
 62
7
  6
CONTINUOUS
 10
99.8551623112
 20
80.6524944591
 11
99.8551623112
 21
73.6524944591
  0
LINE
  5
342
100
AcDbEntity
  8
0
100
AcDbLine
 62
7
  6
CONTINUOUS
 10
99.8551623111
 20
89.1524944591
 11
99.8551623111
 21
90.1524944591
  0
LINE
  5
343
100
AcDbEntity
  8
0
100
AcDbLine
 62
7
  6
CONTINUOUS
 10
99.8551623111
 20
92.6494800521
 11
99.8551623111
 21
94.5701628307
  0
LINE
  5
344
100
AcDbEntity
  8
0
100
AcDbLine
 62
7
  6
CONTINUOUS
 10
99.8551623111
 20
97.0671484237
 11
99.8551623111
 21
98.1524944591
  0
LINE
  5
345
100
AcDbEntity
  8
0
100
AcDbLine
 62
7
  6
CONTINUOUS
 10
100.3551623112
 20
68.5524944591
 11
100.355162311
 21
109.2524944591
  0
LINE
  5
346
100
AcDbEntity
  8
0
100
AcDbLine
 62
7
  6
CONTINUOUS
 10
17.3420723954
 20
109.3782014509
 11
25.5577802891
 21
109.4498994587
  0
LINE
  5
347
100
AcDbEntity
  8
0
100
AcDbLine
 62
7
  6
CONTINUOUS
 10
54.8551623112
 20
107.6524944589
 11
53.8551623112
 21
107.6524944589
  0
LINE
  5
348
100
AcDbEntity
  8
0
100
AcDbLine
 62
7
  6
CONTINUOUS
 10
48.8551623112
 20
108.3024944589
 11
47.8551623112
 21
108.3024944589
  0
LINE
  5
349
100
AcDbEntity
  8
QUER2
100
AcDbLine
 62
7
  6
CONTINUOUS
 10
75.3551623112
 20
108.6524944589
 11
72.8551623112
 21
108.6524944589
  0
LINE
  5
34A
100
AcDbEntity
  8
0
100
AcDbLine
 62
7
  6
CONTINUOUS
 10
100.355162311
 20
109.2524944591
 11
80.855162311
 21
109.252494459
  0
LINE
  5
34B
100
AcDbEntity
  8
QUER2
100
AcDbLine
 62
7
  6
CONTINUOUS
 10
65.3551623112
 20
109.8524944589
 11
71.3854684655
 21
109.8524944589
  0
LINE
  5
34C
100
AcDbEntity
  8
0
100
AcDbLine
 62
7
  6
CONTINUOUS
 10
45.6051623112
 20
110.5524944589
 11
42.8551623112
 21
110.5524944589
  0
LINE
  5
34D
100
AcDbEntity
  8
0
100
AcDbLine
 62
7
  6
CONTINUOUS
 10
70.0551623112
 20
111.4024944589
 11
65.6551623112
 21
111.4024944589
  0
LINE
  5
34E
100
AcDbEntity
  8
QUER2
100
AcDbLine
 62
7
  6
CONTINUOUS
 10
62.3551623112
 20
111.5524944589
 11
65.3551623112
 21
111.5524944589
  0
LINE
  5
34F
100
AcDbEntity
  8
0
100
AcDbLine
 62
7
  6
CONTINUOUS
 10
48.8551623112
 20
112.6524944589
 11
51.6551623112
 21
112.6524944589
  0
LINE
  5
350
100
AcDbEntity
  8
0
100
AcDbLine
 62
7
  6
CONTINUOUS
 10
65.0551623112
 20
113.1524944589
 11
53.8551623112
 21
113.1524944589
  0
LINE
  5
351
100
AcDbEntity
  8
A_FLAECHEN
100
AcDbLine
 62
8
  6
HIDDEN
 10
68.3539970839
 20
113.4045786928
 11
70.3551623112
 21
113.4045786928
  0
LINE
  5
352
100
AcDbEntity
  8
A_ACHSEN
100
AcDbLine
 62
7
  6
CENTER
 10
41.8551623112
 20
113.5524944589
 11
51.8551623112
 21
113.5524944589
  0
LINE
  5
353
100
AcDbEntity
  8
0
100
AcDbLine
 62
2
  6
CONTINUOUS
 10
53.3551623112
 20
113.6524944589
 11
65.3551623112
 21
113.6524944589
  0
LINE
  5
354
100
AcDbEntity
  8
A_FLAECHEN
100
AcDbLine
 62
8
  6
HIDDEN
 10
68.2400800633
 20
114.3035365759
 11
70.2815191386
 21
114.3035365759
  0
LINE
  5
355
100
AcDbEntity
  8
A_FLAECHEN
100
AcDbLine
 62
8
  6
HIDDEN
 10
68.0850177277
 20
114.3550382993
 11
70.1856521745
 21
114.3550382993
  0
LINE
  5
356
100
AcDbEntity
  8
0
100
AcDbLine
 62
7
  6
CONTINUOUS
 10
98.3656342387
 20
108.9665603637
 11
80.855162311
 21
109.0582458181
  0
LINE
  5
357
100
AcDbEntity
  8
0
100
AcDbLine
 62
7
  6
CONTINUOUS
 10
172.855162311
 20
114.5524944595
 11
170.355162311
 21
114.5524944595
  0
LINE
  5
358
100
AcDbEntity
  8
A_ACHSEN
100
AcDbLine
 62
7
  6
CENTER
 10
50.3551623112
 20
115.6524944589
 11
73.3551623112
 21
115.6524944589
  0
LINE
  5
359
100
AcDbEntity
  8
0
100
AcDbLine
 62
7
  6
CONTINUOUS
 10
45.6051623112
 20
116.5524944589
 11
42.8551623112
 21
116.5524944589
  0
LINE
  5
35A
100
AcDbEntity
  8
A_FLAECHEN
100
AcDbLine
 62
8
  6
HIDDEN
 10
68.0850177277
 20
116.9499506185
 11
70.185646612
 21
116.9499506185
  0
LINE
  5
35B
100
AcDbEntity
  8
A_FLAECHEN
100
AcDbLine
 62
8
  6
HIDDEN
 10
68.2400796822
 20
117.001452342
 11
70.2814943051
 21
117.001452342
  0
LINE
  5
35C
100
AcDbEntity
  8
0
100
AcDbLine
 62
7
  6
CONTINUOUS
 10
43.3551623112
 20
117.0524944589
 11
42.8551623112
 21
117.0524944589
  0
LINE
  5
35D
100
AcDbEntity
  8
0
100
AcDbLine
 62
2
  6
CONTINUOUS
 10
53.3551623112
 20
117.6524944589
 11
65.3551623112
 21
117.6524944589
  0
LINE
  5
35E
100
AcDbEntity
  8
A_FLAECHEN
100
AcDbLine
 62
8
  6
HIDDEN
 10
68.3539970839
 20
117.900410225
 11
70.3551623112
 21
117.900410225
  0
LINE
  5
35F
100
AcDbEntity
  8
0
100
AcDbLine
 62
7
  6
CONTINUOUS
 10
43.3551623112
 20
118.1091944589
 11
42.8551623112
 21
118.1091944589
  0
LINE
  5
360
100
AcDbEntity
  8
0
100
AcDbLine
 62
7
  6
CONTINUOUS
 10
65.0551623112
 20
118.1524944589
 11
53.8551623112
 21
118.1524944589
  0
LINE
  5
361
100
AcDbEntity
  8
0
100
AcDbLine
 62
7
  6
CONTINUOUS
 10
43.3551623112
 20
118.1824561523
 11
42.8551623112
 21
118.1824561523
  0
LINE
  5
362
100
AcDbEntity
  8
0
100
AcDbLine
 62
7
  6
CONTINUOUS
 10
43.3551623112
 20
118.3289795391
 11
42.8551623112
 21
118.3289795391
  0
LINE
  5
363
100
AcDbEntity
  8
0
100
AcDbLine
 62
7
  6
CONTINUOUS
 10
43.3551623112
 20
118.6220263127
 11
42.8551623112
 21
118.6220263127
  0
LINE
  5
364
100
AcDbEntity
  8
0
100
AcDbLine
 62
7
  6
CONTINUOUS
 10
48.8551623112
 20
118.6524944589
 11
51.6551623112
 21
118.6524944589
  0
LINE
  5
365
100
AcDbEntity
  8
0
100
AcDbLine
 62
7
  6
CONTINUOUS
 10
48.8551623112
 20
118.8024944589
 11
47.8551623112
 21
118.8024944589
  0
LINE
  5
366
100
AcDbEntity
  8
0
100
AcDbLine
 62
7
  6
CONTINUOUS
 10
43.3551623112
 20
118.9150730863
 11
42.8551623112
 21
118.9150730863
  0
LINE
  5
367
100
AcDbEntity
  8
0
100
AcDbLine
 62
7
  6
CONTINUOUS
 10
43.3551623112
 20
119.2813817585
 11
42.8551623112
 21
119.2813817585
  0
LINE
  5
368
100
AcDbEntity
  8
0
100
AcDbLine
 62
7
  6
CONTINUOUS
 10
187.8551623109
 20
119.5524944596
 11
172.8551623109
 21
119.5524944595
  0
LINE
  5
369
100
AcDbEntity
  8
QUER2
100
AcDbLine
 62
7
  6
CONTINUOUS
 10
62.3551623112
 20
119.7524944589
 11
65.3551623112
 21
119.7524944589
  0
LINE
  5
36A
100
AcDbEntity
  8
0
100
AcDbLine
 62
7
  6
CONTINUOUS
 10
70.0551623112
 20
119.9024944589
 11
65.6551623112
 21
119.9024944589
  0
LINE
  5
36B
100
AcDbEntity
  8
0
100
AcDbLine
 62
7
  6
CONTINUOUS
 10
43.3551623112
 20
120.380307262
 11
42.8551623112
 21
120.380307262
  0
LINE
  5
36C
100
AcDbEntity
  8
0
100
AcDbLine
 62
7
  6
CONTINUOUS
 10
43.3551623112
 20
120.746615729
 11
42.8551623112
 21
120.746615729
  0
LINE
  5
36D
100
AcDbEntity
  8
0
100
AcDbLine
 62
7
  6
CONTINUOUS
 10
43.3551623112
 20
121.0396625539
 11
42.8551623112
 21
121.0396625539
  0
LINE
  5
36E
100
AcDbEntity
  8
0
100
AcDbLine
 62
7
  6
CONTINUOUS
 10
89.6318010718
 20
162.9205751166
 11
93.7948552221
 21
151.4826777037
  0
LINE
  5
36F
100
AcDbEntity
  8
QUER2
100
AcDbLine
 62
7
  6
CONTINUOUS
 10
85.627702541
 20
82.165488135
 11
82.0921686351
 21
78.6299542291
  0
LINE
  5
370
100
AcDbEntity
  8
0
100
AcDbLine
 62
7
  6
CONTINUOUS
 10
50.3289837015
 20
125.0331159513
 11
74.3551623112
 21
125.4524944589
  0
LINE
  5
371
100
AcDbEntity
  8
0
100
AcDbLine
 62
7
  6
CONTINUOUS
 10
56.3420725079
 20
123.7214772091
 11
62.3551623112
 21
123.7739526488
  0
LINE
  5
372
100
AcDbEntity
  8
A_RUNDUNGEN
100
AcDbLine
 62
7
  6
CONTINUOUS
 10
62.3551623112
 20
123.7739526488
 11
67.2737648915
 21
123.8168766432
  0
LINE
  5
373
100
AcDbEntity
  8
0
100
AcDbLine
 62
7
  6
CONTINUOUS
 10
67.2737648915
 20
123.8168766432
 11
71.3551623112
 21
123.8524944589
  0
LINE
  5
374
100
AcDbEntity
  8
0
100
AcDbLine
 62
7
  6
CONTINUOUS
 10
74.3551623112
 20
124.0524944589
 11
53.1420725079
 21
123.8673706288
  0
LINE
  5
375
100
AcDbEntity
  8
0
100
AcDbLine
 62
7
  6
CONTINUOUS
 10
44.8446903835
 20
125.3490237843
 11
48.8551623112
 21
125.3700227581
  0
LINE
  5
376
100
AcDbEntity
  8
A_RUNDUNGEN
100
AcDbLine
 62
7
  6
CONTINUOUS
 10
48.8551623112
 20
125.3700227581
 11
74.1551623112
 21
125.5024944589
  0
LINE
  5
377
100
AcDbEntity
  8
0
100
AcDbLine
 62
7
  6
CONTINUOUS
 10
43.3551623112
 20
121.3327093531
 11
42.8551623112
 21
121.3327093531
  0
LINE
  5
378
100
AcDbEntity
  8
QUER2
100
AcDbLine
 62
7
  6
CONTINUOUS
 10
65.3551623112
 20
121.4524944589
 11
71.3551623112
 21
121.4524944589
  0
LINE
  5
379
100
AcDbEntity
  8
0
100
AcDbLine
 62
7
  6
CONTINUOUS
 10
43.3551623112
 20
121.4792327591
 11
42.8551623112
 21
121.4792327591
  0
LINE
  5
37A
100
AcDbEntity
  8
0
100
AcDbLine
 62
7
  6
CONTINUOUS
 10
43.3551623112
 20
121.5524944589
 11
42.8551623112
 21
121.5524944589
  0
LINE
  5
37B
100
AcDbEntity
  8
QUER2
100
AcDbLine
 62
7
  6
CONTINUOUS
 10
71.0551623112
 20
122.2524944589
 11
62.6551623112
 21
122.2524944589
  0
LINE
  5
37C
100
AcDbEntity
  8
0
100
AcDbLine
 62
7
  6
CONTINUOUS
 10
43.3551623112
 20
122.7246816558
 11
42.8551623112
 21
122.7246816558
  0
LINE
  5
37D
100
AcDbEntity
  8
0
100
AcDbLine
 62
7
  6
CONTINUOUS
 10
43.3551623112
 20
123.0524944589
 11
42.8551623112
 21
123.0524944589
  0
LINE
  5
37E
100
AcDbEntity
  8
A_RUNDUNGEN
100
AcDbLine
 62
7
  6
CONTINUOUS
 10
53.1551623112
 20
123.7774944589
 11
61.3420725079
 21
123.7774944589
  0
LINE
  5
37F
100
AcDbEntity
  8
A_RUNDUNGEN
100
AcDbLine
 62
7
  6
CONTINUOUS
 10
75.8551623112
 20
125.4524944589
 11
74.3551623112
 21
125.4524944589
  0
LINE
  5
380
100
AcDbEntity
  8
0
100
AcDbLine
 62
7
  6
CONTINUOUS
 10
42.8551623112
 20
125.5524944589
 11
75.8551623112
 21
125.5524944589
  0
LINE
  5
381
100
AcDbEntity
  8
0
100
AcDbLine
 62
7
  6
CONTINUOUS
 10
83.7376883109
 20
126.552494459
 11
98.0160623109
 21
126.5524944591
  0
LINE
  5
382
100
AcDbEntity
  8
0
100
AcDbLine
 62
7
  6
CONTINUOUS
 10
67.3551623112
 20
127.5524944589
 11
75.8551623112
 21
127.5524944589
  0
LINE
  5
383
100
AcDbEntity
  8
0
100
AcDbLine
 62
7
  6
CONTINUOUS
 10
25.5577802773
 20
122.6550894592
 11
17.8420724982
 21
122.722423466
  0
LINE
  5
384
100
AcDbEntity
  8
0
100
AcDbLine
 62
7
  6
CONTINUOUS
 10
100.3551623112
 20
81.1524944591
 11
99.8551623112
 21
80.6524944591
  0
LINE
  5
385
100
AcDbEntity
  8
QUER2
100
AcDbLine
 62
7
  6
CONTINUOUS
 10
84.4890671943
 20
82.6374675663
 11
84.9369750125
 21
82.8463304121
  0
LINE
  5
386
100
AcDbEntity
  8
QUER2
100
AcDbLine
 62
7
  6
CONTINUOUS
 10
79.1129998754
 20
81.7904617213
 11
80.721180985
 21
82.5123562222
  0
LINE
  5
387
100
AcDbEntity
  8
0
100
AcDbLine
 62
7
  6
CONTINUOUS
 10
192.1971821688
 20
124.2009644079
 11
190.3291029416
 21
123.5210400532
  0
LINE
  5
388
100
AcDbEntity
  8
0
100
AcDbLine
 62
7
  6
CONTINUOUS
 10
75.9891373112
 20
132.5524944589
 11
67.3551623112
 21
132.5524944589
  0
LINE
  5
389
100
AcDbEntity
  8
0
100
AcDbLine
 62
7
  6
CONTINUOUS
 10
92.3551623112
 20
133.0524944589
 11
76.8551623112
 21
133.0524944589
  0
LINE
  5
38A
100
AcDbEntity
  8
0
100
AcDbLine
 62
7
  6
CONTINUOUS
 10
17.8420724982
 20
140.3825654518
 11
25.5577802686
 21
140.4498994585
  0
LINE
  5
38B
100
AcDbEntity
  8
0
100
AcDbLine
 62
7
  6
CONTINUOUS
 10
103.6647113108
 20
139.5524944591
 11
184.8730303108
 21
139.5524944596
  0
LINE
  5
38C
100
AcDbEntity
  8
0
100
AcDbLine
 62
7
  6
CONTINUOUS
 10
19.0288106402
 20
159.9928945772
 11
16.6815141834
 21
160.4067864815
  0
LINE
  5
38D
100
AcDbEntity
  8
0
100
AcDbLine
 62
7
  6
CONTINUOUS
 10
25.5577802966
 20
153.655089459
 11
20.3507990081
 21
153.7005304616
  0
LINE
  5
38E
100
AcDbEntity
  8
0
100
AcDbLine
 62
7
  6
CONTINUOUS
 10
188.3551623109
 20
120.0524944596
 11
187.8551623109
 21
119.5524944596
  0
LINE
  5
38F
100
AcDbEntity
  8
0
100
AcDbLine
 62
7
  6
CONTINUOUS
 10
17.8551623112
 20
165.5524944589
 11
85.8730303112
 21
165.5524944589
  0
LINE
  5
390
100
AcDbEntity
  8
0
100
AcDbLine
 62
7
  6
CONTINUOUS
 10
170.355162311
 20
114.5524944595
 11
170.355162311
 21
106.5524944595
  0
LINE
  5
391
100
AcDbEntity
  8
0
100
AcDbLine
 62
7
  6
CONTINUOUS
 10
172.8551623109
 20
119.5524944595
 11
172.855162311
 21
114.5524944595
  0
LINE
  5
392
100
AcDbEntity
  8
0
100
AcDbLine
 62
7
  6
CONTINUOUS
 10
172.855162311
 20
106.5524944595
 11
172.8551623112
 21
67.5524944595
  0
LINE
  5
393
100
AcDbEntity
  8
0
100
AcDbLine
 62
7
  6
CONTINUOUS
 10
188.3551623109
 20
120.7019614596
 11
188.3551623109
 21
120.0524944596
  0
LINE
  5
394
100
AcDbEntity
  8
0
100
AcDbLine
 62
7
  6
CONTINUOUS
 10
188.6318001884
 20
136.9205747959
 11
192.7948543388
 21
125.482677383
  0
ARC
  5
395
100
AcDbEntity
  8
0
100
AcDbCircle
 62
7
  6
CONTINUOUS
 10
17.8551623112
 20
89.5524944589
 40
2.0
100
AcDbArc
 50
180.0
 51
270.0
  0
ARC
  5
396
100
AcDbEntity
  8
0
100
AcDbCircle
 62
7
  6
CONTINUOUS
 10
44.8551623112
 20
97.755937718
 40
2.0
100
AcDbArc
 50
180.0
 51
269.7
  0
ARC
  5
397
100
AcDbEntity
  8
0
100
AcDbCircle
 62
7
  6
CONTINUOUS
 10
56.3551623112
 20
98.8834545934
 40
1.5
100
AcDbArc
 50
180.0
 51
269.5
  0
ARC
  5
398
100
AcDbEntity
  8
0
100
AcDbCircle
 62
7
  6
CONTINUOUS
 10
50.3551623112
 20
97.5716445093
 40
1.5
100
AcDbArc
 50
180.0
 51
269.0
  0
ARC
  5
399
100
AcDbEntity
  8
0
100
AcDbCircle
 62
7
  6
CONTINUOUS
 10
53.1551623112
 20
98.7375611737
 40
1.5
100
AcDbArc
 50
180.0
 51
269.5
  0
ARC
  5
39A
100
AcDbEntity
  8
A_RUNDUNGEN
100
AcDbCircle
 62
7
  6
CONTINUOUS
 10
53.1551623112
 20
98.8274944589
 40
1.5
100
AcDbArc
 50
183.4310820436
 51
270.0
  0
ARC
  5
39B
100
AcDbEntity
  8
0
100
AcDbCircle
 62
7
  6
CONTINUOUS
 10
17.3551623112
 20
107.8782584589
 40
1.5
100
AcDbArc
 50
90.5000042622
 51
180.0
  0
ARC
  5
39C
100
AcDbEntity
  8
A_RUNDUNGEN
100
AcDbCircle
 62
7
  6
CONTINUOUS
 10
57.7551623112
 20
98.1973985426
 40
1.0
100
AcDbArc
 50
235.7510301834
 51
239.6666666658
  0
ARC
  5
39D
100
AcDbEntity
  8
0
100
AcDbCircle
 62
7
  6
CONTINUOUS
 10
25.5551623112
 20
109.7498874589
 40
0.3
100
AcDbArc
 50
270.5000042622
 51
360.0
  0
ARC
  5
39E
100
AcDbEntity
  8
QUER2
100
AcDbCircle
 62
7
  6
CONTINUOUS
 10
68.4418610518
 20
73.8752220648
 40
13.3928774596
100
AcDbArc
 50
62.727386009
 51
67.20682206
  0
ARC
  5
39F
100
AcDbEntity
  8
QUER2
100
AcDbCircle
 62
7
  6
CONTINUOUS
 10
68.4418610518
 20
73.8752220648
 40
13.3928774596
100
AcDbArc
 50
55.2845037669
 51
59.2844205334
  0
ARC
  5
3A0
100
AcDbEntity
  8
QUER2
100
AcDbCircle
 62
7
  6
CONTINUOUS
 10
68.4418610518
 20
73.8752220648
 40
13.3928774596
100
AcDbArc
 50
47.7810361635
 51
51.8421451123
  0
ARC
  5
3A1
100
AcDbEntity
  8
QUER2
100
AcDbCircle
 62
7
  6
CONTINUOUS
 10
68.4418610518
 20
73.8752220648
 40
13.3928774596
100
AcDbArc
 50
39.9704349704
 51
44.3393766357
  0
ARC
  5
3A2
100
AcDbEntity
  8
QUER2
100
AcDbCircle
 62
7
  6
CONTINUOUS
 10
68.4418610518
 20
73.8752220648
 40
13.3928774596
100
AcDbArc
 50
77.598515657
 51
97.5210600325
  0
ARC
  5
3A3
100
AcDbEntity
  8
QUER2
100
AcDbCircle
 62
7
  6
CONTINUOUS
 10
68.4418610518
 20
73.8752220648
 40
11.478516903
100
AcDbArc
 50
30.8333048429
 51
97.8460018237
  0
ARC
  5
3A4
100
AcDbEntity
  8
0
100
AcDbCircle
 62
7
  6
CONTINUOUS
 10
68.3551623112
 20
74.1524944589
 40
5.5
100
AcDbArc
 50
65.390016476
 51
294.6099835241
  0
ARC
  5
3A5
100
AcDbEntity
  8
QUER2
100
AcDbCircle
 62
7
  6
CONTINUOUS
 10
68.3551623112
 20
74.1524944589
 40
5.0
100
AcDbArc
 50
90.0
 51
270.0
  0
ARC
  5
3A6
100
AcDbEntity
  8
0
100
AcDbCircle
 62
7
  6
CONTINUOUS
 10
65.8551623112
 20
67.5524944589
 40
3.0
100
AcDbArc
 50
180.0000000003
 51
270.0000000003
  0
CIRCLE
  5
3A7
100
AcDbEntity
  8
QUER2
100
AcDbCircle
 62
7
  6
CONTINUOUS
 10
68.3551623112
 20
74.1524944589
 40
2.5
  0
CIRCLE
  5
3A8
100
AcDbEntity
  8
A_ACHSEN
100
AcDbCircle
 62
7
  6
CONTINUOUS
 10
68.3551623112
 20
74.1524944589
 40
2.45
  0
CIRCLE
  5
3A9
100
AcDbEntity
  8
A_ACHSEN
100
AcDbCircle
 62
7
  6
CONTINUOUS
 10
68.3551623112
 20
74.1524944589
 40
1.6215728753
  0
ARC
  5
3AA
100
AcDbEntity
  8
0
100
AcDbCircle
 62
7
  6
CONTINUOUS
 10
65.8551623112
 20
78.5524944589
 40
3.0
100
AcDbArc
 50
90.0000000003
 51
135.1506922722
  0
ARC
  5
3AB
100
AcDbEntity
  8
0
100
AcDbCircle
 62
7
  6
CONTINUOUS
 10
73.8551623112
 20
89.5524944589
 40
2.0
100
AcDbArc
 50
270.0
 51
360.0
  0
ARC
  5
3AC
100
AcDbEntity
  8
QUER2
100
AcDbCircle
 62
7
  6
CONTINUOUS
 10
71.4259899436
 20
87.4461422543
 40
0.5022619795
100
AcDbArc
 50
257.598515657
 51
0.8619182248
  0
ARC
  5
3AD
100
AcDbEntity
  8
QUER2
100
AcDbCircle
 62
7
  6
CONTINUOUS
 10
73.2580285469
 20
86.3748194482
 40
0.4023630867
100
AcDbArc
 50
176.5890765054
 51
337.7153682265
  0
ARC
  5
3AE
100
AcDbEntity
  8
QUER2
100
AcDbCircle
 62
7
  6
CONTINUOUS
 10
66.8334312245
 20
85.547342234
 40
0.3039037208
100
AcDbArc
 50
184.5937440552
 51
277.8460018237
  0
ARC
  5
3AF
100
AcDbEntity
  8
QUER2
100
AcDbCircle
 62
7
  6
CONTINUOUS
 10
66.7286373509
 20
86.8515889711
 40
0.3039037208
100
AcDbArc
 50
97.5210600325
 51
184.5937440552
  0
ARC
  5
3B0
100
AcDbEntity
  8
QUER2
100
AcDbCircle
 62
7
  6
CONTINUOUS
 10
80.8208732479
 20
80.1133816506
 40
0.6
100
AcDbArc
 50
350.0
 51
121.8763603803
  0
ARC
  5
3B1
100
AcDbEntity
  8
QUER2
100
AcDbCircle
 62
7
  6
CONTINUOUS
 10
80.9187472418
 20
79.8889084273
 40
0.5837
100
AcDbArc
 50
8.4071409463
 51
121.8587620103
  0
ARC
  5
3B2
100
AcDbEntity
  8
QUER2
100
AcDbCircle
 62
7
  6
CONTINUOUS
 10
78.7293019502
 20
80.0158753193
 40
0.5022619795
100
AcDbArc
 50
210.8333048429
 51
290.547271683
  0
ARC
  5
3B3
100
AcDbEntity
  8
QUER2
100
AcDbCircle
 62
7
  6
CONTINUOUS
 10
81.8644802516
 20
79.1093726267
 40
0.5
100
AcDbArc
 50
170.9328996899
 51
315.0
  0
ARC
  5
3B4
100
AcDbEntity
  8
QUER2
100
AcDbCircle
 62
7
  6
CONTINUOUS
 10
81.7386152445
 20
78.9835076197
 40
0.5
100
AcDbArc
 50
170.0
 51
315.0
  0
ARC
  5
3B5
100
AcDbEntity
  8
QUER2
100
AcDbCircle
 62
7
  6
CONTINUOUS
 10
77.7226668441
 20
83.506009675
 40
0.4023630867
100
AcDbArc
 50
134.3466524339
 51
317.7737603653
  0
ARC
  5
3B6
100
AcDbEntity
  8
QUER2
100
AcDbCircle
 62
7
  6
CONTINUOUS
 10
78.9482235511
 20
82.1575377576
 40
0.4023630867
100
AcDbArc
 50
127.0417644818
 51
294.1747780881
  0
ARC
  5
3B7
100
AcDbEntity
  8
QUER2
100
AcDbCircle
 62
7
  6
CONTINUOUS
 10
75.3551623112
 20
88.9024944589
 40
19.75
100
AcDbArc
 50
270.0
 51
90.0
  0
ARC
  5
3B8
100
AcDbEntity
  8
QUER2
100
AcDbCircle
 62
7
  6
CONTINUOUS
 10
75.3551623112
 20
88.9024944589
 40
9.75
100
AcDbArc
 50
270.0
 51
301.8763603803
  0
ARC
  5
3B9
100
AcDbEntity
  8
QUER2
100
AcDbCircle
 62
7
  6
CONTINUOUS
 10
75.3551623112
 20
88.9024944589
 40
9.75
100
AcDbArc
 50
328.1236396197
 51
90.0
  0
ARC
  5
3BA
100
AcDbEntity
  8
QUER2
100
AcDbCircle
 62
7
  6
CONTINUOUS
 10
75.5216169524
 20
88.5736876516
 40
9.6414848656
100
AcDbArc
 50
290.547271683
 51
301.8587620103
  0
ARC
  5
3BB
100
AcDbEntity
  8
QUER2
100
AcDbCircle
 62
7
  6
CONTINUOUS
 10
75.5216169524
 20
88.5736876516
 40
9.6414848656
100
AcDbArc
 50
328.2593605105
 51
340.8200823557
  0
ARC
  5
3BC
100
AcDbEntity
  8
QUER2
100
AcDbCircle
 62
7
  6
CONTINUOUS
 10
78.458963989
 20
87.551949451
 40
6.5315079261
100
AcDbArc
 50
352.5872491716
 51
180.8619182248
  0
ARC
  5
3BD
100
AcDbEntity
  8
QUER2
100
AcDbCircle
 62
7
  6
CONTINUOUS
 10
78.458963989
 20
87.551949451
 40
5.5240497507
100
AcDbArc
 50
294.1747780881
 51
176.5890765054
  0
ARC
  5
3BE
100
AcDbEntity
  8
QUER2
100
AcDbCircle
 62
7
  6
CONTINUOUS
 10
74.9329947118
 20
85.5883831342
 40
0.4023630867
100
AcDbArc
 50
151.6741664759
 51
330.3376400666
  0
ARC
  5
3BF
100
AcDbEntity
  8
QUER2
100
AcDbCircle
 62
7
  6
CONTINUOUS
 10
76.3980383021
 20
84.6522686595
 40
0.4023630867
100
AcDbArc
 50
144.829576765
 51
322.2970721142
  0
ARC
  5
3C0
100
AcDbEntity
  8
0
100
AcDbCircle
 62
7
  6
CONTINUOUS
 10
91.8551623112
 20
75.6524944591
 40
5.0
100
AcDbArc
 50
270.0000000003
 51
360.0
  0
ARC
  5
3C1
100
AcDbEntity
  8
0
100
AcDbCircle
 62
7
  6
CONTINUOUS
 10
98.3551623112
 20
70.838401139
 40
2.0
100
AcDbArc
 50
270.3000000003
 51
360.0
  0
ARC
  5
3C2
100
AcDbEntity
  8
A_RUNDUNGEN
100
AcDbCircle
 62
7
  6
CONTINUOUS
 10
93.8551623764
 20
83.9231415002
 40
2.999999909
100
AcDbArc
 50
270.4999987695
 51
289.5983349906
  0
ARC
  5
3C3
100
AcDbEntity
  8
QUER2
100
AcDbCircle
 62
7
  6
CONTINUOUS
 10
84.2341253571
 20
83.1841921005
 40
0.6032437788
100
AcDbArc
 50
148.2593605105
 51
295.0
  0
ARC
  5
3C4
100
AcDbEntity
  8
QUER2
100
AcDbCircle
 62
7
  6
CONTINUOUS
 10
84.1442751195
 20
83.4367835222
 40
0.6
100
AcDbArc
 50
148.1236396197
 51
280.0
  0
ARC
  5
3C5
100
AcDbEntity
  8
QUER2
100
AcDbCircle
 62
7
  6
CONTINUOUS
 10
85.1482841434
 20
82.3931765186
 40
0.5
100
AcDbArc
 50
315.0
 51
115.0
  0
ARC
  5
3C6
100
AcDbEntity
  8
QUER2
100
AcDbCircle
 62
7
  6
CONTINUOUS
 10
85.2741491504
 20
82.5190415256
 40
0.5
100
AcDbArc
 50
315.0
 51
100.0
  0
ARC
  5
3C7
100
AcDbEntity
  8
0
100
AcDbCircle
 62
7
  6
CONTINUOUS
 10
77.6621317474
 20
110.5524944589
 40
3.5547736725
100
AcDbArc
 50
175.9671753207
 51
184.0328246793
  0
ARC
  5
3C8
100
AcDbEntity
  8
0
100
AcDbCircle
 62
7
  6
CONTINUOUS
 10
98.355162311
 20
106.9665877792
 40
2.0
100
AcDbArc
 50
0.0000000003
 51
89.7000000003
  0
ARC
  5
3C9
100
AcDbEntity
  8
0
100
AcDbCircle
 62
7
  6
CONTINUOUS
 10
95.355162311
 20
105.2722844076
 40
1.5
100
AcDbArc
 50
0.0000000003
 51
88.5000000003
  0
ARC
  5
3CA
100
AcDbEntity
  8
QUER2
100
AcDbCircle
 62
7
  6
CONTINUOUS
 10
72.8551623112
 20
110.1524944589
 40
1.5
100
AcDbArc
 50
180.0
 51
270.0
  0
ARC
  5
3CB
100
AcDbEntity
  8
0
100
AcDbCircle
 62
7
  6
CONTINUOUS
 10
86.5558648722
 20
108.0035591014
 40
1.0
100
AcDbArc
 50
255.4257838023
 51
268.5000000003
  0
ARC
  5
3CC
100
AcDbEntity
  8
A_RUNDUNGEN
100
AcDbCircle
 62
7
  6
CONTINUOUS
 10
65.0551623112
 20
112.8524944589
 40
0.3
100
AcDbArc
 50
0.0007005519
 51
90.0
  0
ARC
  5
3CD
100
AcDbEntity
  8
A_RUNDUNGEN
100
AcDbCircle
 62
7
  6
CONTINUOUS
 10
65.6551623112
 20
111.7024944589
 40
0.3
100
AcDbArc
 50
179.9999923139
 51
270.0
  0
ARC
  5
3CE
100
AcDbEntity
  8
A_RUNDUNGEN
100
AcDbCircle
 62
7
  6
CONTINUOUS
 10
70.0551623112
 20
111.7024944589
 40
0.3
100
AcDbArc
 50
270.0
 51
0.0001801248
  0
ARC
  5
3CF
100
AcDbEntity
  8
QUER2
100
AcDbCircle
 62
7
  6
CONTINUOUS
 10
62.6551623112
 20
98.9524944589
 40
0.3
100
AcDbArc
 50
180.0
 51
270.0
  0
ARC
  5
3D0
100
AcDbEntity
  8
0
100
AcDbCircle
 62
7
  6
CONTINUOUS
 10
85.8730303112
 20
161.5524944589
 40
4.0
100
AcDbArc
 50
19.9999997762
 51
90.0
  0
ARC
  5
3D1
100
AcDbEntity
  8
0
100
AcDbCircle
 62
7
  6
CONTINUOUS
 10
103.6647113108
 20
136.5524944591
 40
2.9999996523
100
AcDbArc
 50
90.0000000003
 51
170.0000017938
  0
ARC
  5
3D2
100
AcDbEntity
  8
0
100
AcDbCircle
 62
7
  6
CONTINUOUS
 10
44.8551623112
 20
123.3490511998
 40
2.0
100
AcDbArc
 50
90.3
 51
180.0
  0
ARC
  5
3D3
100
AcDbEntity
  8
0
100
AcDbCircle
 62
7
  6
CONTINUOUS
 10
17.8551623112
 20
163.5524944589
 40
2.0
100
AcDbArc
 50
90.0
 51
180.0
  0
ARC
  5
3D4
100
AcDbEntity
  8
0
100
AcDbCircle
 62
7
  6
CONTINUOUS
 10
83.7376883109
 20
124.552494459
 40
1.999999563
100
AcDbArc
 50
90.0000000003
 51
174.9999992832
  0
ARC
  5
3D5
100
AcDbEntity
  8
0
100
AcDbCircle
 62
7
  6
CONTINUOUS
 10
17.8551623112
 20
124.2223664589
 40
1.5000001084
100
AcDbArc
 50
180.0
 51
269.4999996651
  0
ARC
  5
3D6
100
AcDbEntity
  8
0
100
AcDbCircle
 62
7
  6
CONTINUOUS
 10
56.3551623112
 20
122.2215343245
 40
1.5
100
AcDbArc
 50
90.5
 51
180.0
  0
ARC
  5
3D7
100
AcDbEntity
  8
0
100
AcDbCircle
 62
7
  6
CONTINUOUS
 10
50.3551623112
 20
123.5333444086
 40
1.5
100
AcDbArc
 50
91.0
 51
180.0
  0
ARC
  5
3D8
100
AcDbEntity
  8
A_RUNDUNGEN
100
AcDbCircle
 62
7
  6
CONTINUOUS
 10
53.1551623112
 20
122.2774944589
 40
1.5
100
AcDbArc
 50
90.0
 51
176.5689179564
  0
ARC
  5
3D9
100
AcDbEntity
  8
0
100
AcDbCircle
 62
7
  6
CONTINUOUS
 10
53.1551623112
 20
122.3674277442
 40
1.5
100
AcDbArc
 50
90.5
 51
180.0
  0
ARC
  5
3DA
100
AcDbEntity
  8
0
100
AcDbCircle
 62
7
  6
CONTINUOUS
 10
17.8551623112
 20
138.8826224589
 40
1.5
100
AcDbArc
 50
90.5000003349
 51
180.0
  0
ARC
  5
3DB
100
AcDbEntity
  8
0
100
AcDbCircle
 62
7
  6
CONTINUOUS
 10
92.3551623112
 20
134.5524944589
 40
1.5
100
AcDbArc
 50
270.0
 51
360.0
  0
ARC
  5
3DC
100
AcDbEntity
  8
0
100
AcDbCircle
 62
7
  6
CONTINUOUS
 10
18.8551623112
 20
159.0080864589
 40
1.000000386
100
AcDbArc
 50
0.0
 51
79.9999950958
  0
ARC
  5
3DD
100
AcDbEntity
  8
0
100
AcDbCircle
 62
7
  6
CONTINUOUS
 10
98.0160623109
 20
127.5524944591
 40
1.000000386
100
AcDbArc
 50
270.0000000003
 51
350.0000017938
  0
ARC
  5
3DE
100
AcDbEntity
  8
0
100
AcDbCircle
 62
7
  6
CONTINUOUS
 10
92.8551623112
 20
151.1406574589
 40
1.0000003073
100
AcDbArc
 50
0.0
 51
19.9999997762
  0
ARC
  5
3DF
100
AcDbEntity
  8
0
100
AcDbCircle
 62
7
  6
CONTINUOUS
 10
76.8551623112
 20
132.0524944589
 40
0.9999993981
100
AcDbArc
 50
90.0
 51
149.9999884324
  0
ARC
  5
3E0
100
AcDbEntity
  8
0
100
AcDbCircle
 62
7
  6
CONTINUOUS
 10
16.8551623112
 20
161.3915934589
 40
0.9999992276
100
AcDbArc
 50
180.0
 51
259.9999950958
  0
ARC
  5
3E1
100
AcDbEntity
  8
A_RUNDUNGEN
100
AcDbCircle
 62
7
  6
CONTINUOUS
 10
57.7551394751
 20
122.9075901759
 40
0.999992388
100
AcDbArc
 50
120.3325947204
 51
124.247925682
  0
ARC
  5
3E2
100
AcDbEntity
  8
0
100
AcDbCircle
 62
7
  6
CONTINUOUS
 10
20.3551623112
 20
154.2005114589
 40
0.5000000361
100
AcDbArc
 50
180.0
 51
269.4999959815
  0
ARC
  5
3E3
100
AcDbEntity
  8
0
100
AcDbCircle
 62
7
  6
CONTINUOUS
 10
25.5551623112
 20
153.3551004589
 40
0.3000004234
100
AcDbArc
 50
0.0
 51
89.4999959815
  0
ARC
  5
3E4
100
AcDbEntity
  8
0
100
AcDbCircle
 62
7
  6
CONTINUOUS
 10
25.5551623112
 20
122.3551004589
 40
0.3000004234
100
AcDbArc
 50
0.0
 51
89.4999996651
  0
ARC
  5
3E5
100
AcDbEntity
  8
A_RUNDUNGEN
100
AcDbCircle
 62
7
  6
CONTINUOUS
 10
65.0551623112
 20
118.4524944589
 40
0.3
100
AcDbArc
 50
270.0
 51
359.9992994481
  0
ARC
  5
3E6
100
AcDbEntity
  8
A_RUNDUNGEN
100
AcDbCircle
 62
7
  6
CONTINUOUS
 10
65.6551623112
 20
119.6024944589
 40
0.3
100
AcDbArc
 50
90.0
 51
180.0000076861
  0
ARC
  5
3E7
100
AcDbEntity
  8
A_RUNDUNGEN
100
AcDbCircle
 62
7
  6
CONTINUOUS
 10
70.0551623112
 20
119.6024944589
 40
0.3
100
AcDbArc
 50
359.9998198752
 51
90.0
  0
ARC
  5
3E8
100
AcDbEntity
  8
QUER2
100
AcDbCircle
 62
7
  6
CONTINUOUS
 10
62.6551623112
 20
121.9524944589
 40
0.3
100
AcDbArc
 50
90.0
 51
180.0
  0
ARC
  5
3E9
100
AcDbEntity
  8
QUER2
100
AcDbCircle
 62
7
  6
CONTINUOUS
 10
71.0551623112
 20
121.9524944589
 40
0.3
100
AcDbArc
 50
0.0
 51
90.0
  0
ARC
  5
3EA
100
AcDbEntity
  8
0
100
AcDbCircle
 62
7
  6
CONTINUOUS
 10
25.5551623112
 20
140.7498874589
 40
0.3
100
AcDbArc
 50
270.5000003349
 51
360.0
  0
ARC
  5
3EB
100
AcDbEntity
  8
0
100
AcDbCircle
 62
7
  6
CONTINUOUS
 10
165.3551623112
 20
67.5524944595
 40
3.0
100
AcDbArc
 50
270.0000000003
 51
360.0
  0
ARC
  5
3EC
100
AcDbEntity
  8
0
100
AcDbCircle
 62
7
  6
CONTINUOUS
 10
184.8730303108
 20
135.5524944596
 40
4.0
100
AcDbArc
 50
19.9999997765
 51
90.0000000003
  0
ARC
  5
3ED
100
AcDbEntity
  8
0
100
AcDbCircle
 62
7
  6
CONTINUOUS
 10
191.3551623109
 20
120.7019614597
 40
3.0
100
AcDbArc
 50
109.9999761889
 51
180.0000000003
  0
ARC
  5
3EE
100
AcDbEntity
  8
0
100
AcDbCircle
 62
7
  6
CONTINUOUS
 10
191.8551623109
 20
125.1406574597
 40
0.9999993676
100
AcDbArc
 50
289.9999761889
 51
19.9999997765
  0
SPLINE
  5
3EF
100
AcDbEntity
  8
DEFAULT_2
100
AcDbSpline
 62
8
  6
HIDDEN
 70
0
 71
3
 72
16
 73
12
 74
0
 42
0.0000001
 43
0.0000001
 44
0.0000000001
 40
0.0
 40
0.0
 40
0.0
 40
0.0
 40
0.3903798779
 40
0.5625679588
 40
0.7120202215
 40
0.8342206317
 40
0.9248405847
 40
0.9573082391
 40
0.9808415989
 40
0.9951643057
 40
1.0
 40
1.0
 40
1.0
 40
1.0
 10
70.2445595588
 20
113.7502003679
 30
0.0
 10
70.2588245146
 20
113.7051851489
 30
0.0
 10
70.2794569885
 20
113.6403381665
 30
0.0
 10
70.3056856626
 20
113.5583022691
 30
0.0
 10
70.322105143
 20
113.5071840166
 30
0.0
 10
70.3354830127
 20
113.4654614329
 30
0.0
 10
70.3446818764
 20
113.4372373715
 30
0.0
 10
70.3499974504
 20
113.4203375278
 30
0.0
 10
70.3528353335
 20
113.4122792189
 30
0.0
 10
70.3540228137
 20
113.4073000169
 30
0.0
 10
70.3551561222
 20
113.4051635982
 30
0.0
 10
70.3551623331
 20
113.4045786928
 30
0.0
  0
SPLINE
  5
3F0
100
AcDbEntity
  8
DEFAULT_2
100
AcDbSpline
 62
8
  6
HIDDEN
 70
0
 71
3
 72
13
 73
9
 74
0
 42
0.0000001
 43
0.0000001
 44
0.0000000001
 40
0.0
 40
0.0
 40
0.0
 40
0.0
 40
0.3823170071
 40
0.7042352415
 40
0.828763902
 40
0.9220602523
 40
0.9800639013
 40
1.0
 40
1.0
 40
1.0
 40
1.0
 10
68.1831535821
 20
113.7502003679
 30
0.0
 10
68.2062250058
 20
113.7068146427
 30
0.0
 10
68.2477113915
 20
113.6263561649
 30
0.0
 10
68.2945329808
 20
113.5306702449
 30
0.0
 10
68.3244655712
 20
113.4680928253
 30
0.0
 10
68.3392656551
 20
113.4358643758
 30
0.0
 10
68.3490234329
 20
113.416154524
 30
0.0
 10
68.3527159812
 20
113.406797762
 30
0.0
 10
68.3539971614
 20
113.4045786928
 30
0.0
  0
SPLINE
  5
3F1
100
AcDbEntity
  8
DEFAULT_2
100
AcDbSpline
 62
8
  6
HIDDEN
 70
0
 71
3
 72
13
 73
9
 74
0
 42
0.0000001
 43
0.0000001
 44
0.0000000001
 40
0.0
 40
0.0
 40
0.0
 40
0.0
 40
0.0628689377
 40
0.1340931028
 40
0.222776558
 40
0.3333361504
 40
0.6251621043
 40
1.0
 40
1.0
 40
1.0
 40
1.0
 10
70.28288251
 20
117.0013724114
 30
0.0
 10
70.2881508019
 20
117.0013889047
 30
0.0
 10
70.2995632274
 20
116.9985949816
 30
0.0
 10
70.3140716425
 20
116.986135103
 30
0.0
 10
70.3262950026
 20
116.9668278979
 30
0.0
 10
70.3413926569
 20
116.9283686267
 30
0.0
 10
70.352587698
 20
116.8637171282
 30
0.0
 10
70.3551623145
 20
116.8078631976
 30
0.0
 10
70.3551623138
 20
116.7764523739
 30
0.0
  0
SPLINE
  5
3F2
100
AcDbEntity
  8
DEFAULT_2
100
AcDbSpline
 62
8
  6
HIDDEN
 70
0
 71
3
 72
17
 73
13
 74
0
 42
0.0000001
 43
0.0000001
 44
0.0000000001
 40
0.0
 40
0.0
 40
0.0
 40
0.0
 40
0.0314594513
 40
0.063630326
 40
0.1002171407
 40
0.1435921279
 40
0.2545267375
 40
0.3953624568
 40
0.5534361924
 40
0.7147952759
 40
0.8664254743
 40
1.0
 40
1.0
 40
1.0
 40
1.0
 10
68.2462558194
 20
117.0013158753
 30
0.0
 10
68.255264094
 20
117.0012470666
 30
0.0
 10
68.2737006674
 20
116.9981349229
 30
0.0
 10
68.2985964414
 20
116.9825769423
 30
0.0
 10
68.3188241707
 20
116.957054632
 30
0.0
 10
68.3418189171
 20
116.9070799241
 30
0.0
 10
68.3556096611
 20
116.8225093997
 30
0.0
 10
68.3536618314
 20
116.7049351338
 30
0.0
 10
68.3337331887
 20
116.5742474747
 30
0.0
 10
68.2977691712
 20
116.4438986583
 30
0.0
 10
68.2483288915
 20
116.3256160866
 30
0.0
 10
68.2061557173
 20
116.2551188822
 30
0.0
 10
68.1831535821
 20
116.2245585663
 30
0.0
  0
SPLINE
  5
3F3
100
AcDbEntity
  8
DEFAULT_2
100
AcDbSpline
 62
8
  6
HIDDEN
 70
0
 71
3
 72
21
 73
17
 74
0
 42
0.0000001
 43
0.0000001
 44
0.0000000001
 40
0.0
 40
0.0
 40
0.0
 40
0.0
 40
0.0012141761
 40
0.0048337895
 40
0.0108244702
 40
0.0191518484
 40
0.0426792177
 40
0.0751409396
 40
0.116262058
 40
0.1657533446
 40
0.2231645762
 40
0.2879439606
 40
0.437393674
 40
0.609596116
 40
0.7991324087
 40
1.0
 40
1.0
 40
1.0
 40
1.0
 10
70.3551623331
 20
117.900410225
 30
0.0
 10
70.3552924981
 20
117.9003421966
 30
0.0
 10
70.3546870706
 20
117.8996119276
 30
0.0
 10
70.354692528
 20
117.8985330856
 30
0.0
 10
70.3537956481
 20
117.8963747396
 30
0.0
 10
70.3525254813
 20
117.892075018
 30
0.0
 10
70.3500330672
 20
117.8846304029
 30
0.0
 10
70.3464728777
 20
117.8734711679
 30
0.0
 10
70.3418849712
 20
117.8592949542
 30
0.0
 10
70.3363994479
 20
117.8422553362
 30
0.0
 10
70.3300331956
 20
117.822486535
 30
0.0
 10
70.3199754957
 20
117.7912059916
 30
0.0
 10
70.3056931041
 20
117.7466972435
 30
0.0
 10
70.2868576111
 20
117.6878012346
 30
0.0
 10
70.2661921405
 20
117.6229603481
 30
0.0
 10
70.2518995055
 20
117.5779508584
 30
0.0
 10
70.2445595588
 20
117.5547885499
 30
0.0
  0
SPLINE
  5
3F4
100
AcDbEntity
  8
DEFAULT_2
100
AcDbSpline
 62
8
  6
HIDDEN
 70
0
 71
3
 72
21
 73
17
 74
0
 42
0.0000001
 43
0.0000001
 44
0.0000000001
 40
0.0
 40
0.0
 40
0.0
 40
0.0
 40
0.0012682531
 40
0.0050444688
 40
0.0112858327
 40
0.0199495358
 40
0.0443727477
 40
0.0779717415
 40
0.1204042326
 40
0.1712653136
 40
0.2299438463
 40
0.2957867
 40
0.4463552272
 40
0.6176886778
 40
0.8041513214
 40
1.0
 40
1.0
 40
1.0
 40
1.0
 10
68.3539971614
 20
117.900410225
 30
0.0
 10
68.3541503948
 20
117.9003546255
 30
0.0
 10
68.3533435914
 20
117.899541049
 30
0.0
 10
68.3532513567
 20
117.8984384239
 30
0.0
 10
68.3519577273
 20
117.8961372789
 30
0.0
 10
68.3500101253
 20
117.8916207908
 30
0.0
 10
68.3462779731
 20
117.8837920777
 30
0.0
 10
68.3408861401
 20
117.8721129859
 30
0.0
 10
68.3339508326
 20
117.8573313373
 30
0.0
 10
68.3256459883
 20
117.839658866
 30
0.0
 10
68.3159951554
 20
117.8192849522
 30
0.0
 10
68.3007605555
 20
117.7873790305
 30
0.0
 10
68.2790262592
 20
117.7425299392
 30
0.0
 10
68.2499975949
 20
117.6839912948
 30
0.0
 10
68.2177467309
 20
117.6205578424
 30
0.0
 10
68.1949724474
 20
117.5770138815
 30
0.0
 10
68.1831535821
 20
117.5547885499
 30
0.0
  0
SPLINE
  5
3F5
100
AcDbEntity
  8
DEFAULT_2
100
AcDbSpline
 62
8
  6
HIDDEN
 70
0
 71
3
 72
17
 73
13
 74
0
 42
0.0000001
 43
0.0000001
 44
0.0000000001
 40
0.0
 40
0.0
 40
0.0
 40
0.0
 40
0.1997572394
 40
0.3866568012
 40
0.5550557639
 40
0.6995754543
 40
0.815820949
 40
0.9013847208
 40
0.9330466488
 40
0.9583878283
 40
0.9795435489
 40
1.0
 40
1.0
 40
1.0
 40
1.0
 10
70.2445595588
 20
117.5547885499
 30
0.0
 10
70.2317585195
 20
117.5143929405
 30
0.0
 10
70.2083025632
 20
117.4357742935
 30
0.0
 10
70.179003638
 20
117.3216924687
 30
0.0
 10
70.1573769627
 20
117.2178605931
 30
0.0
 10
70.1440723976
 20
117.1276821222
 30
0.0
 10
70.1395952909
 20
117.054332848
 30
0.0
 10
70.1430591649
 20
117.0044703922
 30
0.0
 10
70.152006573
 20
116.9754220136
 30
0.0
 10
70.1604688998
 20
116.9608975363
 30
0.0
 10
70.1718677291
 20
116.9517065039
 30
0.0
 10
70.1808874588
 20
116.9499396807
 30
0.0
 10
70.1852269581
 20
116.9499515609
 30
0.0
  0
SPLINE
  5
3F6
100
AcDbEntity
  8
DEFAULT_2
100
AcDbSpline
 62
8
  6
HIDDEN
 70
0
 71
3
 72
11
 73
7
 74
0
 42
0.0000001
 43
0.0000001
 44
0.0000000001
 40
0.0
 40
0.0
 40
0.0
 40
0.0
 40
0.2532177205
 40
0.5233016352
 40
0.7803904152
 40
1.0
 40
1.0
 40
1.0
 40
1.0
 10
70.3551623138
 20
116.7764523739
 30
0.0
 10
70.3551623157
 20
116.728673582
 30
0.0
 10
70.3486363394
 20
116.6299229057
 30
0.0
 10
70.325757477
 20
116.4842849835
 30
0.0
 10
70.2916502252
 20
116.3474071276
 30
0.0
 10
70.2615178433
 20
116.2623669466
 30
0.0
 10
70.2445595588
 20
116.2245585663
 30
0.0
  0
SPLINE
  5
3F7
100
AcDbEntity
  8
DEFAULT_2
100
AcDbSpline
 62
8
  6
HIDDEN
 70
0
 71
3
 72
17
 73
13
 74
0
 42
0.0000001
 43
0.0000001
 44
0.0000000001
 40
0.0
 40
0.0
 40
0.0
 40
0.0
 40
0.1335747062
 40
0.2852050946
 40
0.4465642499
 40
0.6046379831
 40
0.7454736112
 40
0.8564080718
 40
0.8997829534
 40
0.9363696965
 40
0.96854054
 40
1.0
 40
1.0
 40
1.0
 40
1.0
 10
68.1831535821
 20
115.0804303515
 30
0.0
 10
68.2061557616
 20
115.0498699768
 30
0.0
 10
68.2483289691
 20
114.9793726116
 30
0.0
 10
68.2977693271
 20
114.8610898572
 30
0.0
 10
68.3337333203
 20
114.7307408739
 30
0.0
 10
68.3536619017
 20
114.6000531322
 30
0.0
 10
68.3556096147
 20
114.4824788695
 30
0.0
 10
68.3418187685
 20
114.3979083981
 30
0.0
 10
68.3188238691
 20
114.3479338222
 30
0.0
 10
68.2985960489
 20
114.3224116375
 30
0.0
 10
68.2737002091
 20
114.3068537737
 30
0.0
 10
68.2552636076
 20
114.3037417523
 30
0.0
 10
68.2462553249
 20
114.3036729996
 30
0.0
  0
SPLINE
  5
3F8
100
AcDbEntity
  8
DEFAULT_2
100
AcDbSpline
 62
8
  6
HIDDEN
 70
0
 71
3
 72
13
 73
9
 74
0
 42
0.0000001
 43
0.0000001
 44
0.0000000001
 40
0.0
 40
0.0
 40
0.0
 40
0.0
 40
0.3748703066
 40
0.6667394223
 40
0.7772817243
 40
0.8659338478
 40
0.9371364084
 40
1.0
 40
1.0
 40
1.0
 40
1.0
 10
70.3551623134
 20
114.5285366031
 30
0.0
 10
70.3551623144
 20
114.4971198694
 30
0.0
 10
70.3525827685
 20
114.4412542734
 30
0.0
 10
70.3413864993
 20
114.3765909904
 30
0.0
 10
70.3262822159
 20
114.3381298146
 30
0.0
 10
70.3140530282
 20
114.3188301695
 30
0.0
 10
70.2995398796
 20
114.3063799001
 30
0.0
 10
70.2881262766
 20
114.3035944657
 30
0.0
 10
70.2828579105
 20
114.3036148094
 30
0.0
  0
SPLINE
  5
3F9
100
AcDbEntity
  8
DEFAULT_2
100
AcDbSpline
 62
8
  6
HIDDEN
 70
0
 71
3
 72
14
 73
10
 74
0
 42
0.0000001
 43
0.0000001
 44
0.0000000001
 40
0.0
 40
0.0
 40
0.0
 40
0.0
 40
0.3699130223
 40
0.5337813848
 40
0.6747924682
 40
0.7867465766
 40
0.86926824
 40
0.9342567988
 40
1.0
 40
1.0
 40
1.0
 40
1.0
 10
68.1831535821
 20
113.7502003679
 30
0.0
 10
68.1431635985
 20
113.8254013811
 30
0.0
 10
68.0869099183
 20
113.9348587189
 30
0.0
 10
68.027924545
 20
114.0787348219
 30
0.0
 10
67.9998217486
 20
114.1707246166
 30
0.0
 10
67.9880714441
 20
114.2474737789
 30
0.0
 10
67.997042081
 20
114.3083854646
 30
0.0
 10
68.0304914959
 20
114.3485897749
 30
0.0
 10
68.0619574022
 20
114.3550401167
 30
0.0
 10
68.0770945043
 20
114.3551374168
 30
0.0
  0
SPLINE
  5
3FA
100
AcDbEntity
  8
DEFAULT_2
100
AcDbSpline
 62
8
  6
HIDDEN
 70
0
 71
3
 72
9
 73
5
 74
0
 42
0.0000001
 43
0.0000001
 44
0.0000000001
 40
0.0
 40
0.0
 40
0.0
 40
0.0
 40
0.2763320376
 40
1.0
 40
1.0
 40
1.0
 40
1.0
 10
70.2445595588
 20
116.9827244425
 30
0.0
 10
70.2421254633
 20
116.9804700867
 30
0.0
 10
70.2331737782
 20
116.9724762738
 30
0.0
 10
70.2235920011
 20
116.965126325
 30
0.0
 10
70.2161782641
 20
116.9605958325
 30
0.0
  0
SPLINE
  5
3FB
100
AcDbEntity
  8
DEFAULT_2
100
AcDbSpline
 62
8
  6
HIDDEN
 70
0
 71
3
 72
9
 73
5
 74
0
 42
0.0000001
 43
0.0000001
 44
0.0000000001
 40
0.0
 40
0.0
 40
0.0
 40
0.0
 40
0.2666492063
 40
1.0
 40
1.0
 40
1.0
 40
1.0
 10
70.2161782641
 20
116.9605958325
 30
0.0
 10
70.2149984402
 20
116.9598748489
 30
0.0
 10
70.2105268286
 20
116.9572507673
 30
0.0
 10
70.2058505289
 20
116.954959219
 30
0.0
 10
70.2023097468
 20
116.9535723357
 30
0.0
  0
SPLINE
  5
3FC
100
AcDbEntity
  8
DEFAULT_2
100
AcDbSpline
 62
8
  6
HIDDEN
 70
0
 71
3
 72
8
 73
4
 74
0
 42
0.0000001
 43
0.0000001
 44
0.0000000001
 40
0.0
 40
0.0
 40
0.0
 40
0.0
 40
1.0
 40
1.0
 40
1.0
 40
1.0
 10
70.2023097468
 20
116.9535723357
 30
0.0
 10
70.1987983311
 20
116.9521969549
 30
0.0
 10
70.1951460488
 20
116.9511005158
 30
0.0
 10
70.1914251852
 20
116.9504866047
 30
0.0
  0
SPLINE
  5
3FD
100
AcDbEntity
  8
DEFAULT_2
100
AcDbSpline
 62
8
  6
HIDDEN
 70
0
 71
3
 72
8
 73
4
 74
0
 42
0.0000001
 43
0.0000001
 44
0.0000000001
 40
0.0
 40
0.0
 40
0.0
 40
0.0
 40
1.0
 40
1.0
 40
1.0
 40
1.0
 10
70.1914251852
 20
116.9504866047
 30
0.0
 10
70.1893767408
 20
116.9501486286
 30
0.0
 10
70.1872959279
 20
116.9499567839
 30
0.0
 10
70.1852197958
 20
116.9499515232
 30
0.0
  0
SPLINE
  5
3FE
100
AcDbEntity
  8
DEFAULT_2
100
AcDbSpline
 62
8
  6
HIDDEN
 70
0
 71
3
 72
9
 73
5
 74
0
 42
0.0000001
 43
0.0000001
 44
0.0000000001
 40
0.0
 40
0.0
 40
0.0
 40
0.0
 40
0.5883452012
 40
1.0
 40
1.0
 40
1.0
 40
1.0
 10
70.2445595588
 20
114.3222644753
 30
0.0
 10
70.2346615697
 20
114.3314315726
 30
0.0
 10
70.2170294606
 20
114.3460412286
 30
0.0
 10
70.1946591495
 20
114.3550134764
 30
0.0
 10
70.1852197958
 20
114.3550373947
 30
0.0
  0
SPLINE
  5
3FF
100
AcDbEntity
  8
DEFAULT_2
100
AcDbSpline
 62
8
  6
HIDDEN
 70
0
 71
3
 72
8
 73
4
 74
0
 42
0.0000001
 43
0.0000001
 44
0.0000000001
 40
0.0
 40
0.0
 40
0.0
 40
0.0
 40
1.0
 40
1.0
 40
1.0
 40
1.0
 10
70.1852269581
 20
114.355037357
 30
0.0
 10
70.1873039622
 20
114.3550316708
 30
0.0
 10
70.189385611
 20
114.3548392884
 30
0.0
 10
70.1914348418
 20
114.3545007157
 30
0.0
  0
SPLINE
  5
400
100
AcDbEntity
  8
DEFAULT_2
100
AcDbSpline
 62
8
  6
HIDDEN
 70
0
 71
3
 72
8
 73
4
 74
0
 42
0.0000001
 43
0.0000001
 44
0.0000000001
 40
0.0
 40
0.0
 40
0.0
 40
0.0
 40
1.0
 40
1.0
 40
1.0
 40
1.0
 10
70.1914348418
 20
114.3545007157
 30
0.0
 10
70.1951523658
 20
114.3538865087
 30
0.0
 10
70.1988013425
 20
114.3527907892
 30
0.0
 10
70.2023097344
 20
114.3514165908
 30
0.0
  0
SPLINE
  5
401
100
AcDbEntity
  8
DEFAULT_2
100
AcDbSpline
 62
8
  6
HIDDEN
 70
0
 71
3
 72
9
 73
5
 74
0
 42
0.0000001
 43
0.0000001
 44
0.0000000001
 40
0.0
 40
0.0
 40
0.0
 40
0.0
 40
0.2339590877
 40
1.0
 40
1.0
 40
1.0
 40
1.0
 10
70.2023097344
 20
114.3514165908
 30
0.0
 10
70.2034394189
 20
114.3509741059
 30
0.0
 10
70.2082172537
 20
114.3489533914
 30
0.0
 10
70.2127886073
 20
114.3464644838
 30
0.0
 10
70.2161782895
 20
114.3443930727
 30
0.0
  0
SPLINE
  5
402
100
AcDbEntity
  8
DEFAULT_2
100
AcDbSpline
 62
8
  6
HIDDEN
 70
0
 71
3
 72
9
 73
5
 74
0
 42
0.0000001
 43
0.0000001
 44
0.0000000001
 40
0.0
 40
0.0
 40
0.0
 40
0.0
 40
0.2241508545
 40
1.0
 40
1.0
 40
1.0
 40
1.0
 10
70.2161782895
 20
114.3443930727
 30
0.0
 10
70.2184749538
 20
114.3429895972
 30
0.0
 10
70.2285033602
 20
114.33637159
 30
0.0
 10
70.2377244929
 20
114.3285948232
 30
0.0
 10
70.2445595588
 20
114.3222644753
 30
0.0
  0
SPLINE
  5
403
100
AcDbEntity
  8
DEFAULT_2
100
AcDbSpline
 62
8
  6
HIDDEN
 70
0
 71
3
 72
9
 73
5
 74
0
 42
0.0000001
 43
0.0000001
 44
0.0000000001
 40
0.0
 40
0.0
 40
0.0
 40
0.0
 40
0.4116694073
 40
1.0
 40
1.0
 40
1.0
 40
1.0
 10
70.1852269581
 20
116.9499515609
 30
0.0
 10
70.1946656932
 20
116.9499774011
 30
0.0
 10
70.2170323633
 20
116.9589503404
 30
0.0
 10
70.2346628101
 20
116.973558494
 30
0.0
 10
70.2445595588
 20
116.9827244425
 30
0.0
  0
SPLINE
  5
404
100
AcDbEntity
  8
DEFAULT_2
100
AcDbSpline
 62
8
  6
HIDDEN
 70
0
 71
3
 72
17
 73
13
 74
0
 42
0.0000001
 43
0.0000001
 44
0.0000000001
 40
0.0
 40
0.0
 40
0.0
 40
0.0
 40
0.1997572394
 40
0.3866568012
 40
0.5550557639
 40
0.6995754543
 40
0.815820949
 40
0.9013847208
 40
0.9330466488
 40
0.9583878283
 40
0.9795435489
 40
1.0
 40
1.0
 40
1.0
 40
1.0
 10
70.2445595588
 20
113.7502003679
 30
0.0
 10
70.2317585195
 20
113.7905959774
 30
0.0
 10
70.2083025632
 20
113.8692146243
 30
0.0
 10
70.179003638
 20
113.9832964492
 30
0.0
 10
70.1573769627
 20
114.0871283247
 30
0.0
 10
70.1440723976
 20
114.1773067957
 30
0.0
 10
70.1395952909
 20
114.2506560698
 30
0.0
 10
70.1430591649
 20
114.3005185257
 30
0.0
 10
70.152006573
 20
114.3295669043
 30
0.0
 10
70.1604688998
 20
114.3440913815
 30
0.0
 10
70.1718677291
 20
114.3532824139
 30
0.0
 10
70.1808874588
 20
114.3550492371
 30
0.0
 10
70.1852269581
 20
114.355037357
 30
0.0
  0
SPLINE
  5
405
100
AcDbEntity
  8
DEFAULT_2
100
AcDbSpline
 62
8
  6
HIDDEN
 70
0
 71
3
 72
11
 73
7
 74
0
 42
0.0000001
 43
0.0000001
 44
0.0000000001
 40
0.0
 40
0.0
 40
0.0
 40
0.0
 40
0.2532177204
 40
0.5233016352
 40
0.7803904151
 40
1.0
 40
1.0
 40
1.0
 40
1.0
 10
70.3551623139
 20
114.5285365434
 30
0.0
 10
70.3551623157
 20
114.5763153353
 30
0.0
 10
70.3486363394
 20
114.6750660117
 30
0.0
 10
70.3257574771
 20
114.8207039341
 30
0.0
 10
70.2916502253
 20
114.9575817901
 30
0.0
 10
70.2615178433
 20
115.0426219712
 30
0.0
 10
70.2445595588
 20
115.0804303515
 30
0.0
  0
SPLINE
  5
406
100
AcDbEntity
  8
DEFAULT_2
100
AcDbSpline
 62
8
  6
HIDDEN
 70
0
 71
3
 72
11
 73
7
 74
0
 42
0.0000001
 43
0.0000001
 44
0.0000000001
 40
0.0
 40
0.0
 40
0.0
 40
0.0
 40
0.2294183914
 40
0.4999986482
 40
0.7705800762
 40
1.0
 40
1.0
 40
1.0
 40
1.0
 10
70.2445595588
 20
115.0804303515
 30
0.0
 10
70.2079871576
 20
115.1619682719
 30
0.0
 10
70.1567846431
 20
115.3521699728
 30
0.0
 10
70.1324455788
 20
115.652493323
 30
0.0
 10
70.1567842725
 20
115.9528173086
 30
0.0
 10
70.2079869133
 20
116.1430201013
 30
0.0
 10
70.2445595588
 20
116.2245585663
 30
0.0
  0
SPLINE
  5
407
100
AcDbEntity
  8
DEFAULT_2
100
AcDbSpline
 62
8
  6
HIDDEN
 70
0
 71
3
 72
9
 73
5
 74
0
 42
0.0000001
 43
0.0000001
 44
0.0000000001
 40
0.0
 40
0.0
 40
0.0
 40
0.0
 40
0.500155558
 40
1.0
 40
1.0
 40
1.0
 40
1.0
 10
68.1831535821
 20
116.2245585663
 30
0.0
 10
68.0621760698
 20
116.0638295316
 30
0.0
 10
67.9207369055
 20
115.6524045065
 30
0.0
 10
68.0622513225
 20
115.2410594066
 30
0.0
 10
68.1831535821
 20
115.0804303515
 30
0.0
  0
SPLINE
  5
408
100
AcDbEntity
  8
DEFAULT_2
100
AcDbSpline
 62
8
  6
HIDDEN
 70
0
 71
3
 72
9
 73
5
 74
0
 42
0.0000001
 43
0.0000001
 44
0.0000000001
 40
0.0
 40
0.0
 40
0.0
 40
0.0
 40
0.5251157286
 40
1.0
 40
1.0
 40
1.0
 40
1.0
 10
68.3137197224
 20
116.9624059279
 30
0.0
 10
68.3057557558
 20
116.9740226512
 30
0.0
 10
68.2864356933
 20
116.9943378813
 30
0.0
 10
68.2589921568
 20
117.0012187086
 30
0.0
 10
68.2462553249
 20
117.0013159182
 30
0.0
  0
SPLINE
  5
409
100
AcDbEntity
  8
DEFAULT_2
100
AcDbSpline
 62
8
  6
HIDDEN
 70
0
 71
3
 72
14
 73
10
 74
0
 42
0.0000001
 43
0.0000001
 44
0.0000000001
 40
0.0
 40
0.0
 40
0.0
 40
0.0
 40
0.3699130223
 40
0.5337813848
 40
0.6747924682
 40
0.7867465766
 40
0.86926824
 40
0.9342567988
 40
1.0
 40
1.0
 40
1.0
 40
1.0
 10
68.1831535821
 20
117.5547885499
 30
0.0
 10
68.1431635985
 20
117.4795875367
 30
0.0
 10
68.0869099183
 20
117.3701301989
 30
0.0
 10
68.027924545
 20
117.2262540959
 30
0.0
 10
67.9998217486
 20
117.1342643012
 30
0.0
 10
67.9880714441
 20
117.057515139
 30
0.0
 10
67.997042081
 20
116.9966034533
 30
0.0
 10
68.0304914959
 20
116.9563991429
 30
0.0
 10
68.0619574022
 20
116.9499488011
 30
0.0
 10
68.0770945043
 20
116.9498515011
 30
0.0
  0
SPLINE
  5
40A
100
AcDbEntity
  8
DEFAULT_2
100
AcDbSpline
 62
8
  6
HIDDEN
 70
0
 71
3
 72
21
 73
17
 74
0
 42
0.0000001
 43
0.0000001
 44
0.0000000001
 40
0.0
 40
0.0
 40
0.0
 40
0.0
 40
0.0012682531
 40
0.0050444688
 40
0.0112858327
 40
0.0199495359
 40
0.0443727477
 40
0.0779717416
 40
0.1204042326
 40
0.1712653136
 40
0.2299438463
 40
0.2957867
 40
0.4463552272
 40
0.6176886778
 40
0.8041513214
 40
1.0
 40
1.0
 40
1.0
 40
1.0
 10
68.3539971614
 20
113.4045786928
 30
0.0
 10
68.3541503948
 20
113.4046342923
 30
0.0
 10
68.3533435914
 20
113.4054478688
 30
0.0
 10
68.3532513567
 20
113.4065504939
 30
0.0
 10
68.3519577273
 20
113.408851639
 30
0.0
 10
68.3500101253
 20
113.413368127
 30
0.0
 10
68.3462779731
 20
113.4211968401
 30
0.0
 10
68.3408861401
 20
113.4328759319
 30
0.0
 10
68.3339508326
 20
113.4476575805
 30
0.0
 10
68.3256459883
 20
113.4653300518
 30
0.0
 10
68.3159951554
 20
113.4857039656
 30
0.0
 10
68.3007605555
 20
113.5176098873
 30
0.0
 10
68.2790262592
 20
113.5624589786
 30
0.0
 10
68.2499975949
 20
113.620997623
 30
0.0
 10
68.2177467309
 20
113.6844310754
 30
0.0
 10
68.1949724474
 20
113.7279750364
 30
0.0
 10
68.1831535821
 20
113.7502003679
 30
0.0
  0
SPLINE
  5
40B
100
AcDbEntity
  8
DEFAULT_2
100
AcDbSpline
 62
8
  6
HIDDEN
 70
0
 71
3
 72
21
 73
17
 74
0
 42
0.0000001
 43
0.0000001
 44
0.0000000001
 40
0.0
 40
0.0
 40
0.0
 40
0.0
 40
0.0012141761
 40
0.0048337895
 40
0.0108244703
 40
0.0191518484
 40
0.0426792176
 40
0.0751409395
 40
0.1162620578
 40
0.1657533444
 40
0.2231645761
 40
0.2879439604
 40
0.4373936739
 40
0.609596116
 40
0.7991324087
 40
1.0
 40
1.0
 40
1.0
 40
1.0
 10
70.3551623331
 20
113.4045786928
 30
0.0
 10
70.3552914549
 20
113.4046486811
 30
0.0
 10
70.354688558
 20
113.4053741958
 30
0.0
 10
70.3546915862
 20
113.4064576015
 30
0.0
 10
70.3537960707
 20
113.4086133842
 30
0.0
 10
70.3525250847
 20
113.4129146446
 30
0.0
 10
70.3500332721
 20
113.4203581297
 30
0.0
 10
70.3464727975
 20
113.4315179006
 30
0.0
 10
70.341885
 20
113.4456939095
 30
0.0
 10
70.3363994382
 20
113.4627335998
 30
0.0
 10
70.3300331988
 20
113.482502377
 30
0.0
 10
70.3199754936
 20
113.5137829303
 30
0.0
 10
70.305693105
 20
113.5582916727
 30
0.0
 10
70.2868576108
 20
113.6171876838
 30
0.0
 10
70.2661921406
 20
113.6820285696
 30
0.0
 10
70.2518995055
 20
113.7270380595
 30
0.0
 10
70.2445595588
 20
113.7502003679
 30
0.0
  0
SPLINE
  5
40C
100
AcDbEntity
  8
DEFAULT_2
100
AcDbSpline
 62
8
  6
HIDDEN
 70
0
 71
3
 72
16
 73
12
 74
0
 42
0.0000001
 43
0.0000001
 44
0.0000000001
 40
0.0
 40
0.0
 40
0.0
 40
0.0
 40
0.3903798778
 40
0.5625679587
 40
0.7120202214
 40
0.8342206316
 40
0.9248405847
 40
0.9573082391
 40
0.9808415988
 40
0.9951643057
 40
1.0
 40
1.0
 40
1.0
 40
1.0
 10
70.2445595588
 20
117.5547885499
 30
0.0
 10
70.2588245146
 20
117.5998037689
 30
0.0
 10
70.2794569915
 20
117.6646507513
 30
0.0
 10
70.3056856584
 20
117.7466866488
 30
0.0
 10
70.3221051557
 20
117.7978049011
 30
0.0
 10
70.3354829788
 20
117.8395274853
 30
0.0
 10
70.3446819436
 20
117.8677515456
 30
0.0
 10
70.3499973776
 20
117.8846513908
 30
0.0
 10
70.3528354973
 20
117.8927096972
 30
0.0
 10
70.3540225528
 20
117.8976889036
 30
0.0
 10
70.3551563064
 20
117.8998253177
 30
0.0
 10
70.3551623331
 20
117.900410225
 30
0.0
  0
SPLINE
  5
40D
100
AcDbEntity
  8
DEFAULT_2
100
AcDbSpline
 62
8
  6
HIDDEN
 70
0
 71
3
 72
9
 73
5
 74
0
 42
0.0000001
 43
0.0000001
 44
0.0000000001
 40
0.0
 40
0.0
 40
0.0
 40
0.0
 40
0.4748835616
 40
1.0
 40
1.0
 40
1.0
 40
1.0
 10
68.2462558194
 20
114.3036730425
 30
0.0
 10
68.2589926994
 20
114.3037703318
 30
0.0
 10
68.2864363331
 20
114.3106514099
 30
0.0
 10
68.3057563403
 20
114.3309668968
 30
0.0
 10
68.3137202738
 20
114.3425837567
 30
0.0
  0
SPLINE
  5
40E
100
AcDbEntity
  8
DEFAULT_2
100
AcDbSpline
 62
8
  6
HIDDEN
 70
0
 71
3
 72
10
 73
6
 74
0
 42
0.0000001
 43
0.0000001
 44
0.0000000001
 40
0.0
 40
0.0
 40
0.0
 40
0.0
 40
0.1759675249
 40
0.5096974143
 40
1.0
 40
1.0
 40
1.0
 40
1.0
 10
70.28288251
 20
114.3036165064
 30
0.0
 10
70.2890419585
 20
114.3035972232
 30
0.0
 10
70.3071421007
 20
114.3090972537
 30
0.0
 10
70.3285642372
 20
114.3392821623
 30
0.0
 10
70.3371684667
 20
114.3667279456
 30
0.0
 10
70.3411911867
 20
114.3834121427
 30
0.0
  0
SPLINE
  5
40F
100
AcDbEntity
  8
DEFAULT_2
100
AcDbSpline
 62
8
  6
HIDDEN
 70
0
 71
3
 72
9
 73
5
 74
0
 42
0.0000001
 43
0.0000001
 44
0.0000000001
 40
0.0
 40
0.0
 40
0.0
 40
0.0
 40
0.4524876711
 40
1.0
 40
1.0
 40
1.0
 40
1.0
 10
70.3411911867
 20
114.3834121427
 30
0.0
 10
70.3463536981
 20
114.4048236153
 30
0.0
 10
70.3532595087
 20
114.4531983229
 30
0.0
 10
70.3551623144
 20
114.5018861274
 30
0.0
 10
70.3551623139
 20
114.5285365434
 30
0.0
  0
SPLINE
  5
410
100
AcDbEntity
  8
DEFAULT_2
100
AcDbSpline
 62
8
  6
HIDDEN
 70
0
 71
3
 72
13
 73
9
 74
0
 42
0.0000001
 43
0.0000001
 44
0.0000000001
 40
0.0
 40
0.0
 40
0.0
 40
0.0
 40
0.3823170072
 40
0.7042352416
 40
0.8287639021
 40
0.9220602524
 40
0.9800639013
 40
1.0
 40
1.0
 40
1.0
 40
1.0
 10
68.1831535821
 20
117.5547885499
 30
0.0
 10
68.2062250058
 20
117.5981742752
 30
0.0
 10
68.2477113915
 20
117.678632753
 30
0.0
 10
68.2945329808
 20
117.7743186729
 30
0.0
 10
68.3244655713
 20
117.8368960926
 30
0.0
 10
68.3392656551
 20
117.869124542
 30
0.0
 10
68.3490234329
 20
117.8888343939
 30
0.0
 10
68.3527159812
 20
117.8981911558
 30
0.0
 10
68.3539971614
 20
117.900410225
 30
0.0
  0
SPLINE
  5
411
100
AcDbEntity
  8
DEFAULT_2
100
AcDbSpline
 62
8
  6
HIDDEN
 70
0
 71
3
 72
9
 73
5
 74
0
 42
0.0000001
 43
0.0000001
 44
0.0000000001
 40
0.0
 40
0.0
 40
0.0
 40
0.0
 40
0.4641848869
 40
1.0
 40
1.0
 40
1.0
 40
1.0
 10
70.1852197958
 20
116.9499515232
 30
0.0
 10
70.1791551658
 20
116.9499361561
 30
0.0
 10
70.1656663748
 20
116.9540688483
 30
0.0
 10
70.1577581236
 20
116.9653683844
 30
0.0
 10
70.1545757477
 20
116.9716037369
 30
0.0
  0
SPLINE
  5
412
100
AcDbEntity
  8
DEFAULT_2
100
AcDbSpline
 62
8
  6
HIDDEN
 70
0
 71
3
 72
9
 73
5
 74
0
 42
0.0000001
 43
0.0000001
 44
0.0000000001
 40
0.0
 40
0.0
 40
0.0
 40
0.0
 40
0.418384545
 40
1.0
 40
1.0
 40
1.0
 40
1.0
 10
70.1545757477
 20
116.9716037369
 30
0.0
 10
70.1491904837
 20
116.9821552934
 30
0.0
 10
70.1423821287
 20
117.010208669
 30
0.0
 10
70.1410097876
 20
117.0384838767
 30
0.0
 10
70.1409921723
 20
117.054952043
 30
0.0
  0
SPLINE
  5
413
100
AcDbEntity
  8
DEFAULT_2
100
AcDbSpline
 62
8
  6
HIDDEN
 70
0
 71
3
 72
10
 73
6
 74
0
 42
0.0000001
 43
0.0000001
 44
0.0000000001
 40
0.0
 40
0.0
 40
0.0
 40
0.0
 40
0.1865243022
 40
0.4230577366
 40
1.0
 40
1.0
 40
1.0
 40
1.0
 10
70.1409921723
 20
117.054952043
 30
0.0
 10
70.1409581328
 20
117.0867747829
 30
0.0
 10
70.1474683291
 20
117.1588998929
 30
0.0
 10
70.1775082991
 20
117.3269013094
 30
0.0
 10
70.2148246584
 20
117.4609555885
 30
0.0
 10
70.2445595588
 20
117.5547885499
 30
0.0
  0
SPLINE
  5
414
100
AcDbEntity
  8
0
100
AcDbSpline
 62
7
  6
CONTINUOUS
 70
0
 71
3
 72
15
 73
11
 74
0
 42
0.0000001
 43
0.0000001
 44
0.0000000001
 40
0.0
 40
0.0
 40
0.0
 40
0.0
 40
0.1250245363
 40
0.2500293709
 40
0.3750074733
 40
0.4999666607
 40
0.6249397407
 40
0.7499416157
 40
0.8749633898
 40
1.0
 40
1.0
 40
1.0
 40
1.0
 10
74.1163297089
 20
108.6515710238
 30
0.0
 10
74.0280095034
 20
108.8158949314
 30
0.0
 10
73.8637599972
 20
109.1515097756
 30
0.0
 10
73.6728878212
 20
109.6790726928
 30
0.0
 10
73.5621054018
 20
110.230205376
 30
0.0
 10
73.5541685471
 20
110.7930246453
 30
0.0
 10
73.651112538
 20
111.3469161309
 30
0.0
 10
73.831975676
 20
111.8781713129
 30
0.0
 10
74.071514947
 20
112.3848569258
 30
0.0
 10
74.2576356124
 20
112.7086081674
 30
0.0
 10
74.3551623112
 20
112.8676618395
 30
0.0
  0
SPLINE
  5
415
100
AcDbEntity
  8
0
100
AcDbSpline
 62
7
  6
CONTINUOUS
 70
0
 71
3
 72
9
 73
5
 74
0
 42
0.0000001
 43
0.0000001
 44
0.0000000001
 40
0.0
 40
0.0
 40
0.0
 40
0.0
 40
0.5009299054
 40
1.0
 40
1.0
 40
1.0
 40
1.0
 10
74.1161599676
 20
110.8024944589
 30
0.0
 10
74.1273145087
 20
110.9605123607
 30
0.0
 10
74.1824892471
 20
111.2742566084
 30
0.0
 10
74.2913743857
 20
111.5725432484
 30
0.0
 10
74.3551623112
 20
111.7169011131
 30
0.0
  0
SPLINE
  5
416
100
AcDbEntity
  8
0
100
AcDbSpline
 62
7
  6
CONTINUOUS
 70
0
 71
3
 72
9
 73
5
 74
0
 42
0.0000001
 43
0.0000001
 44
0.0000000001
 40
0.0
 40
0.0
 40
0.0
 40
0.0
 40
0.4990716142
 40
1.0
 40
1.0
 40
1.0
 40
1.0
 10
74.3551623112
 20
109.3880878047
 30
0.0
 10
74.2913741922
 20
109.5324461075
 30
0.0
 10
74.1824892373
 20
109.8307328187
 30
0.0
 10
74.1273144748
 20
110.1444770381
 30
0.0
 10
74.1161599676
 20
110.3024944589
 30
0.0
  0
SPLINE
  5
417
100
AcDbEntity
  8
A_RUNDUNGEN
100
AcDbSpline
 62
7
  6
CONTINUOUS
 70
0
 71
3
 72
12
 73
8
 74
0
 42
0.0000001
 43
0.0000001
 44
0.0000000001
 40
0.0
 40
0.0
 40
0.0
 40
0.0
 40
0.3016107602
 40
0.5768876568
 40
0.8129482289
 40
0.9127827064
 40
1.0
 40
1.0
 40
1.0
 40
1.0
 10
78.5181466281
 20
69.425979731
 30
0.0
 10
78.6214662395
 20
69.3764912455
 30
0.0
 10
78.8203777527
 20
69.2843002463
 30
0.0
 10
79.1068372367
 20
69.1691244617
 30
0.0
 10
79.3306980211
 20
69.1030598129
 30
0.0
 10
79.4908082811
 20
69.0849868009
 30
0.0
 10
79.5624405176
 20
69.0897683604
 30
0.0
 10
79.5948327483
 20
69.0967095526
 30
0.0
  0
SPLINE
  5
418
100
AcDbEntity
  8
A_RUNDUNGEN
100
AcDbSpline
 62
7
  6
CONTINUOUS
 70
0
 71
3
 72
14
 73
10
 74
0
 42
0.0000001
 43
0.0000001
 44
0.0000000001
 40
0.0
 40
0.0
 40
0.0
 40
0.0
 40
0.3820312629
 40
0.5547774445
 40
0.7063658421
 40
0.831008064
 40
0.9236945867
 40
0.9807312587
 40
1.0
 40
1.0
 40
1.0
 40
1.0
 10
86.7579484923
 20
71.652494459
 30
0.0
 10
86.7714274511
 20
71.525253296
 30
0.0
 10
86.7907069348
 20
71.3404451979
 30
0.0
 10
86.8145990795
 20
71.105072182
 30
0.0
 10
86.8293561162
 20
70.9554236704
 30
0.0
 10
86.8411406639
 20
70.8324233689
 30
0.0
 10
86.8497071052
 20
70.7409369802
 30
0.0
 10
86.854061669
 20
70.6844869598
 30
0.0
 10
86.8550063403
 20
70.6589475159
 30
0.0
 10
86.8551623112
 20
70.652494459
 30
0.0
  0
ENDSEC
  0
SECTION
  2
OBJECTS
  0
DICTIONARY
  5
419
100
AcDbDictionary
  3
ACAD_GROUP
350
41A
  3
ACAD_MLINESTYLE
350
41B
  0
DICTIONARY
  5
41A
102
{ACAD_REACTORS
330
419
102
}
100
AcDbDictionary
  0
DICTIONARY
  5
41B
102
{ACAD_REACTORS
330
419
102
}
100
AcDbDictionary
  3
STANDARD
350
41C
  0
MLINESTYLE
  5
41C
102
{ACAD_REACTORS
330
41B
102
}
100
AcDbMlineStyle
  2
STANDARD
 70
0
  3

 62
256
 51
90.0
 52
90.0
 71
2
 49
0.5
 62
256
  6
BYLAYER
 49
-0.5
 62
256
  6
BYLAYER
  0
ENDSEC
  0
EOF
