999
DXF file: d:\tmp\workingDir\0000062583\te_680_3d_fd_q02_01.dxf
999
Pro/ENGINEER 2016380 by Parametric Technology Corporation
  0
SECTION
  2
HEADER
  9
$ACADVER
  1
AC1014
  9
$DWGCODEPAGE
  3
ANSI_1252
  9
$EXTMAX
 10
199.898
 20
200.0
 30
0.0
  9
$EXTMIN
 10
0.0
 20
0.0
 30
0.0
  9
$LIMMIN
 10
0.0
 20
0.0
  9
$LIMMAX
 10
199.898
 20
200.0
  9
$VIEWCTR
 10
99.949
 20
100.0
  9
$VIEWSIZE
 40
200.0
  9
$CLAYER
  8
0
  9
$LTSCALE
 40
13.037037037
  9
$CELTYPE
  6
BYLAYER
  9
$DIMSCALE
 40
1.0
  9
$DIMASZ
 40
3.5
  9
$DIMEXO
 40
0.0
  9
$DIMDLI
 40
9.0074074074
  9
$DIMEXE
 40
2.0
  9
$DIMCEN
 40
2.1333333333
  9
$DIMLFAC
 40
1.0
  9
$DIMBLK
  1
_ARROW_FILLED
  9
$DIMALT
 70
0
  9
$DIMALTF
 40
25.4
  9
$DIMTXT
 40
3.5
  9
$DIMTOL
 70
1
  9
$DIMLIM
 70
0
  9
$DIMTFAC
 40
1.0
  9
$DIMTP
 40
0.01
  9
$DIMTM
 40
0.01
  9
$DIMGAP
 40
0.625
  9
$AUNITS
 70
0
  9
$PDMODE
 70
0
  9
$PDSIZE
 40
0.04
  9
$HANDSEED
  5
420
  9
$TILEMODE
 70
1
  9
$MEASUREMENT
 70
1
  0
ENDSEC
  0
SECTION
  2
CLASSES
  0
ENDSEC
  0
SECTION
  2
TABLES
  0
TABLE
  2
VPORT
  5
8
100
AcDbSymbolTable
 70
2
  0
VPORT
  5
1F4
100
AcDbSymbolTableRecord
100
AcDbViewportTableRecord
  2
*ACTIVE
 70
0
 10
0.0
 20
0.0
 11
1.0
 21
1.0
 12
99.949
 22
100.0
 13
0.0
 23
0.0
 14
1.0
 24
1.0
 15
0.0
 25
0.0
 16
0.0
 26
0.0
 36
1.0
 17
0.0
 27
0.0
 37
0.0
 40
200.0
 41
0.99949
 42
50.0
 43
0.0
 44
0.0
 50
0.0
 51
0.0
 71
0
 72
100
 73
1
 74
1
 75
0
 76
0
 77
0
 78
0
  0
ENDTAB
  0
TABLE
  2
LTYPE
  5
5
100
AcDbSymbolTable
 70
6
  0
LTYPE
  5
14
100
AcDbSymbolTableRecord
100
AcDbLinetypeTableRecord
  2
BYBLOCK
 70
0
  3

 72
65
 73
0
 40
0.0
  0
LTYPE
  5
15
100
AcDbSymbolTableRecord
100
AcDbLinetypeTableRecord
  2
BYLAYER
 70
0
  3

 72
65
 73
0
 40
0.0
  0
LTYPE
  5
16
100
AcDbSymbolTableRecord
100
AcDbLinetypeTableRecord
  2
CONTINUOUS
 70
64
  3
Solid line
 72
65
 73
0
 40
0.0
  0
LTYPE
  5
1F5
100
AcDbSymbolTableRecord
100
AcDbLinetypeTableRecord
  2
CENTER
 70
64
  3
____ _ ____ _ ____ _ ____ _ ____ _ ____ _ ____
 72
65
 73
4
 40
0.6
 49
0.375
 74
0
 49
-0.075
 74
0
 49
0.075
 74
0
 49
-0.075
 74
0
  0
LTYPE
  5
1F6
100
AcDbSymbolTableRecord
100
AcDbLinetypeTableRecord
  2
HIDDEN
 70
64
  3
- - - - - - - - - - - - - - - - - - - -
 72
65
 73
2
 40
0.2
 49
0.1
 74
0
 49
-0.1
 74
0
  0
LTYPE
  5
1F7
100
AcDbSymbolTableRecord
100
AcDbLinetypeTableRecord
  2
PHANTOM
 70
64
  3
_____ _ _ _____ _ _ _____ _ _ _____
 72
65
 73
6
 40
0.8
 49
0.45
 74
0
 49
-0.05
 74
0
 49
0.1
 74
0
 49
-0.05
 74
0
 49
0.1
 74
0
 49
-0.05
 74
0
  0
LTYPE
  5
1F8
100
AcDbSymbolTableRecord
100
AcDbLinetypeTableRecord
  2
DOT
 70
64
  3
. . . . . . . . . . . . . . . . . . . .
 72
65
 73
2
 40
0.2
 49
0.1
 74
0
 49
-0.1
 74
0
  0
LTYPE
  5
1F9
100
AcDbSymbolTableRecord
100
AcDbLinetypeTableRecord
  2
DASHED
 70
64
  3
- - - - - - - - - - - - - - - - - - - -
 72
65
 73
2
 40
0.2
 49
0.1
 74
0
 49
-0.1
 74
0
  0
ENDTAB
  0
TABLE
  2
LAYER
  5
2
100
AcDbSymbolTable
 70
36
  0
LAYER
  5
10
100
AcDbSymbolTableRecord
100
AcDbLayerTableRecord
  2
0
 70
0
 62
7
  6
CONTINUOUS
  0
LAYER
  5
1FA
100
AcDbSymbolTableRecord
100
AcDbLayerTableRecord
  2
DEFAULT_1
 70
0
 62
7
  6
CENTER
  0
LAYER
  5
1FB
100
AcDbSymbolTableRecord
100
AcDbLayerTableRecord
  2
DEFAULT_2
 70
0
 62
8
  6
HIDDEN
  0
LAYER
  5
1FC
100
AcDbSymbolTableRecord
100
AcDbLayerTableRecord
  2
DEFAULT_3
 70
0
 62
7
  6
PHANTOM
  0
LAYER
  5
1FD
100
AcDbSymbolTableRecord
100
AcDbLayerTableRecord
  2
A_ACHSEN
 70
0
 62
7
  6
CONTINUOUS
  0
LAYER
  5
1FE
100
AcDbSymbolTableRecord
100
AcDbLayerTableRecord
  2
A_BASISEBENEN
 70
0
 62
7
  6
CONTINUOUS
  0
LAYER
  5
1FF
100
AcDbSymbolTableRecord
100
AcDbLayerTableRecord
  2
A_BEMASSUNGEN
 70
0
 62
7
  6
CONTINUOUS
  0
LAYER
  5
200
100
AcDbSymbolTableRecord
100
AcDbLayerTableRecord
  2
A_BOHRUNGEN
 70
0
 62
7
  6
CONTINUOUS
  0
LAYER
  5
201
100
AcDbSymbolTableRecord
100
AcDbLayerTableRecord
  2
A_EBENEN
 70
0
 62
7
  6
CONTINUOUS
  0
LAYER
  5
202
100
AcDbSymbolTableRecord
100
AcDbLayerTableRecord
  2
A_FASEN
 70
0
 62
7
  6
CONTINUOUS
  0
LAYER
  5
203
100
AcDbSymbolTableRecord
100
AcDbLayerTableRecord
  2
A_FLAECHEN
 70
0
 62
7
  6
CONTINUOUS
  0
LAYER
  5
204
100
AcDbSymbolTableRecord
100
AcDbLayerTableRecord
  2
A_FL_VERBAENDE
 70
0
 62
7
  6
CONTINUOUS
  0
LAYER
  5
205
100
AcDbSymbolTableRecord
100
AcDbLayerTableRecord
  2
A_KURVEN
 70
0
 62
7
  6
CONTINUOUS
  0
LAYER
  5
206
100
AcDbSymbolTableRecord
100
AcDbLayerTableRecord
  2
A_NOTIZEN_SYMB
 70
0
 62
7
  6
CONTINUOUS
  0
LAYER
  5
207
100
AcDbSymbolTableRecord
100
AcDbLayerTableRecord
  2
A_PUNKTE
 70
0
 62
7
  6
CONTINUOUS
  0
LAYER
  5
208
100
AcDbSymbolTableRecord
100
AcDbLayerTableRecord
  2
A_RUNDUNGEN
 70
0
 62
7
  6
CONTINUOUS
  0
LAYER
  5
209
100
AcDbSymbolTableRecord
100
AcDbLayerTableRecord
  2
BASISEBENEN
 70
0
 62
7
  6
CONTINUOUS
  0
LAYER
  5
20A
100
AcDbSymbolTableRecord
100
AcDbLayerTableRecord
  2
GRUNDEBENE
 70
0
 62
7
  6
CONTINUOUS
  0
LAYER
  5
20B
100
AcDbSymbolTableRecord
100
AcDbLayerTableRecord
  2
IMPORT_KE
 70
0
 62
7
  6
CONTINUOUS
  0
LAYER
  5
20C
100
AcDbSymbolTableRecord
100
AcDbLayerTableRecord
  2
INTFCLR_3
 70
0
 62
7
  6
CONTINUOUS
  0
LAYER
  5
20D
100
AcDbSymbolTableRecord
100
AcDbLayerTableRecord
  2
INTF_1
 70
0
 62
7
  6
CONTINUOUS
  0
LAYER
  5
20E
100
AcDbSymbolTableRecord
100
AcDbLayerTableRecord
  2
INTF_2
 70
0
 62
7
  6
CONTINUOUS
  0
LAYER
  5
20F
100
AcDbSymbolTableRecord
100
AcDbLayerTableRecord
  2
INTF_3
 70
0
 62
7
  6
CONTINUOUS
  0
LAYER
  5
210
100
AcDbSymbolTableRecord
100
AcDbLayerTableRecord
  2
INTF_4
 70
0
 62
7
  6
CONTINUOUS
  0
LAYER
  5
211
100
AcDbSymbolTableRecord
100
AcDbLayerTableRecord
  2
INTF_MAGENTA
 70
0
 62
7
  6
CONTINUOUS
  0
LAYER
  5
212
100
AcDbSymbolTableRecord
100
AcDbLayerTableRecord
  2
INTF_YELLOW
 70
0
 62
7
  6
CONTINUOUS
  0
LAYER
  5
213
100
AcDbSymbolTableRecord
100
AcDbLayerTableRecord
  2
PROFIL
 70
0
 62
7
  6
CONTINUOUS
  0
LAYER
  5
214
100
AcDbSymbolTableRecord
100
AcDbLayerTableRecord
  2
QUER1
 70
0
 62
7
  6
CONTINUOUS
  0
LAYER
  5
215
100
AcDbSymbolTableRecord
100
AcDbLayerTableRecord
  2
QUER2
 70
0
 62
7
  6
CONTINUOUS
  0
LAYER
  5
216
100
AcDbSymbolTableRecord
100
AcDbLayerTableRecord
  2
QUER3
 70
0
 62
7
  6
CONTINUOUS
  0
LAYER
  5
217
100
AcDbSymbolTableRecord
100
AcDbLayerTableRecord
  2
SCHRAFFUR
 70
0
 62
7
  6
CONTINUOUS
  0
ENDTAB
  0
TABLE
  2
STYLE
  5
3
100
AcDbSymbolTable
 70
1
  0
STYLE
  5
11
100
AcDbSymbolTableRecord
100
AcDbTextStyleTableRecord
  2
STANDARD
 70
0
 40
0.0
 41
1.0
 50
0.0
 71
0
 42
0.2
  3
txt
  4

  0
STYLE
  5
218
100
AcDbSymbolTableRecord
100
AcDbTextStyleTableRecord
  2
TEXTSTYLE_1
 70
0
 40
0.0
 41
0.8
 50
0.0
 71
0
 42
0.2
  3
gdt
  4

  0
STYLE
  5
219
100
AcDbSymbolTableRecord
100
AcDbTextStyleTableRecord
  2
TEXTSTYLE_2
 70
0
 40
0.0
 41
1.0
 50
0.0
 71
0
 42
0.2
  3
txt
  4

  0
ENDTAB
  0
TABLE
  2
VIEW
  5
6
100
AcDbSymbolTable
 70
0
  0
ENDTAB
  0
TABLE
  2
UCS
  5
7
100
AcDbSymbolTable
 70
0
  0
ENDTAB
  0
TABLE
  2
APPID
  5
9
100
AcDbSymbolTable
 70
1
  0
APPID
  5
21A
100
AcDbSymbolTableRecord
100
AcDbRegAppTableRecord
  2
ACAD
 70
0
  0
ENDTAB
  0
TABLE
  2
BLOCK_RECORD
  5
1
100
AcDbSymbolTable
 70
0
  0
BLOCK_RECORD
  5
1F
100
AcDbSymbolTableRecord
100
AcDbBlockTableRecord
  2
*MODEL_SPACE
  0
BLOCK_RECORD
  5
1B
100
AcDbSymbolTableRecord
100
AcDbBlockTableRecord
  2
*PAPER_SPACE
  0
BLOCK_RECORD
  5
21B
100
AcDbSymbolTableRecord
100
AcDbBlockTableRecord
  2
_ARROW_FILLED
  0
BLOCK_RECORD
  5
21C
100
AcDbSymbolTableRecord
100
AcDbBlockTableRecord
  2
*D0
  0
BLOCK_RECORD
  5
21D
100
AcDbSymbolTableRecord
100
AcDbBlockTableRecord
  2
*D1
  0
BLOCK_RECORD
  5
21E
100
AcDbSymbolTableRecord
100
AcDbBlockTableRecord
  2
*D2
  0
BLOCK_RECORD
  5
21F
100
AcDbSymbolTableRecord
100
AcDbBlockTableRecord
  2
*D3
  0
BLOCK_RECORD
  5
220
100
AcDbSymbolTableRecord
100
AcDbBlockTableRecord
  2
*D4
  0
BLOCK_RECORD
  5
221
100
AcDbSymbolTableRecord
100
AcDbBlockTableRecord
  2
*D5
  0
BLOCK_RECORD
  5
222
100
AcDbSymbolTableRecord
100
AcDbBlockTableRecord
  2
*D6
  0
BLOCK_RECORD
  5
223
100
AcDbSymbolTableRecord
100
AcDbBlockTableRecord
  2
*D7
  0
BLOCK_RECORD
  5
224
100
AcDbSymbolTableRecord
100
AcDbBlockTableRecord
  2
*D8
  0
BLOCK_RECORD
  5
225
100
AcDbSymbolTableRecord
100
AcDbBlockTableRecord
  2
*D9
  0
ENDTAB
  0
TABLE
  2
DIMSTYLE
  5
A
100
AcDbSymbolTable
 70
1
  0
DIMSTYLE
105
226
100
AcDbSymbolTableRecord
100
AcDbDimStyleTableRecord
  2
STANDARD
 70
0
  3

  4

  5
_ARROW_FILLED
  6
_ARROW_FILLED
  7
_ARROW_FILLED
 40
1.0
 41
3.5
 42
0.0
 43
0.38
 44
2.0
 45
0.0
 46
0.0
 47
0.01
 48
0.01
140
3.5
141
0.09
142
0.0
143
25.4
144
1.0
145
0.0
146
1.0
147
0.625
 71
1.0
 72
0.0
 73
0
 74
0
 75
0
 76
0
 77
1
 78
8
170
0
171
1
172
0
173
0
174
0
175
0
176
0
177
0
178
5
270
2
271
2
272
2
273
2
274
2
275
0
280
0
281
0
282
0
283
1
284
8
285
0
286
0
287
3
288
0
340
11
  0
DIMSTYLE
105
227
100
AcDbSymbolTableRecord
100
AcDbDimStyleTableRecord
  2
DIMSTYLE_1
 70
0
  3

  4

  5
_ARROW_FILLED
  6
_ARROW_FILLED
  7
_ARROW_FILLED
 40
1.0
 41
3.5
 42
0.0
 43
0.38
 44
2.0
 45
0.0
 46
0.0
 47
0.1
 48
0.1
140
3.5
141
0.09
142
0.0
143
25.4
144
1.0
145
0.0
146
1.0
147
0.875
 71
0.0
 72
0.0
 73
0
 74
0
 75
0
 76
0
 77
1
 78
8
170
0
171
1
172
0
173
0
174
0
175
0
176
0
177
0
178
5
270
2
271
4
272
-1
273
2
274
2
275
0
280
0
281
0
282
0
283
1
284
8
285
0
286
0
287
3
288
0
340
219
  0
DIMSTYLE
105
228
100
AcDbSymbolTableRecord
100
AcDbDimStyleTableRecord
  2
DIMSTYLE_2
 70
0
  3

  4

  5
_ARROW_FILLED
  6
_ARROW_FILLED
  7
_ARROW_FILLED
 40
1.0
 41
3.5
 42
0.0
 43
0.38
 44
2.0
 45
0.0
 46
0.0
 47
0.3
 48
0.3
140
3.5
141
0.09
142
0.0
143
25.4
144
1.0
145
0.0
146
1.0
147
0.875
 71
0.0
 72
0.0
 73
0
 74
0
 75
0
 76
0
 77
1
 78
8
170
0
171
1
172
0
173
0
174
0
175
0
176
0
177
0
178
5
270
2
271
4
272
-1
273
2
274
2
275
0
280
0
281
0
282
0
283
1
284
8
285
0
286
0
287
3
288
0
340
219
  0
DIMSTYLE
105
229
100
AcDbSymbolTableRecord
100
AcDbDimStyleTableRecord
  2
DIMSTYLE_3
 70
0
  3

  4

  5
_ARROW_FILLED
  6
_ARROW_FILLED
  7
_ARROW_FILLED
 40
1.0
 41
3.5
 42
0.0
 43
0.38
 44
2.0
 45
0.0
 46
0.0
 47
0.2
 48
0.2
140
3.5
141
0.09
142
0.0
143
25.4
144
1.0
145
0.0
146
1.0
147
0.875
 71
0.0
 72
0.0
 73
0
 74
0
 75
0
 76
0
 77
1
 78
8
170
0
171
1
172
0
173
0
174
0
175
0
176
0
177
0
178
5
270
2
271
4
272
-1
273
2
274
2
275
0
280
0
281
0
282
0
283
1
284
8
285
0
286
0
287
3
288
0
340
219
  0
ENDTAB
  0
ENDSEC
  0
SECTION
  2
BLOCKS
  0
BLOCK
  5
20
100
AcDbEntity
  8
0
100
AcDbBlockBegin
  2
*MODEL_SPACE
 70
0
 10
0.0
 20
0.0
 30
0.0
  3
*MODEL_SPACE
  1

  0
ENDBLK
  5
21
100
AcDbEntity
  8
0
100
AcDbBlockEnd
  0
BLOCK
  5
1C
100
AcDbEntity
  8
0
100
AcDbBlockBegin
  2
*PAPER_SPACE
 70
0
 10
0.0
 20
0.0
 30
0.0
  3
*PAPER_SPACE
  1

  0
ENDBLK
  5
1D
100
AcDbEntity
  8
0
100
AcDbBlockEnd
  0
BLOCK
  5
22A
100
AcDbEntity
  8
0
100
AcDbBlockBegin
  2
_ARROW_FILLED
 70
64
 10
0.0
 20
0.0
  3
_ARROW_FILLED
  1

  0
SOLID
  5
22B
100
AcDbEntity
  8
0
  6
BYBLOCK
 62
0
100
AcDbTrace
 10
0.0
 20
0.0
 11
-1.0
 21
0.1428571429
 12
-1.0
 22
-0.1428571429
 13
-1.0
 23
-0.1428571429
  0
ENDBLK
  5
22C
100
AcDbEntity
  8
0
  6
BYBLOCK
 62
0
100
AcDbBlockEnd
  0
BLOCK
  5
22D
100
AcDbEntity
  8
A_BEMASSUNGEN
100
AcDbBlockBegin
 62
2
  6
CONTINUOUS
  2
*D0
 70
65
 10
0.0
 20
0.0
  3
*D0
  1

  0
MTEXT
  5
22E
100
AcDbEntity
  8
A_BEMASSUNGEN
100
AcDbMText
 62
5
  6
CONTINUOUS
  7
TEXTSTYLE_2
 71
3
 72
1
 10
179.0347189465
 20
57.1431020523
 30
0.0
 11
0.0
 21
1.0
 31
0.0
  1
3
 40
3.5
 41
3.75
  0
LINE
  5
22F
100
AcDbEntity
  8
A_BEMASSUNGEN
100
AcDbLine
 62
2
  6
CONTINUOUS
 10
166.7206514415
 20
60.0032678703
 11
185.4097189465
 21
60.0032678703
  0
LINE
  5
230
100
AcDbEntity
  8
A_BEMASSUNGEN
100
AcDbLine
 62
2
  6
CONTINUOUS
 10
101.7206514415
 20
63.0032678703
 11
185.4097189465
 21
63.0032678703
  0
LINE
  5
231
100
AcDbEntity
  8
A_BEMASSUNGEN
100
AcDbLine
 62
2
  6
CONTINUOUS
 10
183.4097189465
 20
60.0032678703
 11
183.4097189465
 21
54.6431020523
  0
LINE
  5
232
100
AcDbEntity
  8
A_BEMASSUNGEN
100
AcDbLine
 62
2
  6
CONTINUOUS
 10
183.4097189465
 20
54.6431020523
 11
183.4097189465
 21
61.5032678703
  0
LINE
  5
233
100
AcDbEntity
  8
A_BEMASSUNGEN
100
AcDbLine
 62
2
  6
CONTINUOUS
 10
183.4097189465
 20
63.0032678703
 11
183.4097189465
 21
70.5032678703
  0
LINE
  5
234
100
AcDbEntity
  8
A_BEMASSUNGEN
100
AcDbLine
 62
2
  6
CONTINUOUS
 10
183.4097189465
 20
70.5032678703
 11
183.4097189465
 21
61.5032678703
  0
INSERT
  5
235
100
AcDbEntity
  8
A_BEMASSUNGEN
100
AcDbBlockReference
 62
2
  6
CONTINUOUS
  2
_ARROW_FILLED
 10
183.4097189465
 20
60.0032678703
 41
3.5
 42
3.5
 43
3.5
 50
90.0
  0
INSERT
  5
236
100
AcDbEntity
  8
A_BEMASSUNGEN
100
AcDbBlockReference
 62
2
  6
CONTINUOUS
  2
_ARROW_FILLED
 10
183.4097189465
 20
63.0032678703
 41
3.5
 42
3.5
 43
3.5
 50
270.0
  0
ENDBLK
  5
237
100
AcDbEntity
  8
0
  6
BYBLOCK
 62
0
100
AcDbBlockEnd
  0
BLOCK
  5
238
100
AcDbEntity
  8
A_BEMASSUNGEN
100
AcDbBlockBegin
 62
2
  6
CONTINUOUS
  2
*D1
 70
65
 10
0.0
 20
0.0
  3
*D1
  1

  0
MTEXT
  5
239
100
AcDbEntity
  8
A_BEMASSUNGEN
100
AcDbMText
 62
5
  6
CONTINUOUS
  7
TEXTSTYLE_2
 71
2
 72
1
 10
179.0347189465
 20
83.3532678703
 30
0.0
 11
0.0
 21
1.0
 31
0.0
  1
40.7
 40
3.5
 41
15.375
  0
LINE
  5
23A
100
AcDbEntity
  8
A_BEMASSUNGEN
100
AcDbLine
 62
2
  6
CONTINUOUS
 10
101.7206514415
 20
63.0032678703
 11
185.4097189465
 21
63.0032678703
  0
LINE
  5
23B
100
AcDbEntity
  8
A_BEMASSUNGEN
100
AcDbLine
 62
2
  6
CONTINUOUS
 10
101.7206514415
 20
103.7032678703
 11
185.4097189465
 21
103.7032678703
  0
LINE
  5
23C
100
AcDbEntity
  8
A_BEMASSUNGEN
100
AcDbLine
 62
2
  6
CONTINUOUS
 10
183.4097189465
 20
63.0032678703
 11
183.4097189465
 21
83.3532678703
  0
LINE
  5
23D
100
AcDbEntity
  8
A_BEMASSUNGEN
100
AcDbLine
 62
2
  6
CONTINUOUS
 10
183.4097189465
 20
103.7032678703
 11
183.4097189465
 21
83.3532678703
  0
INSERT
  5
23E
100
AcDbEntity
  8
A_BEMASSUNGEN
100
AcDbBlockReference
 62
2
  6
CONTINUOUS
  2
_ARROW_FILLED
 10
183.4097189465
 20
63.0032678703
 41
3.5
 42
3.5
 43
3.5
 50
270.0
  0
INSERT
  5
23F
100
AcDbEntity
  8
A_BEMASSUNGEN
100
AcDbBlockReference
 62
2
  6
CONTINUOUS
  2
_ARROW_FILLED
 10
183.4097189465
 20
103.7032678703
 41
3.5
 42
3.5
 43
3.5
 50
90.0
  0
ENDBLK
  5
240
100
AcDbEntity
  8
0
  6
BYBLOCK
 62
0
100
AcDbBlockEnd
  0
BLOCK
  5
241
100
AcDbEntity
  8
A_BEMASSUNGEN
100
AcDbBlockBegin
 62
2
  6
CONTINUOUS
  2
*D2
 70
65
 10
0.0
 20
0.0
  3
*D2
  1

  0
MTEXT
  5
242
100
AcDbEntity
  8
A_BEMASSUNGEN
100
AcDbMText
 62
5
  6
CONTINUOUS
  7
TEXTSTYLE_2
 71
2
 72
1
 10
73.2206514415
 20
55.9111841168
 30
0.0
 11
1.0
 21
0.0
 31
0.0
  1
18
 40
3.5
 41
7.125
  0
LINE
  5
243
100
AcDbEntity
  8
A_BEMASSUNGEN
100
AcDbLine
 62
2
  6
CONTINUOUS
 10
64.2206514415
 20
63.1032678703
 11
64.2206514415
 21
49.5361841168
  0
LINE
  5
244
100
AcDbEntity
  8
A_BEMASSUNGEN
100
AcDbLine
 62
2
  6
CONTINUOUS
 10
82.2206514415
 20
85.1033821504
 11
82.2206514415
 21
49.5361841168
  0
LINE
  5
245
100
AcDbEntity
  8
A_BEMASSUNGEN
100
AcDbLine
 62
2
  6
CONTINUOUS
 10
64.2206514415
 20
51.5361841168
 11
73.2206514415
 21
51.5361841168
  0
LINE
  5
246
100
AcDbEntity
  8
A_BEMASSUNGEN
100
AcDbLine
 62
2
  6
CONTINUOUS
 10
82.2206514415
 20
51.5361841168
 11
73.2206514415
 21
51.5361841168
  0
INSERT
  5
247
100
AcDbEntity
  8
A_BEMASSUNGEN
100
AcDbBlockReference
 62
2
  6
CONTINUOUS
  2
_ARROW_FILLED
 10
64.2206514415
 20
51.5361841168
 41
3.5
 42
3.5
 43
3.5
 50
180.0
  0
INSERT
  5
248
100
AcDbEntity
  8
A_BEMASSUNGEN
100
AcDbBlockReference
 62
2
  6
CONTINUOUS
  2
_ARROW_FILLED
 10
82.2206514415
 20
51.5361841168
 41
3.5
 42
3.5
 43
3.5
  0
ENDBLK
  5
249
100
AcDbEntity
  8
0
  6
BYBLOCK
 62
0
100
AcDbBlockEnd
  0
BLOCK
  5
24A
100
AcDbEntity
  8
A_BEMASSUNGEN
100
AcDbBlockBegin
 62
2
  6
CONTINUOUS
  2
*D3
 70
65
 10
0.0
 20
0.0
  3
*D3
  1

  0
MTEXT
  5
24B
100
AcDbEntity
  8
A_BEMASSUNGEN
100
AcDbMText
 62
5
  6
CONTINUOUS
  7
TEXTSTYLE_2
 71
2
 72
1
 10
82.9706514415
 20
46.1864416688
 30
0.0
 11
1.0
 21
0.0
 31
0.0
  1
37.5
 40
3.5
 41
14.625
  0
LINE
  5
24C
100
AcDbEntity
  8
A_BEMASSUNGEN
100
AcDbLine
 62
2
  6
CONTINUOUS
 10
64.2206514415
 20
63.1032678703
 11
64.2206514415
 21
39.8114416688
  0
LINE
  5
24D
100
AcDbEntity
  8
A_BEMASSUNGEN
100
AcDbLine
 62
2
  6
CONTINUOUS
 10
101.7206514415
 20
63.0032678703
 11
101.7206514415
 21
39.8114416688
  0
LINE
  5
24E
100
AcDbEntity
  8
A_BEMASSUNGEN
100
AcDbLine
 62
2
  6
CONTINUOUS
 10
64.2206514415
 20
41.8114416688
 11
82.9706514415
 21
41.8114416688
  0
LINE
  5
24F
100
AcDbEntity
  8
A_BEMASSUNGEN
100
AcDbLine
 62
2
  6
CONTINUOUS
 10
101.7206514415
 20
41.8114416688
 11
82.9706514415
 21
41.8114416688
  0
INSERT
  5
250
100
AcDbEntity
  8
A_BEMASSUNGEN
100
AcDbBlockReference
 62
2
  6
CONTINUOUS
  2
_ARROW_FILLED
 10
64.2206514415
 20
41.8114416688
 41
3.5
 42
3.5
 43
3.5
 50
180.0
  0
INSERT
  5
251
100
AcDbEntity
  8
A_BEMASSUNGEN
100
AcDbBlockReference
 62
2
  6
CONTINUOUS
  2
_ARROW_FILLED
 10
101.7206514415
 20
41.8114416688
 41
3.5
 42
3.5
 43
3.5
  0
ENDBLK
  5
252
100
AcDbEntity
  8
0
  6
BYBLOCK
 62
0
100
AcDbBlockEnd
  0
BLOCK
  5
253
100
AcDbEntity
  8
A_BEMASSUNGEN
100
AcDbBlockBegin
 62
2
  6
CONTINUOUS
  2
*D4
 70
65
 10
0.0
 20
0.0
  3
*D4
  1

  0
MTEXT
  5
254
100
AcDbEntity
  8
A_BEMASSUNGEN
100
AcDbMText
 62
5
  6
CONTINUOUS
  7
TEXTSTYLE_2
 71
3
 72
1
 10
52.8116714811
 20
70.4960692301
 30
0.0
 11
0.0
 21
1.0
 31
0.0
  1
6
 40
3.5
 41
4.125
  0
LINE
  5
255
100
AcDbEntity
  8
A_BEMASSUNGEN
100
AcDbLine
 62
2
  6
CONTINUOUS
 10
67.2206514415
 20
76.0032678703
 11
55.1866714811
 21
76.0032678703
  0
LINE
  5
256
100
AcDbEntity
  8
A_BEMASSUNGEN
100
AcDbLine
 62
2
  6
CONTINUOUS
 10
57.1866714811
 20
82.0032678703
 11
57.1866714811
 21
89.5032678703
  0
LINE
  5
257
100
AcDbEntity
  8
A_BEMASSUNGEN
100
AcDbLine
 62
2
  6
CONTINUOUS
 10
57.1866714811
 20
89.5032678703
 11
57.1866714811
 21
79.0032678703
  0
LINE
  5
258
100
AcDbEntity
  8
A_BEMASSUNGEN
100
AcDbLine
 62
2
  6
CONTINUOUS
 10
57.1866714811
 20
76.0032678703
 11
57.1866714811
 21
67.7460692301
  0
LINE
  5
259
100
AcDbEntity
  8
A_BEMASSUNGEN
100
AcDbLine
 62
2
  6
CONTINUOUS
 10
57.1866714811
 20
67.7460692301
 11
57.1866714811
 21
79.0032678703
  0
INSERT
  5
25A
100
AcDbEntity
  8
A_BEMASSUNGEN
100
AcDbBlockReference
 62
2
  6
CONTINUOUS
  2
_ARROW_FILLED
 10
57.1866714811
 20
82.0032678703
 41
3.5
 42
3.5
 43
3.5
 50
270.0
  0
INSERT
  5
25B
100
AcDbEntity
  8
A_BEMASSUNGEN
100
AcDbBlockReference
 62
2
  6
CONTINUOUS
  2
_ARROW_FILLED
 10
57.1866714811
 20
76.0032678703
 41
3.5
 42
3.5
 43
3.5
 50
90.0
  0
ENDBLK
  5
25C
100
AcDbEntity
  8
0
  6
BYBLOCK
 62
0
100
AcDbBlockEnd
  0
BLOCK
  5
25D
100
AcDbEntity
  8
A_BEMASSUNGEN
100
AcDbBlockBegin
 62
2
  6
CONTINUOUS
  2
*D5
 70
65
 10
0.0
 20
0.0
  3
*D5
  1

  0
MTEXT
  5
25E
100
AcDbEntity
  8
A_BEMASSUNGEN
100
AcDbMText
 62
5
  6
CONTINUOUS
  7
TEXTSTYLE_2
 71
2
 72
1
 10
43.579258025
 20
71.0032678703
 30
0.0
 11
0.0
 21
1.0
 31
0.0
  1
22
 40
3.5
 41
8.25
  0
LINE
  5
25F
100
AcDbEntity
  8
A_BEMASSUNGEN
100
AcDbLine
 62
2
  6
CONTINUOUS
 10
67.2206514415
 20
60.0032678703
 11
45.954258025
 21
60.0032678703
  0
LINE
  5
260
100
AcDbEntity
  8
A_BEMASSUNGEN
100
AcDbLine
 62
2
  6
CONTINUOUS
 10
47.954258025
 20
82.0032678703
 11
47.954258025
 21
71.0032678703
  0
LINE
  5
261
100
AcDbEntity
  8
A_BEMASSUNGEN
100
AcDbLine
 62
2
  6
CONTINUOUS
 10
47.954258025
 20
60.0032678703
 11
47.954258025
 21
71.0032678703
  0
INSERT
  5
262
100
AcDbEntity
  8
A_BEMASSUNGEN
100
AcDbBlockReference
 62
2
  6
CONTINUOUS
  2
_ARROW_FILLED
 10
47.954258025
 20
82.0032678703
 41
3.5
 42
3.5
 43
3.5
 50
90.0
  0
INSERT
  5
263
100
AcDbEntity
  8
A_BEMASSUNGEN
100
AcDbBlockReference
 62
2
  6
CONTINUOUS
  2
_ARROW_FILLED
 10
47.954258025
 20
60.0032678703
 41
3.5
 42
3.5
 43
3.5
 50
270.0
  0
ENDBLK
  5
264
100
AcDbEntity
  8
0
  6
BYBLOCK
 62
0
100
AcDbBlockEnd
  0
BLOCK
  5
265
100
AcDbEntity
  8
A_BEMASSUNGEN
100
AcDbBlockBegin
 62
2
  6
CONTINUOUS
  2
*D6
 70
65
 10
0.0
 20
0.0
  3
*D6
  1

  0
MTEXT
  5
266
100
AcDbEntity
  8
A_BEMASSUNGEN
100
AcDbMText
 62
5
  6
CONTINUOUS
  7
TEXTSTYLE_2
 71
2
 72
1
 10
3.8805029607
 20
86.0032678703
 30
0.0
 11
0.0
 21
1.0
 31
0.0
  1
8
 40
3.5
 41
4.125
  0
LINE
  5
267
100
AcDbEntity
  8
A_BEMASSUNGEN
100
AcDbLine
 62
2
  6
CONTINUOUS
 10
19.2206514415
 20
82.0032678703
 11
6.2555029607
 21
82.0032678703
  0
LINE
  5
268
100
AcDbEntity
  8
A_BEMASSUNGEN
100
AcDbLine
 62
2
  6
CONTINUOUS
 10
44.2206514415
 20
90.0032678703
 11
6.2555029607
 21
90.0032678703
  0
LINE
  5
269
100
AcDbEntity
  8
A_BEMASSUNGEN
100
AcDbLine
 62
2
  6
CONTINUOUS
 10
8.2555029607
 20
82.0032678703
 11
8.2555029607
 21
74.5032678703
  0
LINE
  5
26A
100
AcDbEntity
  8
A_BEMASSUNGEN
100
AcDbLine
 62
2
  6
CONTINUOUS
 10
8.2555029607
 20
74.5032678703
 11
8.2555029607
 21
86.0032678703
  0
LINE
  5
26B
100
AcDbEntity
  8
A_BEMASSUNGEN
100
AcDbLine
 62
2
  6
CONTINUOUS
 10
8.2555029607
 20
90.0032678703
 11
8.2555029607
 21
97.5032678703
  0
LINE
  5
26C
100
AcDbEntity
  8
A_BEMASSUNGEN
100
AcDbLine
 62
2
  6
CONTINUOUS
 10
8.2555029607
 20
97.5032678703
 11
8.2555029607
 21
86.0032678703
  0
INSERT
  5
26D
100
AcDbEntity
  8
A_BEMASSUNGEN
100
AcDbBlockReference
 62
2
  6
CONTINUOUS
  2
_ARROW_FILLED
 10
8.2555029607
 20
82.0032678703
 41
3.5
 42
3.5
 43
3.5
 50
90.0
  0
INSERT
  5
26E
100
AcDbEntity
  8
A_BEMASSUNGEN
100
AcDbBlockReference
 62
2
  6
CONTINUOUS
  2
_ARROW_FILLED
 10
8.2555029607
 20
90.0032678703
 41
3.5
 42
3.5
 43
3.5
 50
270.0
  0
ENDBLK
  5
26F
100
AcDbEntity
  8
0
  6
BYBLOCK
 62
0
100
AcDbBlockEnd
  0
BLOCK
  5
270
100
AcDbEntity
  8
A_BEMASSUNGEN
100
AcDbBlockBegin
 62
2
  6
CONTINUOUS
  2
*D7
 70
65
 10
0.0
 20
0.0
  3
*D7
  1

  0
MTEXT
  5
271
100
AcDbEntity
  8
A_BEMASSUNGEN
100
AcDbMText
 62
5
  6
CONTINUOUS
  7
TEXTSTYLE_2
 71
2
 72
1
 10
3.8805029607
 20
105.0032678703
 30
0.0
 11
0.0
 21
1.0
 31
0.0
  1
30
 40
3.5
 41
7.875
  0
LINE
  5
272
100
AcDbEntity
  8
A_BEMASSUNGEN
100
AcDbLine
 62
2
  6
CONTINUOUS
 10
44.2206514415
 20
90.0032678703
 11
6.2555029607
 21
90.0032678703
  0
LINE
  5
273
100
AcDbEntity
  8
A_BEMASSUNGEN
100
AcDbLine
 62
2
  6
CONTINUOUS
 10
44.2206514415
 20
120.0032678703
 11
6.2555029607
 21
120.0032678703
  0
LINE
  5
274
100
AcDbEntity
  8
A_BEMASSUNGEN
100
AcDbLine
 62
2
  6
CONTINUOUS
 10
8.2555029607
 20
90.0032678703
 11
8.2555029607
 21
105.0032678703
  0
LINE
  5
275
100
AcDbEntity
  8
A_BEMASSUNGEN
100
AcDbLine
 62
2
  6
CONTINUOUS
 10
8.2555029607
 20
120.0032678703
 11
8.2555029607
 21
105.0032678703
  0
INSERT
  5
276
100
AcDbEntity
  8
A_BEMASSUNGEN
100
AcDbBlockReference
 62
2
  6
CONTINUOUS
  2
_ARROW_FILLED
 10
8.2555029607
 20
90.0032678703
 41
3.5
 42
3.5
 43
3.5
 50
270.0
  0
INSERT
  5
277
100
AcDbEntity
  8
A_BEMASSUNGEN
100
AcDbBlockReference
 62
2
  6
CONTINUOUS
  2
_ARROW_FILLED
 10
8.2555029607
 20
120.0032678703
 41
3.5
 42
3.5
 43
3.5
 50
90.0
  0
ENDBLK
  5
278
100
AcDbEntity
  8
0
  6
BYBLOCK
 62
0
100
AcDbBlockEnd
  0
BLOCK
  5
279
100
AcDbEntity
  8
A_BEMASSUNGEN
100
AcDbBlockBegin
 62
2
  6
CONTINUOUS
  2
*D8
 70
65
 10
0.0
 20
0.0
  3
*D8
  1

  0
MTEXT
  5
27A
100
AcDbEntity
  8
A_BEMASSUNGEN
100
AcDbMText
 62
5
  6
CONTINUOUS
  7
TEXTSTYLE_2
 71
1
 72
1
 10
87.8808551492
 20
172.3292419025
 30
0.0
 11
1.0
 21
0.0
 31
0.0
  1
5
 40
3.5
 41
3.75
  0
LINE
  5
27B
100
AcDbEntity
  8
A_BEMASSUNGEN
100
AcDbLine
 62
2
  6
CONTINUOUS
 10
82.2206514415
 20
109.0032678703
 11
82.2206514415
 21
169.9542419025
  0
LINE
  5
27C
100
AcDbEntity
  8
A_BEMASSUNGEN
100
AcDbLine
 62
2
  6
CONTINUOUS
 10
77.2206514415
 20
119.4032678703
 11
77.2206514415
 21
169.9542419025
  0
LINE
  5
27D
100
AcDbEntity
  8
A_BEMASSUNGEN
100
AcDbLine
 62
2
  6
CONTINUOUS
 10
82.2206514415
 20
167.9542419025
 11
90.3808551492
 21
167.9542419025
  0
LINE
  5
27E
100
AcDbEntity
  8
A_BEMASSUNGEN
100
AcDbLine
 62
2
  6
CONTINUOUS
 10
90.3808551492
 20
167.9542419025
 11
79.7206514415
 21
167.9542419025
  0
LINE
  5
27F
100
AcDbEntity
  8
A_BEMASSUNGEN
100
AcDbLine
 62
2
  6
CONTINUOUS
 10
77.2206514415
 20
167.9542419025
 11
69.7206514415
 21
167.9542419025
  0
LINE
  5
280
100
AcDbEntity
  8
A_BEMASSUNGEN
100
AcDbLine
 62
2
  6
CONTINUOUS
 10
69.7206514415
 20
167.9542419025
 11
79.7206514415
 21
167.9542419025
  0
INSERT
  5
281
100
AcDbEntity
  8
A_BEMASSUNGEN
100
AcDbBlockReference
 62
2
  6
CONTINUOUS
  2
_ARROW_FILLED
 10
82.2206514415
 20
167.9542419025
 41
3.5
 42
3.5
 43
3.5
 50
180.0
  0
INSERT
  5
282
100
AcDbEntity
  8
A_BEMASSUNGEN
100
AcDbBlockReference
 62
2
  6
CONTINUOUS
  2
_ARROW_FILLED
 10
77.2206514415
 20
167.9542419025
 41
3.5
 42
3.5
 43
3.5
  0
ENDBLK
  5
283
100
AcDbEntity
  8
0
  6
BYBLOCK
 62
0
100
AcDbBlockEnd
  0
BLOCK
  5
284
100
AcDbEntity
  8
A_BEMASSUNGEN
100
AcDbBlockBegin
 62
2
  6
CONTINUOUS
  2
*D9
 70
65
 10
0.0
 20
0.0
  3
*D9
  1

  0
MTEXT
  5
285
100
AcDbEntity
  8
A_BEMASSUNGEN
100
AcDbMText
 62
5
  6
CONTINUOUS
  7
TEXTSTYLE_2
 71
2
 72
1
 10
60.7206514415
 20
172.3292419025
 30
0.0
 11
1.0
 21
0.0
 31
0.0
  1
33
 40
3.5
 41
7.5
  0
LINE
  5
286
100
AcDbEntity
  8
A_BEMASSUNGEN
100
AcDbLine
 62
2
  6
CONTINUOUS
 10
77.2206514415
 20
119.4032678703
 11
77.2206514415
 21
169.9542419025
  0
LINE
  5
287
100
AcDbEntity
  8
A_BEMASSUNGEN
100
AcDbLine
 62
2
  6
CONTINUOUS
 10
44.2206514415
 20
120.0032678703
 11
44.2206514415
 21
169.9542419025
  0
LINE
  5
288
100
AcDbEntity
  8
A_BEMASSUNGEN
100
AcDbLine
 62
2
  6
CONTINUOUS
 10
77.2206514415
 20
167.9542419025
 11
60.7206514415
 21
167.9542419025
  0
LINE
  5
289
100
AcDbEntity
  8
A_BEMASSUNGEN
100
AcDbLine
 62
2
  6
CONTINUOUS
 10
44.2206514415
 20
167.9542419025
 11
60.7206514415
 21
167.9542419025
  0
INSERT
  5
28A
100
AcDbEntity
  8
A_BEMASSUNGEN
100
AcDbBlockReference
 62
2
  6
CONTINUOUS
  2
_ARROW_FILLED
 10
77.2206514415
 20
167.9542419025
 41
3.5
 42
3.5
 43
3.5
  0
INSERT
  5
28B
100
AcDbEntity
  8
A_BEMASSUNGEN
100
AcDbBlockReference
 62
2
  6
CONTINUOUS
  2
_ARROW_FILLED
 10
44.2206514415
 20
167.9542419025
 41
3.5
 42
3.5
 43
3.5
 50
180.0
  0
ENDBLK
  5
28C
100
AcDbEntity
  8
0
  6
BYBLOCK
 62
0
100
AcDbBlockEnd
  0
ENDSEC
  0
SECTION
  2
ENTITIES
  0
DIMENSION
  5
28D
100
AcDbEntity
  8
A_BEMASSUNGEN
100
AcDbDimension
 62
2
  6
CONTINUOUS
  2
*D0
 10
183.4097189465
 20
63.0032678703
 11
183.4097189465
 21
55.3931035919
 70
160
  3
DIMSTYLE_1
100
AcDbAlignedDimension
 13
166.7206514415
 23
60.0032678703
 14
101.7206514415
 24
63.0032678703
 50
90.0
100
AcDbRotatedDimension
  0
DIMENSION
  5
28E
100
AcDbEntity
  8
A_BEMASSUNGEN
100
AcDbDimension
 62
2
  6
CONTINUOUS
  2
*D1
 10
183.4097189465
 20
103.7032678703
 11
183.4097189465
 21
82.8532694099
 70
160
  3
DIMSTYLE_2
100
AcDbAlignedDimension
 13
101.7206514415
 23
63.0032678703
 14
101.7206514415
 24
103.7032678703
 50
90.0
100
AcDbRotatedDimension
  0
DIMENSION
  5
28F
100
AcDbEntity
  8
A_BEMASSUNGEN
100
AcDbDimension
 62
2
  6
CONTINUOUS
  2
*D2
 10
82.2206514415
 20
51.5361841168
 11
72.7206507523
 21
51.5361841168
 70
160
  3
DIMSTYLE_3
100
AcDbAlignedDimension
 13
64.2206514415
 23
63.1032678703
 14
82.2206514415
 24
85.1033821504
100
AcDbRotatedDimension
  0
DIMENSION
  5
290
100
AcDbEntity
  8
A_BEMASSUNGEN
100
AcDbDimension
 62
2
  6
CONTINUOUS
  2
*D3
 10
101.7206514415
 20
41.8114416688
 11
82.4706507523
 21
41.8114416688
 70
160
  3
DIMSTYLE_2
100
AcDbAlignedDimension
 13
64.2206514415
 23
63.1032678703
 14
101.7206514415
 24
63.0032678703
100
AcDbRotatedDimension
  0
DIMENSION
  5
291
100
AcDbEntity
  8
A_BEMASSUNGEN
100
AcDbDimension
 62
2
  6
CONTINUOUS
  2
*D4
 10
57.1866714811
 20
76.0032678703
 11
57.1866714811
 21
68.6210713601
 70
160
  3
DIMSTYLE_1
100
AcDbAlignedDimension
 13
75.2206514415
 23
82.0032678703
 14
67.2206514415
 24
76.0032678703
 50
270.0
100
AcDbRotatedDimension
  0
DIMENSION
  5
292
100
AcDbEntity
  8
A_BEMASSUNGEN
100
AcDbDimension
 62
2
  6
CONTINUOUS
  2
*D5
 10
47.954258025
 20
60.0032678703
 11
47.954258025
 21
70.5032688152
 70
160
  3
DIMSTYLE_3
100
AcDbAlignedDimension
 13
75.2206514415
 23
82.0032678703
 14
67.2206514415
 24
60.0032678703
 50
270.0
100
AcDbRotatedDimension
  0
DIMENSION
  5
293
100
AcDbEntity
  8
A_BEMASSUNGEN
100
AcDbDimension
 62
2
  6
CONTINUOUS
  2
*D6
 10
8.2555029607
 20
90.0032678703
 11
8.2555029607
 21
85.5032680924
 70
160
  3
DIMSTYLE_3
100
AcDbAlignedDimension
 13
19.2206514415
 23
82.0032678703
 14
44.2206514415
 24
90.0032678703
 50
90.0
100
AcDbRotatedDimension
  0
DIMENSION
  5
294
100
AcDbEntity
  8
A_BEMASSUNGEN
100
AcDbDimension
 62
2
  6
CONTINUOUS
  2
*D7
 10
8.2555029607
 20
120.0032678703
 11
8.2555029607
 21
104.5032680924
 70
160
  3
DIMSTYLE_3
100
AcDbAlignedDimension
 13
44.2206514415
 23
90.0032678703
 14
44.2206514415
 24
120.0032678703
 50
90.0
100
AcDbRotatedDimension
  0
DIMENSION
  5
295
100
AcDbEntity
  8
A_BEMASSUNGEN
100
AcDbDimension
 62
2
  6
CONTINUOUS
  2
*D8
 10
77.2206514415
 20
167.9542419025
 11
88.6308576389
 21
167.9542419025
 70
160
  3
DIMSTYLE_1
100
AcDbAlignedDimension
 13
82.2206514415
 23
109.0032678703
 14
77.2206514415
 24
119.4032678703
 50
180.0
100
AcDbRotatedDimension
  0
DIMENSION
  5
296
100
AcDbEntity
  8
A_BEMASSUNGEN
100
AcDbDimension
 62
2
  6
CONTINUOUS
  2
*D9
 10
44.2206514415
 20
167.9542419025
 11
60.2206507523
 21
167.9542419025
 70
160
  3
DIMSTYLE_2
100
AcDbAlignedDimension
 13
77.2206514415
 23
119.4032678703
 14
44.2206514415
 24
120.0032678703
 50
180.0
100
AcDbRotatedDimension
  0
LINE
  5
297
100
AcDbEntity
  8
0
100
AcDbLine
 62
7
  6
CONTINUOUS
 10
17.2206514415
 20
84.0032678703
 11
17.2206514415
 21
102.3290318703
  0
LINE
  5
298
100
AcDbEntity
  8
0
100
AcDbLine
 62
7
  6
CONTINUOUS
 10
17.2206514415
 20
155.8423668703
 11
17.2206514415
 21
158.0032678703
  0
LINE
  5
299
100
AcDbEntity
  8
0
100
AcDbLine
 62
7
  6
CONTINUOUS
 10
17.7206514415
 20
118.6731398703
 11
17.7206514415
 21
133.3333958703
  0
LINE
  5
29A
100
AcDbEntity
  8
0
100
AcDbLine
 62
7
  6
CONTINUOUS
 10
21.2206514415
 20
148.6512848703
 11
21.2206514415
 21
153.4588598703
  0
LINE
  5
29B
100
AcDbEntity
  8
0
100
AcDbLine
 62
7
  6
CONTINUOUS
 10
27.2206514415
 20
104.2006608703
 11
27.2206514415
 21
116.8058738703
  0
LINE
  5
29C
100
AcDbEntity
  8
0
100
AcDbLine
 62
7
  6
CONTINUOUS
 10
27.2206514415
 20
135.2006608703
 11
27.2206514415
 21
147.8058738703
  0
LINE
  5
29D
100
AcDbEntity
  8
0
100
AcDbLine
 62
7
  6
CONTINUOUS
 10
44.2206514415
 20
90.0032678703
 11
44.2206514415
 21
120.0032678703
  0
LINE
  5
29E
100
AcDbEntity
  8
0
100
AcDbLine
 62
7
  6
CONTINUOUS
 10
44.7206514415
 20
117.5032678703
 11
44.7206514415
 21
111.5032678703
  0
LINE
  5
29F
100
AcDbEntity
  8
0
100
AcDbLine
 62
7
  6
CONTINUOUS
 10
44.7206514415
 20
101.6532678703
 11
44.7206514415
 21
94.6532678703
  0
LINE
  5
2A0
100
AcDbEntity
  8
0
100
AcDbLine
 62
7
  6
CONTINUOUS
 10
46.9706514415
 20
105.0032678703
 11
46.9706514415
 21
111.0032678703
  0
LINE
  5
2A1
100
AcDbEntity
  8
0
100
AcDbLine
 62
7
  6
CONTINUOUS
 10
49.2206514415
 20
102.7532678703
 11
49.2206514415
 21
113.2532678703
  0
LINE
  5
2A2
100
AcDbEntity
  8
0
100
AcDbLine
 62
7
  6
CONTINUOUS
 10
50.2206514415
 20
90.1857395711
 11
50.2206514415
 21
119.8207961695
  0
LINE
  5
2A3
100
AcDbEntity
  8
A_FASEN
100
AcDbLine
 62
7
  6
CONTINUOUS
 10
50.7206514415
 20
94.7032678703
 11
50.7206514415
 21
101.7032678703
  0
LINE
  5
2A4
100
AcDbEntity
  8
0
100
AcDbLine
 62
7
  6
CONTINUOUS
 10
51.7206514415
 20
101.7032678703
 11
51.7206514415
 21
94.7032678703
  0
LINE
  5
2A5
100
AcDbEntity
  8
0
100
AcDbLine
 62
7
  6
CONTINUOUS
 10
53.0206514415
 20
93.188334585
 11
53.0206514415
 21
116.8182011555
  0
LINE
  5
2A6
100
AcDbEntity
  8
0
100
AcDbLine
 62
7
  6
CONTINUOUS
 10
54.7206514415
 20
112.1032678703
 11
54.7206514415
 21
108.1032678703
  0
LINE
  5
2A7
100
AcDbEntity
  8
0
100
AcDbLine
 62
7
  6
CONTINUOUS
 10
54.7206514415
 20
101.6032678703
 11
54.7206514415
 21
97.6032678703
  0
LINE
  5
2A8
100
AcDbEntity
  8
0
100
AcDbLine
 62
7
  6
CONTINUOUS
 10
55.2206514415
 20
97.1032678703
 11
55.2206514415
 21
102.1032678703
  0
LINE
  5
2A9
100
AcDbEntity
  8
0
100
AcDbLine
 62
7
  6
CONTINUOUS
 10
55.2206514415
 20
107.6032678703
 11
55.2206514415
 21
112.6032678703
  0
LINE
  5
2AA
100
AcDbEntity
  8
0
100
AcDbLine
 62
7
  6
CONTINUOUS
 10
56.2206514415
 20
93.3342280047
 11
56.2206514415
 21
107.6032678703
  0
LINE
  5
2AB
100
AcDbEntity
  8
0
100
AcDbLine
 62
7
  6
CONTINUOUS
 10
56.2206514415
 20
112.6032678703
 11
56.2206514415
 21
116.6723077358
  0
LINE
  5
2AC
100
AcDbEntity
  8
0
100
AcDbLine
 62
7
  6
CONTINUOUS
 10
166.7206514415
 20
60.0032678703
 11
67.2206514415
 21
60.0032678703
  0
LINE
  5
2AD
100
AcDbEntity
  8
0
100
AcDbLine
 62
7
  6
CONTINUOUS
 10
44.2206514415
 20
102.1532678703
 11
44.7206514415
 21
101.6532678703
  0
LINE
  5
2AE
100
AcDbEntity
  8
0
100
AcDbLine
 62
7
  6
CONTINUOUS
 10
61.2206514415
 20
94.1407111879
 11
61.2206514415
 21
105.6658245527
  0
LINE
  5
2AF
100
AcDbEntity
  8
0
100
AcDbLine
 62
7
  6
CONTINUOUS
 10
62.5206514415
 20
118.3880732154
 11
62.5206514415
 21
118.2282678703
  0
LINE
  5
2B0
100
AcDbEntity
  8
0
100
AcDbLine
 62
7
  6
CONTINUOUS
 10
62.5206514415
 20
91.7782678703
 11
62.5206514415
 21
91.6184625251
  0
LINE
  5
2B1
100
AcDbEntity
  8
A_FASEN
100
AcDbLine
 62
7
  6
CONTINUOUS
 10
63.2206514415
 20
101.7032678703
 11
63.2206514415
 21
94.7032678703
  0
LINE
  5
2B2
100
AcDbEntity
  8
QUER2
100
AcDbLine
 62
7
  6
CONTINUOUS
 10
63.7206514415
 20
116.4032678703
 11
63.7206514415
 21
114.2032678703
  0
LINE
  5
2B3
100
AcDbEntity
  8
QUER2
100
AcDbLine
 62
7
  6
CONTINUOUS
 10
63.7206514415
 20
106.0032678703
 11
63.7206514415
 21
93.4032678703
  0
LINE
  5
2B4
100
AcDbEntity
  8
0
100
AcDbLine
 62
7
  6
CONTINUOUS
 10
63.7206514415
 20
91.7818096804
 11
63.7206514415
 21
94.2032678703
  0
LINE
  5
2B5
100
AcDbEntity
  8
0
100
AcDbLine
 62
7
  6
CONTINUOUS
 10
63.7206514415
 20
102.2032678703
 11
63.7206514415
 21
107.6032678703
  0
LINE
  5
2B6
100
AcDbEntity
  8
0
100
AcDbLine
 62
7
  6
CONTINUOUS
 10
63.7206514415
 20
112.6032678703
 11
63.7206514415
 21
118.2247260602
  0
LINE
  5
2B7
100
AcDbEntity
  8
0
100
AcDbLine
 62
7
  6
CONTINUOUS
 10
64.2206514415
 20
63.1032678703
 11
64.2206514415
 21
63.0032678703
  0
LINE
  5
2B8
100
AcDbEntity
  8
A_RUNDUNGEN
100
AcDbLine
 62
7
  6
CONTINUOUS
 10
64.2206514415
 20
63.1032678703
 11
64.2206514415
 21
75.1032678703
  0
LINE
  5
2B9
100
AcDbEntity
  8
0
100
AcDbLine
 62
7
  6
CONTINUOUS
 10
49.2206514415
 20
113.2532678703
 11
46.9706514415
 21
111.0032678703
  0
LINE
  5
2BA
100
AcDbEntity
  8
0
100
AcDbLine
 62
7
  6
CONTINUOUS
 10
99.7311233691
 20
63.2892019657
 11
81.2206514415
 21
63.1922804756
  0
LINE
  5
2BB
100
AcDbEntity
  8
A_RUNDUNGEN
100
AcDbLine
 62
7
  6
CONTINUOUS
 10
64.2206514415
 20
63.1032678703
 11
69.3454670536
 21
63.1301015873
  0
LINE
  5
2BC
100
AcDbEntity
  8
A_RUNDUNGEN
100
AcDbLine
 62
7
  6
CONTINUOUS
 10
70.1551091996
 20
63.1343409024
 11
81.2206514415
 21
63.1922804756
  0
LINE
  5
2BD
100
AcDbEntity
  8
0
100
AcDbLine
 62
7
  6
CONTINUOUS
 10
174.2206514415
 20
63.0032678703
 11
169.7206514415
 21
63.0032678703
  0
LINE
  5
2BE
100
AcDbEntity
  8
0
100
AcDbLine
 62
7
  6
CONTINUOUS
 10
101.7206514415
 20
63.0032678703
 11
64.2206514415
 21
63.0032678703
  0
LINE
  5
2BF
100
AcDbEntity
  8
QUER2
100
AcDbLine
 62
7
  6
CONTINUOUS
 10
69.7206514415
 20
63.6032678703
 11
76.7206514415
 21
63.6032678703
  0
LINE
  5
2C0
100
AcDbEntity
  8
0
100
AcDbLine
 62
7
  6
CONTINUOUS
 10
93.2206514415
 20
65.1032678703
 11
88.2206514415
 21
65.1032678703
  0
LINE
  5
2C1
100
AcDbEntity
  8
0
100
AcDbLine
 62
7
  6
CONTINUOUS
 10
49.2206514415
 20
102.7532678703
 11
46.9706514415
 21
105.0032678703
  0
LINE
  5
2C2
100
AcDbEntity
  8
0
100
AcDbLine
 62
7
  6
CONTINUOUS
 10
55.2206514415
 20
97.1032678703
 11
54.7206514415
 21
97.6032678703
  0
LINE
  5
2C3
100
AcDbEntity
  8
0
100
AcDbLine
 62
7
  6
CONTINUOUS
 10
50.2206514415
 20
102.2032678703
 11
50.7206514415
 21
101.7032678703
  0
LINE
  5
2C4
100
AcDbEntity
  8
QUER2
100
AcDbLine
 62
7
  6
CONTINUOUS
 10
67.8959928855
 20
79.9737759694
 11
67.7911990118
 21
81.2780227065
  0
LINE
  5
2C5
100
AcDbEntity
  8
DEFAULT_2
100
AcDbLine
 62
8
  6
HIDDEN
 10
66.7206514415
 20
112.6032678703
 11
66.7206514415
 21
107.6032678703
  0
LINE
  5
2C6
100
AcDbEntity
  8
A_RUNDUNGEN
100
AcDbLine
 62
7
  6
CONTINUOUS
 10
66.7206514415
 20
114.0532678293
 11
66.7206514415
 21
106.1532679112
  0
LINE
  5
2C7
100
AcDbEntity
  8
QUER2
100
AcDbLine
 62
7
  6
CONTINUOUS
 10
66.7206514415
 20
104.3032678703
 11
66.7206514415
 21
106.2605738837
  0
LINE
  5
2C8
100
AcDbEntity
  8
QUER2
100
AcDbLine
 62
7
  6
CONTINUOUS
 10
66.7206514415
 20
114.05326783
 11
66.7206514415
 21
115.9032678703
  0
LINE
  5
2C9
100
AcDbEntity
  8
0
100
AcDbLine
 62
7
  6
CONTINUOUS
 10
67.6206514415
 20
118.4325802412
 11
67.6206514415
 21
118.2587608445
  0
LINE
  5
2CA
100
AcDbEntity
  8
0
100
AcDbLine
 62
7
  6
CONTINUOUS
 10
67.6206514415
 20
91.747774896
 11
67.6206514415
 21
91.5739554994
  0
LINE
  5
2CB
100
AcDbEntity
  8
0
100
AcDbLine
 62
7
  6
CONTINUOUS
 10
68.6392540218
 20
118.2676500546
 11
68.6392540218
 21
116.7032678703
  0
LINE
  5
2CC
100
AcDbEntity
  8
0
100
AcDbLine
 62
7
  6
CONTINUOUS
 10
68.6392540218
 20
93.1032678703
 11
68.6392540218
 21
91.738885686
  0
LINE
  5
2CD
100
AcDbEntity
  8
0
100
AcDbLine
 62
7
  6
CONTINUOUS
 10
68.7206514415
 20
127.0032678703
 11
68.7206514415
 21
122.0032678703
  0
LINE
  5
2CE
100
AcDbEntity
  8
A_ACHSEN
100
AcDbLine
 62
7
  6
CONTINUOUS
 10
69.7206514415
 20
69.1958604629
 11
69.7206514415
 21
68.0106752777
  0
LINE
  5
2CF
100
AcDbEntity
  8
A_ACHSEN
100
AcDbLine
 62
7
  6
CENTER
 10
69.7206514415
 20
65.6403049073
 11
69.7206514415
 21
62.6532678703
  0
LINE
  5
2D0
100
AcDbEntity
  8
A_ACHSEN
100
AcDbLine
 62
7
  6
CENTER
 10
69.7206514415
 20
71.5662308332
 11
69.7206514415
 21
74.5532678703
  0
LINE
  5
2D1
100
AcDbEntity
  8
DEFAULT_2
100
AcDbLine
 62
8
  6
HIDDEN
 10
71.7206514415
 20
112.351183689
 11
71.7206514415
 21
107.8553520516
  0
LINE
  5
2D2
100
AcDbEntity
  8
A_RUNDUNGEN
100
AcDbLine
 62
7
  6
CONTINUOUS
 10
71.7206514415
 20
114.0532669191
 11
71.7206514415
 21
106.1532688215
  0
LINE
  5
2D3
100
AcDbEntity
  8
DEFAULT_2
100
AcDbLine
 62
8
  6
HIDDEN
 10
68.4216514415
 20
110.1032678703
 11
69.7194862142
 21
112.3511836364
  0
LINE
  5
2D4
100
AcDbEntity
  8
0
100
AcDbLine
 62
7
  6
CONTINUOUS
 10
55.2206514415
 20
112.6032678703
 11
54.7206514415
 21
112.1032678703
  0
LINE
  5
2D5
100
AcDbEntity
  8
0
100
AcDbLine
 62
7
  6
CONTINUOUS
 10
44.2206514415
 20
94.1532678703
 11
44.7206514415
 21
94.6532678703
  0
LINE
  5
2D6
100
AcDbEntity
  8
0
100
AcDbLine
 62
7
  6
CONTINUOUS
 10
88.2206514415
 20
65.1032678703
 11
81.2206514415
 21
63.6032678703
  0
LINE
  5
2D7
100
AcDbEntity
  8
A_RUNDUNGEN
100
AcDbLine
 62
7
  6
CONTINUOUS
 10
80.9603218785
 20
63.5474829639
 11
81.2206514415
 21
63.6032678703
  0
LINE
  5
2D8
100
AcDbEntity
  8
A_ACHSEN
100
AcDbLine
 62
7
  6
CONTINUOUS
 10
70.3132440341
 20
68.6032678703
 11
69.1280588489
 21
68.6032678703
  0
LINE
  5
2D9
100
AcDbEntity
  8
A_ACHSEN
100
AcDbLine
 62
7
  6
CENTER
 10
66.7576884785
 20
68.6032678703
 11
63.7706514415
 21
68.6032678703
  0
LINE
  5
2DA
100
AcDbEntity
  8
A_ACHSEN
100
AcDbLine
 62
7
  6
CENTER
 10
72.6836144044
 20
68.6032678703
 11
75.6706514415
 21
68.6032678703
  0
LINE
  5
2DB
100
AcDbEntity
  8
QUER2
100
AcDbLine
 62
7
  6
CONTINUOUS
 10
76.7206514415
 20
73.6032678703
 11
69.7206514415
 21
73.6032678703
  0
LINE
  5
2DC
100
AcDbEntity
  8
0
100
AcDbLine
 62
7
  6
CONTINUOUS
 10
63.7206514415
 20
94.2032678703
 11
63.2206514415
 21
94.7032678703
  0
LINE
  5
2DD
100
AcDbEntity
  8
0
100
AcDbLine
 62
7
  6
CONTINUOUS
 10
55.2206514415
 20
107.6032678703
 11
54.7206514415
 21
108.1032678703
  0
LINE
  5
2DE
100
AcDbEntity
  8
0
100
AcDbLine
 62
7
  6
CONTINUOUS
 10
72.7206514415
 20
118.3032678703
 11
72.7206514415
 21
116.4032678703
  0
LINE
  5
2DF
100
AcDbEntity
  8
0
100
AcDbLine
 62
7
  6
CONTINUOUS
 10
72.7206514415
 20
93.1032678703
 11
72.7206514415
 21
91.7032678703
  0
LINE
  5
2E0
100
AcDbEntity
  8
QUER2
100
AcDbLine
 62
7
  6
CONTINUOUS
 10
72.7206514415
 20
104.6032678703
 11
72.7206514415
 21
116.4032678703
  0
LINE
  5
2E1
100
AcDbEntity
  8
0
100
AcDbLine
 62
7
  6
CONTINUOUS
 10
75.5206514415
 20
119.9532678703
 11
75.5206514415
 21
119.8997768573
  0
LINE
  5
2E2
100
AcDbEntity
  8
0
100
AcDbLine
 62
7
  6
CONTINUOUS
 10
75.5206514415
 20
90.0532678703
 11
75.5206514415
 21
90.1067588833
  0
LINE
  5
2E3
100
AcDbEntity
  8
A_RUNDUNGEN
100
AcDbLine
 62
7
  6
CONTINUOUS
 10
75.5206514415
 20
104.46325006
 11
75.5206514415
 21
105.542898209
  0
LINE
  5
2E4
100
AcDbEntity
  8
A_RUNDUNGEN
100
AcDbLine
 62
7
  6
CONTINUOUS
 10
75.7206514415
 20
118.5032678703
 11
75.7206514415
 21
103.1032678703
  0
LINE
  5
2E5
100
AcDbEntity
  8
A_RUNDUNGEN
100
AcDbLine
 62
7
  6
CONTINUOUS
 10
75.7206514415
 20
93.1032678703
 11
75.7206514415
 21
91.5032678703
  0
LINE
  5
2E6
100
AcDbEntity
  8
0
100
AcDbLine
 62
7
  6
CONTINUOUS
 10
75.7206514415
 20
90.1032678703
 11
75.7206514415
 21
91.5032678703
  0
LINE
  5
2E7
100
AcDbEntity
  8
0
100
AcDbLine
 62
7
  6
CONTINUOUS
 10
75.7206514415
 20
118.5032678703
 11
75.7206514415
 21
119.9032678703
  0
LINE
  5
2E8
100
AcDbEntity
  8
A_RUNDUNGEN
100
AcDbLine
 62
7
  6
CONTINUOUS
 10
77.2206514415
 20
119.9032678703
 11
77.2206514415
 21
103.0675071645
  0
LINE
  5
2E9
100
AcDbEntity
  8
A_RUNDUNGEN
100
AcDbLine
 62
7
  6
CONTINUOUS
 10
77.2206514415
 20
93.062254258
 11
77.2206514415
 21
90.1032678703
  0
LINE
  5
2EA
100
AcDbEntity
  8
0
100
AcDbLine
 62
7
  6
CONTINUOUS
 10
77.2206514415
 20
84.0032678703
 11
77.2206514415
 21
90.1215473506
  0
LINE
  5
2EB
100
AcDbEntity
  8
0
100
AcDbLine
 62
7
  6
CONTINUOUS
 10
77.2206514415
 20
119.88498839
 11
77.2206514415
 21
122.0032678703
  0
LINE
  5
2EC
100
AcDbEntity
  8
QUER2
100
AcDbLine
 62
7
  6
CONTINUOUS
 10
74.3101892063
 20
82.3313855261
 11
74.2218673755
 21
80.8495321306
  0
LINE
  5
2ED
100
AcDbEntity
  8
0
100
AcDbLine
 62
7
  6
CONTINUOUS
 10
55.2206514415
 20
102.1032678703
 11
54.7206514415
 21
101.6032678703
  0
LINE
  5
2EE
100
AcDbEntity
  8
0
100
AcDbLine
 62
7
  6
CONTINUOUS
 10
50.2206514415
 20
94.2032678703
 11
50.7206514415
 21
94.7032678703
  0
LINE
  5
2EF
100
AcDbEntity
  8
QUER2
100
AcDbLine
 62
7
  6
CONTINUOUS
 10
85.6139531564
 20
77.2966722818
 11
86.5528141919
 21
77.4622188135
  0
LINE
  5
2F0
100
AcDbEntity
  8
A_RUNDUNGEN
100
AcDbLine
 62
7
  6
CONTINUOUS
 10
95.246831048
 20
75.3740292378
 11
94.7683240259
 21
75.3698533702
  0
LINE
  5
2F1
100
AcDbEntity
  8
A_RUNDUNGEN
100
AcDbLine
 62
7
  6
CONTINUOUS
 10
78.9309955514
 20
75.2316430985
 11
64.2206514415
 21
75.1032678703
  0
LINE
  5
2F2
100
AcDbEntity
  8
0
100
AcDbLine
 62
7
  6
CONTINUOUS
 10
98.2206514415
 20
75.1032678703
 11
96.2206514415
 21
75.1032678703
  0
LINE
  5
2F3
100
AcDbEntity
  8
0
100
AcDbLine
 62
7
  6
CONTINUOUS
 10
67.2206514415
 20
76.0032678703
 11
78.3094097854
 21
76.0032678703
  0
LINE
  5
2F4
100
AcDbEntity
  8
0
100
AcDbLine
 62
7
  6
CONTINUOUS
 10
85.2264867773
 20
81.0032678703
 11
82.2206514415
 21
81.0032678703
  0
LINE
  5
2F5
100
AcDbEntity
  8
0
100
AcDbLine
 62
7
  6
CONTINUOUS
 10
101.7206514415
 20
67.6032678703
 11
101.2206514415
 21
68.1032678703
  0
LINE
  5
2F6
100
AcDbEntity
  8
DEFAULT_2
100
AcDbLine
 62
8
  6
HIDDEN
 10
68.4216514415
 20
110.1032678703
 11
69.719486371
 21
107.8553518325
  0
LINE
  5
2F7
100
AcDbEntity
  8
0
100
AcDbLine
 62
7
  6
CONTINUOUS
 10
81.2206514415
 20
63.6032678703
 11
81.2206514415
 21
63.1922804756
  0
LINE
  5
2F8
100
AcDbEntity
  8
0
100
AcDbLine
 62
7
  6
CONTINUOUS
 10
82.2206514415
 20
84.1032678703
 11
82.2206514415
 21
81.0032678703
  0
LINE
  5
2F9
100
AcDbEntity
  8
A_RUNDUNGEN
100
AcDbLine
 62
7
  6
CONTINUOUS
 10
82.2206514415
 20
84.1032678703
 11
82.2206514415
 21
86.9526387872
  0
LINE
  5
2FA
100
AcDbEntity
  8
A_RUNDUNGEN
100
AcDbLine
 62
7
  6
CONTINUOUS
 10
82.2206514415
 20
88.1032678703
 11
82.2206514415
 21
91.369168207
  0
LINE
  5
2FB
100
AcDbEntity
  8
0
100
AcDbLine
 62
7
  6
CONTINUOUS
 10
82.2206514415
 20
102.3172238695
 11
82.2206514415
 21
109.0032678703
  0
LINE
  5
2FC
100
AcDbEntity
  8
0
100
AcDbLine
 62
7
  6
CONTINUOUS
 10
82.2206514415
 20
109.0032678703
 11
83.1107884828
 21
119.1775793426
  0
LINE
  5
2FD
100
AcDbEntity
  8
0
100
AcDbLine
 62
7
  6
CONTINUOUS
 10
63.7206514415
 20
102.2032678703
 11
63.2206514415
 21
101.7032678703
  0
LINE
  5
2FE
100
AcDbEntity
  8
0
100
AcDbLine
 62
7
  6
CONTINUOUS
 10
75.2206514415
 20
82.0032678703
 11
19.2206514415
 21
82.0032678703
  0
LINE
  5
2FF
100
AcDbEntity
  8
0
100
AcDbLine
 62
7
  6
CONTINUOUS
 10
101.2206514415
 20
83.6032678703
 11
101.7206514415
 21
83.6032678703
  0
LINE
  5
300
100
AcDbEntity
  8
0
100
AcDbLine
 62
7
  6
CONTINUOUS
 10
101.2206514415
 20
84.6032678703
 11
101.7206514415
 21
84.6032678703
  0
LINE
  5
301
100
AcDbEntity
  8
0
100
AcDbLine
 62
7
  6
CONTINUOUS
 10
101.2206514415
 20
87.1002534633
 11
101.7206514415
 21
87.1002534633
  0
LINE
  5
302
100
AcDbEntity
  8
0
100
AcDbLine
 62
7
  6
CONTINUOUS
 10
101.2206514415
 20
88.2526742515
 11
101.7206514415
 21
88.2526742515
  0
LINE
  5
303
100
AcDbEntity
  8
0
100
AcDbLine
 62
7
  6
CONTINUOUS
 10
82.2206514415
 20
84.1032678703
 11
84.9397085803
 21
84.0320668533
  0
LINE
  5
304
100
AcDbEntity
  8
A_RUNDUNGEN
100
AcDbLine
 62
7
  6
CONTINUOUS
 10
82.2206514415
 20
84.1032678703
 11
84.9397085803
 21
84.0320668533
  0
LINE
  5
305
100
AcDbEntity
  8
0
100
AcDbLine
 62
7
  6
CONTINUOUS
 10
86.0234052794
 20
84.0036892565
 11
86.4288968839
 21
83.9930710852
  0
LINE
  5
306
100
AcDbEntity
  8
A_RUNDUNGEN
100
AcDbLine
 62
7
  6
CONTINUOUS
 10
86.0234052794
 20
84.0036892565
 11
86.4288968839
 21
83.9930710852
  0
LINE
  5
307
100
AcDbEntity
  8
QUER2
100
AcDbLine
 62
7
  6
CONTINUOUS
 10
82.736217152
 20
73.6389415683
 11
82.861664001
 21
74.4250224697
  0
LINE
  5
308
100
AcDbEntity
  8
QUER2
100
AcDbLine
 62
7
  6
CONTINUOUS
 10
82.6117004983
 20
73.5211051199
 11
82.77724703
 21
74.4599661554
  0
LINE
  5
309
100
AcDbEntity
  8
DEFAULT_2
100
AcDbLine
 62
8
  6
HIDDEN
 10
71.6488843071
 20
111.4522256472
 11
71.6100486891
 21
111.4334978539
  0
LINE
  5
30A
100
AcDbEntity
  8
DEFAULT_2
100
AcDbLine
 62
8
  6
HIDDEN
 10
69.4415168339
 20
111.4007253647
 11
69.5486427124
 21
111.4334978539
  0
LINE
  5
30B
100
AcDbEntity
  8
DEFAULT_2
100
AcDbLine
 62
8
  6
HIDDEN
 10
69.6122500195
 20
111.4522231877
 11
69.5486427124
 21
111.4334978539
  0
LINE
  5
30C
100
AcDbEntity
  8
0
100
AcDbLine
 62
7
  6
CONTINUOUS
 10
82.2206514415
 20
88.1032678703
 11
85.1553636251
 21
88.1801160134
  0
LINE
  5
30D
100
AcDbEntity
  8
A_RUNDUNGEN
100
AcDbLine
 62
7
  6
CONTINUOUS
 10
82.2206514415
 20
88.1032678703
 11
85.1553636251
 21
88.1801160134
  0
LINE
  5
30E
100
AcDbEntity
  8
0
100
AcDbLine
 62
7
  6
CONTINUOUS
 10
95.7705741936
 20
88.4580850847
 11
96.2206514415
 21
88.4698707723
  0
LINE
  5
30F
100
AcDbEntity
  8
A_RUNDUNGEN
100
AcDbLine
 62
7
  6
CONTINUOUS
 10
95.7705741936
 20
88.4580850847
 11
96.2206514415
 21
88.4698707723
  0
LINE
  5
310
100
AcDbEntity
  8
0
100
AcDbLine
 62
7
  6
CONTINUOUS
 10
101.2206514415
 20
89.0209362418
 11
101.7206514415
 21
89.0209362418
  0
LINE
  5
311
100
AcDbEntity
  8
0
100
AcDbLine
 62
7
  6
CONTINUOUS
 10
44.2206514415
 20
90.0032678703
 11
77.2206514415
 21
90.0032678703
  0
LINE
  5
312
100
AcDbEntity
  8
A_RUNDUNGEN
100
AcDbLine
 62
7
  6
CONTINUOUS
 10
77.2206514415
 20
90.1032678703
 11
75.7206514415
 21
90.1032678703
  0
LINE
  5
313
100
AcDbEntity
  8
0
100
AcDbLine
 62
7
  6
CONTINUOUS
 10
101.2206514415
 20
91.5179218348
 11
101.7206514415
 21
91.5179218348
  0
LINE
  5
314
100
AcDbEntity
  8
A_RUNDUNGEN
100
AcDbLine
 62
7
  6
CONTINUOUS
 10
54.5206514415
 20
91.7782678703
 11
62.7075616382
 21
91.7782678703
  0
LINE
  5
315
100
AcDbEntity
  8
0
100
AcDbLine
 62
7
  6
CONTINUOUS
 10
101.2206514415
 20
92.6032678703
 11
101.7206514415
 21
92.6032678703
  0
LINE
  5
316
100
AcDbEntity
  8
QUER2
100
AcDbLine
 62
7
  6
CONTINUOUS
 10
64.0206514415
 20
93.1032678703
 11
76.7206514415
 21
93.1032678703
  0
LINE
  5
317
100
AcDbEntity
  8
0
100
AcDbLine
 62
7
  6
CONTINUOUS
 10
98.7206514415
 20
94.1032678703
 11
96.2206514415
 21
94.1032678703
  0
LINE
  5
318
100
AcDbEntity
  8
0
100
AcDbLine
 62
7
  6
CONTINUOUS
 10
98.7206514415
 20
94.6032678703
 11
98.2206514415
 21
94.6032678703
  0
LINE
  5
319
100
AcDbEntity
  8
0
100
AcDbLine
 62
7
  6
CONTINUOUS
 10
98.7206514415
 20
94.6883742506
 11
98.2206514415
 21
94.6883742506
  0
LINE
  5
31A
100
AcDbEntity
  8
0
100
AcDbLine
 62
7
  6
CONTINUOUS
 10
53.0206514415
 20
94.7032678703
 11
50.7206514415
 21
94.7032678703
  0
LINE
  5
31B
100
AcDbEntity
  8
0
100
AcDbLine
 62
7
  6
CONTINUOUS
 10
61.2206514415
 20
94.7032678703
 11
63.2206514415
 21
94.7032678703
  0
LINE
  5
31C
100
AcDbEntity
  8
0
100
AcDbLine
 62
7
  6
CONTINUOUS
 10
98.7206514415
 20
94.8585870186
 11
98.2206514415
 21
94.8585870186
  0
LINE
  5
31D
100
AcDbEntity
  8
0
100
AcDbLine
 62
7
  6
CONTINUOUS
 10
98.7206514415
 20
95.1990125397
 11
98.2206514415
 21
95.1990125397
  0
LINE
  5
31E
100
AcDbEntity
  8
A_RUNDUNGEN
100
AcDbLine
 62
7
  6
CONTINUOUS
 10
75.5206514415
 20
90.0532678703
 11
50.2206514415
 21
90.1857395711
  0
LINE
  5
31F
100
AcDbEntity
  8
0
100
AcDbLine
 62
7
  6
CONTINUOUS
 10
46.2101795138
 20
90.2067385449
 11
50.2206514415
 21
90.1857395711
  0
LINE
  5
320
100
AcDbEntity
  8
0
100
AcDbLine
 62
7
  6
CONTINUOUS
 10
75.7206514415
 20
91.5032678703
 11
54.5075616382
 21
91.6883917004
  0
LINE
  5
321
100
AcDbEntity
  8
0
100
AcDbLine
 62
7
  6
CONTINUOUS
 10
72.7206514415
 20
91.7032678703
 11
68.6392540218
 21
91.738885686
  0
LINE
  5
322
100
AcDbEntity
  8
A_RUNDUNGEN
100
AcDbLine
 62
7
  6
CONTINUOUS
 10
68.6392540218
 20
91.738885686
 11
63.7206514415
 21
91.7818096804
  0
LINE
  5
323
100
AcDbEntity
  8
0
100
AcDbLine
 62
7
  6
CONTINUOUS
 10
57.7075616382
 20
91.8342851201
 11
63.7206514415
 21
91.7818096804
  0
LINE
  5
324
100
AcDbEntity
  8
0
100
AcDbLine
 62
7
  6
CONTINUOUS
 10
51.6944728318
 20
90.5226463779
 11
75.7206514415
 21
90.1032678703
  0
LINE
  5
325
100
AcDbEntity
  8
0
100
AcDbLine
 62
7
  6
CONTINUOUS
 10
61.2206514415
 20
95.1658245527
 11
56.2206514415
 21
95.6032678703
  0
LINE
  5
326
100
AcDbEntity
  8
DEFAULT_2
100
AcDbLine
 62
8
  6
HIDDEN
 10
71.6100486891
 20
108.7730378867
 11
71.6489092503
 21
108.7543100406
  0
LINE
  5
327
100
AcDbEntity
  8
0
100
AcDbLine
 62
7
  6
CONTINUOUS
 10
95.2206514415
 20
145.5914308703
 11
95.2206514415
 21
129.0032678703
  0
LINE
  5
328
100
AcDbEntity
  8
0
100
AcDbLine
 62
7
  6
CONTINUOUS
 10
96.2206514415
 20
75.1032678703
 11
96.2206514415
 21
94.1032678703
  0
LINE
  5
329
100
AcDbEntity
  8
0
100
AcDbLine
 62
7
  6
CONTINUOUS
 10
98.2206514415
 20
70.1032678703
 11
98.2206514415
 21
99.7230578188
  0
LINE
  5
32A
100
AcDbEntity
  8
0
100
AcDbLine
 62
7
  6
CONTINUOUS
 10
98.7206514415
 20
94.1032678703
 11
98.7206514415
 21
99.6032678703
  0
LINE
  5
32B
100
AcDbEntity
  8
0
100
AcDbLine
 62
7
  6
CONTINUOUS
 10
100.3663595801
 20
121.8296196564
 11
102.0757775085
 21
131.5242122504
  0
LINE
  5
32C
100
AcDbEntity
  8
QUER2
100
AcDbLine
 62
7
  6
CONTINUOUS
 10
86.3013738056
 20
81.1600519821
 11
85.993407367
 21
79.856889859
  0
LINE
  5
32D
100
AcDbEntity
  8
0
100
AcDbLine
 62
7
  6
CONTINUOUS
 10
56.2206514415
 20
93.7032678703
 11
61.2206514415
 21
94.1407111879
  0
LINE
  5
32E
100
AcDbEntity
  8
0
100
AcDbLine
 62
7
  6
CONTINUOUS
 10
98.7206514415
 20
95.5394380907
 11
98.2206514415
 21
95.5394380907
  0
LINE
  5
32F
100
AcDbEntity
  8
0
100
AcDbLine
 62
7
  6
CONTINUOUS
 10
98.7206514415
 20
95.9649699548
 11
98.2206514415
 21
95.9649699548
  0
LINE
  5
330
100
AcDbEntity
  8
0
100
AcDbLine
 62
7
  6
CONTINUOUS
 10
56.2206514415
 20
97.1032678703
 11
55.2206514415
 21
97.1032678703
  0
LINE
  5
331
100
AcDbEntity
  8
0
100
AcDbLine
 62
7
  6
CONTINUOUS
 10
98.7206514415
 20
97.2415656665
 11
98.2206514415
 21
97.2415656665
  0
LINE
  5
332
100
AcDbEntity
  8
0
100
AcDbLine
 62
2
  6
CONTINUOUS
 10
54.7206514415
 20
97.6032678703
 11
56.2206514415
 21
97.6032678703
  0
LINE
  5
333
100
AcDbEntity
  8
0
100
AcDbLine
 62
7
  6
CONTINUOUS
 10
98.7206514415
 20
97.6670977691
 11
98.2206514415
 21
97.6670977691
  0
LINE
  5
334
100
AcDbEntity
  8
0
100
AcDbLine
 62
7
  6
CONTINUOUS
 10
98.7206514415
 20
98.0075232604
 11
98.2206514415
 21
98.0075232604
  0
LINE
  5
335
100
AcDbEntity
  8
0
100
AcDbLine
 62
7
  6
CONTINUOUS
 10
98.7206514415
 20
98.3479487518
 11
98.2206514415
 21
98.3479487518
  0
LINE
  5
336
100
AcDbEntity
  8
0
100
AcDbLine
 62
7
  6
CONTINUOUS
 10
98.7206514415
 20
98.5181614974
 11
98.2206514415
 21
98.5181614974
  0
LINE
  5
337
100
AcDbEntity
  8
0
100
AcDbLine
 62
7
  6
CONTINUOUS
 10
98.7206514415
 20
98.6032678703
 11
98.2206514415
 21
98.6032678703
  0
LINE
  5
338
100
AcDbEntity
  8
0
100
AcDbLine
 62
7
  6
CONTINUOUS
 10
98.7206514415
 20
99.6032678703
 11
98.2206514415
 21
99.6032678703
  0
LINE
  5
339
100
AcDbEntity
  8
0
100
AcDbLine
 62
7
  6
CONTINUOUS
 10
171.7206514415
 20
101.0032678703
 11
174.2206514415
 21
101.0032678703
  0
LINE
  5
33A
100
AcDbEntity
  8
0
100
AcDbLine
 62
2
  6
CONTINUOUS
 10
54.7206514415
 20
101.6032678703
 11
56.2206514415
 21
101.6032678703
  0
LINE
  5
33B
100
AcDbEntity
  8
0
100
AcDbLine
 62
7
  6
CONTINUOUS
 10
53.0206514415
 20
101.7032678703
 11
50.7206514415
 21
101.7032678703
  0
LINE
  5
33C
100
AcDbEntity
  8
0
100
AcDbLine
 62
7
  6
CONTINUOUS
 10
61.2206514415
 20
101.7032678703
 11
63.2206514415
 21
101.7032678703
  0
LINE
  5
33D
100
AcDbEntity
  8
0
100
AcDbLine
 62
7
  6
CONTINUOUS
 10
96.7599168639
 20
101.2225438063
 11
87.8951770544
 21
101.4546751876
  0
LINE
  5
33E
100
AcDbEntity
  8
A_RUNDUNGEN
100
AcDbLine
 62
7
  6
CONTINUOUS
 10
87.6690415885
 20
101.4605967532
 11
84.3081634646
 21
101.5486044442
  0
LINE
  5
33F
100
AcDbEntity
  8
0
100
AcDbLine
 62
7
  6
CONTINUOUS
 10
56.2206514415
 20
101.5032678703
 11
61.2206514415
 21
101.0658245527
  0
LINE
  5
340
100
AcDbEntity
  8
0
100
AcDbLine
 62
7
  6
CONTINUOUS
 10
61.2206514415
 20
105.6658245527
 11
56.2206514415
 21
106.1032678703
  0
LINE
  5
341
100
AcDbEntity
  8
0
100
AcDbLine
 62
7
  6
CONTINUOUS
 10
82.2206514415
 20
102.9032678703
 11
87.6697201509
 21
101.4865100058
  0
LINE
  5
342
100
AcDbEntity
  8
DEFAULT_2
100
AcDbLine
 62
8
  6
HIDDEN
 10
69.6122500195
 20
108.7543125529
 11
69.5486427124
 21
108.7730378867
  0
LINE
  5
343
100
AcDbEntity
  8
DEFAULT_2
100
AcDbLine
 62
8
  6
HIDDEN
 10
69.5486427124
 20
108.7730378867
 11
69.4412850211
 21
108.8058095121
  0
LINE
  5
344
100
AcDbEntity
  8
0
100
AcDbLine
 62
7
  6
CONTINUOUS
 10
101.2206514415
 20
75.1032678703
 11
101.2206514415
 21
68.1032678703
  0
LINE
  5
345
100
AcDbEntity
  8
0
100
AcDbLine
 62
7
  6
CONTINUOUS
 10
101.2206514415
 20
83.6032678703
 11
101.2206514415
 21
84.6032678703
  0
LINE
  5
346
100
AcDbEntity
  8
0
100
AcDbLine
 62
7
  6
CONTINUOUS
 10
101.2206514415
 20
87.1002534633
 11
101.2206514415
 21
89.0209362418
  0
LINE
  5
347
100
AcDbEntity
  8
0
100
AcDbLine
 62
7
  6
CONTINUOUS
 10
101.2206514415
 20
91.5179218348
 11
101.2206514415
 21
92.6032678703
  0
LINE
  5
348
100
AcDbEntity
  8
0
100
AcDbLine
 62
7
  6
CONTINUOUS
 10
101.7206514415
 20
63.0032678703
 11
101.7206514415
 21
103.7032678703
  0
LINE
  5
349
100
AcDbEntity
  8
0
100
AcDbLine
 62
7
  6
CONTINUOUS
 10
18.7075615257
 20
103.8289748623
 11
26.9232694194
 21
103.9006728701
  0
LINE
  5
34A
100
AcDbEntity
  8
0
100
AcDbLine
 62
7
  6
CONTINUOUS
 10
56.2206514415
 20
102.1032678703
 11
55.2206514415
 21
102.1032678703
  0
LINE
  5
34B
100
AcDbEntity
  8
0
100
AcDbLine
 62
7
  6
CONTINUOUS
 10
50.2206514415
 20
102.7532678703
 11
49.2206514415
 21
102.7532678703
  0
LINE
  5
34C
100
AcDbEntity
  8
QUER2
100
AcDbLine
 62
7
  6
CONTINUOUS
 10
76.7206514415
 20
103.1032678703
 11
74.2206514415
 21
103.1032678703
  0
LINE
  5
34D
100
AcDbEntity
  8
0
100
AcDbLine
 62
7
  6
CONTINUOUS
 10
101.7206514415
 20
103.7032678703
 11
82.2206514415
 21
103.7032678703
  0
LINE
  5
34E
100
AcDbEntity
  8
QUER2
100
AcDbLine
 62
7
  6
CONTINUOUS
 10
66.7206514415
 20
104.3032678703
 11
72.7509575958
 21
104.3032678703
  0
LINE
  5
34F
100
AcDbEntity
  8
0
100
AcDbLine
 62
7
  6
CONTINUOUS
 10
46.9706514415
 20
105.0032678703
 11
44.2206514415
 21
105.0032678703
  0
LINE
  5
350
100
AcDbEntity
  8
0
100
AcDbLine
 62
7
  6
CONTINUOUS
 10
71.4206514415
 20
105.8532678703
 11
67.0206514415
 21
105.8532678703
  0
LINE
  5
351
100
AcDbEntity
  8
QUER2
100
AcDbLine
 62
7
  6
CONTINUOUS
 10
63.7206514415
 20
106.0032678703
 11
66.7206514415
 21
106.0032678703
  0
LINE
  5
352
100
AcDbEntity
  8
0
100
AcDbLine
 62
7
  6
CONTINUOUS
 10
50.2206514415
 20
107.1032678703
 11
53.0206514415
 21
107.1032678703
  0
LINE
  5
353
100
AcDbEntity
  8
0
100
AcDbLine
 62
7
  6
CONTINUOUS
 10
66.4206514415
 20
107.6032678703
 11
55.2206514415
 21
107.6032678703
  0
LINE
  5
354
100
AcDbEntity
  8
A_FLAECHEN
100
AcDbLine
 62
8
  6
HIDDEN
 10
69.7194862142
 20
107.8553521042
 11
71.7206514415
 21
107.8553521042
  0
LINE
  5
355
100
AcDbEntity
  8
A_ACHSEN
100
AcDbLine
 62
7
  6
CENTER
 10
43.2206514415
 20
108.0032678703
 11
53.2206514415
 21
108.0032678703
  0
LINE
  5
356
100
AcDbEntity
  8
0
100
AcDbLine
 62
2
  6
CONTINUOUS
 10
54.7206514415
 20
108.1032678703
 11
66.7206514415
 21
108.1032678703
  0
LINE
  5
357
100
AcDbEntity
  8
A_FLAECHEN
100
AcDbLine
 62
8
  6
HIDDEN
 10
69.6055691936
 20
108.7543099872
 11
71.6470082689
 21
108.7543099872
  0
LINE
  5
358
100
AcDbEntity
  8
A_FLAECHEN
100
AcDbLine
 62
8
  6
HIDDEN
 10
69.450506858
 20
108.8058117107
 11
71.5511413048
 21
108.8058117107
  0
LINE
  5
359
100
AcDbEntity
  8
0
100
AcDbLine
 62
7
  6
CONTINUOUS
 10
99.7311233691
 20
103.4173337749
 11
82.2206514415
 21
103.5090192294
  0
LINE
  5
35A
100
AcDbEntity
  8
0
100
AcDbLine
 62
7
  6
CONTINUOUS
 10
174.2206514415
 20
109.0032678703
 11
171.7206514415
 21
109.0032678703
  0
LINE
  5
35B
100
AcDbEntity
  8
A_ACHSEN
100
AcDbLine
 62
7
  6
CENTER
 10
51.7206514415
 20
110.1032678703
 11
74.7206514415
 21
110.1032678703
  0
LINE
  5
35C
100
AcDbEntity
  8
0
100
AcDbLine
 62
7
  6
CONTINUOUS
 10
46.9706514415
 20
111.0032678703
 11
44.2206514415
 21
111.0032678703
  0
LINE
  5
35D
100
AcDbEntity
  8
A_FLAECHEN
100
AcDbLine
 62
8
  6
HIDDEN
 10
69.450506858
 20
111.4007240299
 11
71.5511357423
 21
111.4007240299
  0
LINE
  5
35E
100
AcDbEntity
  8
A_FLAECHEN
100
AcDbLine
 62
8
  6
HIDDEN
 10
69.6055688125
 20
111.4522257533
 11
71.6469834354
 21
111.4522257533
  0
LINE
  5
35F
100
AcDbEntity
  8
0
100
AcDbLine
 62
7
  6
CONTINUOUS
 10
44.7206514415
 20
111.5032678703
 11
44.2206514415
 21
111.5032678703
  0
LINE
  5
360
100
AcDbEntity
  8
0
100
AcDbLine
 62
2
  6
CONTINUOUS
 10
54.7206514415
 20
112.1032678703
 11
66.7206514415
 21
112.1032678703
  0
LINE
  5
361
100
AcDbEntity
  8
A_FLAECHEN
100
AcDbLine
 62
8
  6
HIDDEN
 10
69.7194862142
 20
112.3511836364
 11
71.7206514415
 21
112.3511836364
  0
LINE
  5
362
100
AcDbEntity
  8
0
100
AcDbLine
 62
7
  6
CONTINUOUS
 10
44.7206514415
 20
112.5599678703
 11
44.2206514415
 21
112.5599678703
  0
LINE
  5
363
100
AcDbEntity
  8
0
100
AcDbLine
 62
7
  6
CONTINUOUS
 10
66.4206514415
 20
112.6032678703
 11
55.2206514415
 21
112.6032678703
  0
LINE
  5
364
100
AcDbEntity
  8
0
100
AcDbLine
 62
7
  6
CONTINUOUS
 10
44.7206514415
 20
112.6332295637
 11
44.2206514415
 21
112.6332295637
  0
LINE
  5
365
100
AcDbEntity
  8
0
100
AcDbLine
 62
7
  6
CONTINUOUS
 10
44.7206514415
 20
112.7797529505
 11
44.2206514415
 21
112.7797529505
  0
LINE
  5
366
100
AcDbEntity
  8
0
100
AcDbLine
 62
7
  6
CONTINUOUS
 10
44.7206514415
 20
113.072799724
 11
44.2206514415
 21
113.072799724
  0
LINE
  5
367
100
AcDbEntity
  8
0
100
AcDbLine
 62
7
  6
CONTINUOUS
 10
50.2206514415
 20
113.1032678703
 11
53.0206514415
 21
113.1032678703
  0
LINE
  5
368
100
AcDbEntity
  8
0
100
AcDbLine
 62
7
  6
CONTINUOUS
 10
50.2206514415
 20
113.2532678703
 11
49.2206514415
 21
113.2532678703
  0
LINE
  5
369
100
AcDbEntity
  8
0
100
AcDbLine
 62
7
  6
CONTINUOUS
 10
44.7206514415
 20
113.3658464976
 11
44.2206514415
 21
113.3658464976
  0
LINE
  5
36A
100
AcDbEntity
  8
0
100
AcDbLine
 62
7
  6
CONTINUOUS
 10
44.7206514415
 20
113.7321551698
 11
44.2206514415
 21
113.7321551698
  0
LINE
  5
36B
100
AcDbEntity
  8
0
100
AcDbLine
 62
7
  6
CONTINUOUS
 10
189.2206514415
 20
114.0032678703
 11
174.2206514415
 21
114.0032678703
  0
LINE
  5
36C
100
AcDbEntity
  8
QUER2
100
AcDbLine
 62
7
  6
CONTINUOUS
 10
63.7206514415
 20
114.2032678703
 11
66.7206514415
 21
114.2032678703
  0
LINE
  5
36D
100
AcDbEntity
  8
0
100
AcDbLine
 62
7
  6
CONTINUOUS
 10
71.4206514415
 20
114.3532678703
 11
67.0206514415
 21
114.3532678703
  0
LINE
  5
36E
100
AcDbEntity
  8
0
100
AcDbLine
 62
7
  6
CONTINUOUS
 10
44.7206514415
 20
114.8310806734
 11
44.2206514415
 21
114.8310806734
  0
LINE
  5
36F
100
AcDbEntity
  8
0
100
AcDbLine
 62
7
  6
CONTINUOUS
 10
44.7206514415
 20
115.1973891403
 11
44.2206514415
 21
115.1973891403
  0
LINE
  5
370
100
AcDbEntity
  8
0
100
AcDbLine
 62
7
  6
CONTINUOUS
 10
44.7206514415
 20
115.4904359652
 11
44.2206514415
 21
115.4904359652
  0
LINE
  5
371
100
AcDbEntity
  8
0
100
AcDbLine
 62
7
  6
CONTINUOUS
 10
90.9972902021
 20
157.371348528
 11
95.1603443524
 21
145.933451115
  0
LINE
  5
372
100
AcDbEntity
  8
QUER2
100
AcDbLine
 62
7
  6
CONTINUOUS
 10
86.9931916713
 20
76.6162615464
 11
83.4576577654
 21
73.0807276404
  0
LINE
  5
373
100
AcDbEntity
  8
0
100
AcDbLine
 62
7
  6
CONTINUOUS
 10
51.6944728318
 20
119.4838893627
 11
75.7206514415
 21
119.9032678703
  0
LINE
  5
374
100
AcDbEntity
  8
0
100
AcDbLine
 62
7
  6
CONTINUOUS
 10
57.7075616382
 20
118.1722506204
 11
63.7206514415
 21
118.2247260602
  0
LINE
  5
375
100
AcDbEntity
  8
A_RUNDUNGEN
100
AcDbLine
 62
7
  6
CONTINUOUS
 10
63.7206514415
 20
118.2247260602
 11
68.6392540218
 21
118.2676500546
  0
LINE
  5
376
100
AcDbEntity
  8
0
100
AcDbLine
 62
7
  6
CONTINUOUS
 10
68.6392540218
 20
118.2676500546
 11
72.7206514415
 21
118.3032678703
  0
LINE
  5
377
100
AcDbEntity
  8
0
100
AcDbLine
 62
7
  6
CONTINUOUS
 10
75.7206514415
 20
118.5032678703
 11
54.5075616382
 21
118.3181440401
  0
LINE
  5
378
100
AcDbEntity
  8
0
100
AcDbLine
 62
7
  6
CONTINUOUS
 10
46.2101795138
 20
119.7997971956
 11
50.2206514415
 21
119.8207961695
  0
LINE
  5
379
100
AcDbEntity
  8
A_RUNDUNGEN
100
AcDbLine
 62
7
  6
CONTINUOUS
 10
50.2206514415
 20
119.8207961695
 11
75.5206514415
 21
119.9532678703
  0
LINE
  5
37A
100
AcDbEntity
  8
0
100
AcDbLine
 62
7
  6
CONTINUOUS
 10
44.7206514415
 20
115.7834827644
 11
44.2206514415
 21
115.7834827644
  0
LINE
  5
37B
100
AcDbEntity
  8
QUER2
100
AcDbLine
 62
7
  6
CONTINUOUS
 10
66.7206514415
 20
115.9032678703
 11
72.7206514415
 21
115.9032678703
  0
LINE
  5
37C
100
AcDbEntity
  8
0
100
AcDbLine
 62
7
  6
CONTINUOUS
 10
44.7206514415
 20
115.9300061705
 11
44.2206514415
 21
115.9300061705
  0
LINE
  5
37D
100
AcDbEntity
  8
0
100
AcDbLine
 62
7
  6
CONTINUOUS
 10
44.7206514415
 20
116.0032678703
 11
44.2206514415
 21
116.0032678703
  0
LINE
  5
37E
100
AcDbEntity
  8
QUER2
100
AcDbLine
 62
7
  6
CONTINUOUS
 10
72.4206514415
 20
116.7032678703
 11
64.0206514415
 21
116.7032678703
  0
LINE
  5
37F
100
AcDbEntity
  8
0
100
AcDbLine
 62
7
  6
CONTINUOUS
 10
44.7206514415
 20
117.1754550672
 11
44.2206514415
 21
117.1754550672
  0
LINE
  5
380
100
AcDbEntity
  8
0
100
AcDbLine
 62
7
  6
CONTINUOUS
 10
44.7206514415
 20
117.5032678703
 11
44.2206514415
 21
117.5032678703
  0
LINE
  5
381
100
AcDbEntity
  8
A_RUNDUNGEN
100
AcDbLine
 62
7
  6
CONTINUOUS
 10
54.5206514415
 20
118.2282678703
 11
62.7075616382
 21
118.2282678703
  0
LINE
  5
382
100
AcDbEntity
  8
A_RUNDUNGEN
100
AcDbLine
 62
7
  6
CONTINUOUS
 10
77.2206514415
 20
119.9032678703
 11
75.7206514415
 21
119.9032678703
  0
LINE
  5
383
100
AcDbEntity
  8
0
100
AcDbLine
 62
7
  6
CONTINUOUS
 10
44.2206514415
 20
120.0032678703
 11
77.2206514415
 21
120.0032678703
  0
LINE
  5
384
100
AcDbEntity
  8
0
100
AcDbLine
 62
7
  6
CONTINUOUS
 10
85.1031774415
 20
121.0032678703
 11
99.3815514415
 21
121.0032678703
  0
LINE
  5
385
100
AcDbEntity
  8
0
100
AcDbLine
 62
7
  6
CONTINUOUS
 10
68.7206514415
 20
122.0032678703
 11
77.2206514415
 21
122.0032678703
  0
LINE
  5
386
100
AcDbEntity
  8
0
100
AcDbLine
 62
7
  6
CONTINUOUS
 10
26.9232694076
 20
117.1058628706
 11
19.2075616285
 21
117.1731968774
  0
LINE
  5
387
100
AcDbEntity
  8
0
100
AcDbLine
 62
7
  6
CONTINUOUS
 10
101.7206514415
 20
75.6032678703
 11
101.2206514415
 21
75.1032678703
  0
LINE
  5
388
100
AcDbEntity
  8
QUER2
100
AcDbLine
 62
7
  6
CONTINUOUS
 10
85.8545563246
 20
77.0882409777
 11
86.3024641428
 21
77.2971038234
  0
LINE
  5
389
100
AcDbEntity
  8
QUER2
100
AcDbLine
 62
7
  6
CONTINUOUS
 10
80.4784890057
 20
76.2412351326
 11
82.0866701153
 21
76.9631296335
  0
LINE
  5
38A
100
AcDbEntity
  8
0
100
AcDbLine
 62
7
  6
CONTINUOUS
 10
193.5626712994
 20
118.6517378186
 11
191.6945920722
 21
117.9718134638
  0
LINE
  5
38B
100
AcDbEntity
  8
0
100
AcDbLine
 62
7
  6
CONTINUOUS
 10
77.3546264415
 20
127.0032678703
 11
68.7206514415
 21
127.0032678703
  0
LINE
  5
38C
100
AcDbEntity
  8
0
100
AcDbLine
 62
7
  6
CONTINUOUS
 10
93.7206514415
 20
127.5032678703
 11
78.2206514415
 21
127.5032678703
  0
LINE
  5
38D
100
AcDbEntity
  8
0
100
AcDbLine
 62
7
  6
CONTINUOUS
 10
19.2075616285
 20
134.8333388632
 11
26.9232693989
 21
134.9006728699
  0
LINE
  5
38E
100
AcDbEntity
  8
0
100
AcDbLine
 62
7
  6
CONTINUOUS
 10
105.0302004415
 20
134.0032678703
 11
186.2385194415
 21
134.0032678703
  0
LINE
  5
38F
100
AcDbEntity
  8
0
100
AcDbLine
 62
7
  6
CONTINUOUS
 10
20.3942997705
 20
154.4436679886
 11
18.0470033136
 21
154.8575598928
  0
LINE
  5
390
100
AcDbEntity
  8
0
100
AcDbLine
 62
7
  6
CONTINUOUS
 10
26.9232694269
 20
148.1058628704
 11
21.7162881383
 21
148.1513038729
  0
LINE
  5
391
100
AcDbEntity
  8
0
100
AcDbLine
 62
7
  6
CONTINUOUS
 10
189.7206514415
 20
114.5032678703
 11
189.2206514415
 21
114.0032678703
  0
LINE
  5
392
100
AcDbEntity
  8
0
100
AcDbLine
 62
7
  6
CONTINUOUS
 10
19.2206514415
 20
160.0032678703
 11
87.2385194415
 21
160.0032678703
  0
LINE
  5
393
100
AcDbEntity
  8
0
100
AcDbLine
 62
7
  6
CONTINUOUS
 10
171.7206514415
 20
109.0032678703
 11
171.7206514415
 21
101.0032678703
  0
LINE
  5
394
100
AcDbEntity
  8
0
100
AcDbLine
 62
7
  6
CONTINUOUS
 10
174.2206514415
 20
114.0032678703
 11
174.2206514415
 21
109.0032678703
  0
LINE
  5
395
100
AcDbEntity
  8
0
100
AcDbLine
 62
7
  6
CONTINUOUS
 10
174.2206514415
 20
101.0032678703
 11
174.2206514415
 21
63.0032678703
  0
LINE
  5
396
100
AcDbEntity
  8
0
100
AcDbLine
 62
7
  6
CONTINUOUS
 10
189.7206514415
 20
115.1527348703
 11
189.7206514415
 21
114.5032678703
  0
LINE
  5
397
100
AcDbEntity
  8
0
100
AcDbLine
 62
7
  6
CONTINUOUS
 10
189.9972893191
 20
131.3713482066
 11
194.1603434694
 21
119.9334507937
  0
ARC
  5
398
100
AcDbEntity
  8
0
100
AcDbCircle
 62
7
  6
CONTINUOUS
 10
19.2206514415
 20
84.0032678703
 40
2.0
100
AcDbArc
 50
180.0
 51
270.0
  0
ARC
  5
399
100
AcDbEntity
  8
0
100
AcDbCircle
 62
7
  6
CONTINUOUS
 10
46.2206514415
 20
92.2067111294
 40
2.0
100
AcDbArc
 50
180.0
 51
269.7
  0
ARC
  5
39A
100
AcDbEntity
  8
0
100
AcDbCircle
 62
7
  6
CONTINUOUS
 10
57.7206514415
 20
93.3342280047
 40
1.5
100
AcDbArc
 50
180.0
 51
269.5
  0
ARC
  5
39B
100
AcDbEntity
  8
0
100
AcDbCircle
 62
7
  6
CONTINUOUS
 10
51.7206514415
 20
92.0224179206
 40
1.5
100
AcDbArc
 50
180.0
 51
269.0
  0
ARC
  5
39C
100
AcDbEntity
  8
0
100
AcDbCircle
 62
7
  6
CONTINUOUS
 10
54.5206514415
 20
93.188334585
 40
1.5
100
AcDbArc
 50
180.0
 51
269.5
  0
ARC
  5
39D
100
AcDbEntity
  8
A_RUNDUNGEN
100
AcDbCircle
 62
7
  6
CONTINUOUS
 10
54.5206514415
 20
93.2782678703
 40
1.5
100
AcDbArc
 50
183.4310820436
 51
270.0
  0
ARC
  5
39E
100
AcDbEntity
  8
0
100
AcDbCircle
 62
7
  6
CONTINUOUS
 10
18.7206514415
 20
102.3290318703
 40
1.5
100
AcDbArc
 50
90.5000042622
 51
180.0
  0
ARC
  5
39F
100
AcDbEntity
  8
A_RUNDUNGEN
100
AcDbCircle
 62
7
  6
CONTINUOUS
 10
59.1206514415
 20
92.648171954
 40
1.0
100
AcDbArc
 50
235.7510301834
 51
239.6666666658
  0
ARC
  5
3A0
100
AcDbEntity
  8
0
100
AcDbCircle
 62
7
  6
CONTINUOUS
 10
26.9206514415
 20
104.2006608703
 40
0.3
100
AcDbArc
 50
270.5000042622
 51
360.0
  0
ARC
  5
3A1
100
AcDbEntity
  8
QUER2
100
AcDbCircle
 62
7
  6
CONTINUOUS
 10
69.807350182
 20
68.3259954761
 40
13.3928774596
100
AcDbArc
 50
62.727386009
 51
67.20682206
  0
ARC
  5
3A2
100
AcDbEntity
  8
QUER2
100
AcDbCircle
 62
7
  6
CONTINUOUS
 10
69.807350182
 20
68.3259954761
 40
13.3928774596
100
AcDbArc
 50
55.2845037669
 51
59.2844205334
  0
ARC
  5
3A3
100
AcDbEntity
  8
QUER2
100
AcDbCircle
 62
7
  6
CONTINUOUS
 10
69.807350182
 20
68.3259954761
 40
13.3928774596
100
AcDbArc
 50
47.7810361635
 51
51.8421451123
  0
ARC
  5
3A4
100
AcDbEntity
  8
QUER2
100
AcDbCircle
 62
7
  6
CONTINUOUS
 10
69.807350182
 20
68.3259954761
 40
13.3928774596
100
AcDbArc
 50
39.9704349704
 51
44.3393766357
  0
ARC
  5
3A5
100
AcDbEntity
  8
QUER2
100
AcDbCircle
 62
7
  6
CONTINUOUS
 10
69.807350182
 20
68.3259954761
 40
13.3928774596
100
AcDbArc
 50
77.598515657
 51
97.5210600325
  0
ARC
  5
3A6
100
AcDbEntity
  8
QUER2
100
AcDbCircle
 62
7
  6
CONTINUOUS
 10
69.807350182
 20
68.3259954761
 40
11.478516903
100
AcDbArc
 50
30.8333048429
 51
97.8460018237
  0
ARC
  5
3A7
100
AcDbEntity
  8
0
100
AcDbCircle
 62
7
  6
CONTINUOUS
 10
69.7206514415
 20
68.6032678703
 40
5.5
100
AcDbArc
 50
65.390016476
 51
294.609983524
  0
ARC
  5
3A8
100
AcDbEntity
  8
QUER2
100
AcDbCircle
 62
7
  6
CONTINUOUS
 10
69.7206514415
 20
68.6032678703
 40
5.0
100
AcDbArc
 50
90.0
 51
270.0
  0
ARC
  5
3A9
100
AcDbEntity
  8
0
100
AcDbCircle
 62
7
  6
CONTINUOUS
 10
67.2206514415
 20
73.0032678703
 40
3.0
100
AcDbArc
 50
90.0
 51
135.1506922719
  0
ARC
  5
3AA
100
AcDbEntity
  8
0
100
AcDbCircle
 62
7
  6
CONTINUOUS
 10
67.2206514415
 20
63.0032678703
 40
3.0
100
AcDbArc
 50
180.0
 51
270.0
  0
CIRCLE
  5
3AB
100
AcDbEntity
  8
QUER2
100
AcDbCircle
 62
7
  6
CONTINUOUS
 10
69.7206514415
 20
68.6032678703
 40
2.5
  0
CIRCLE
  5
3AC
100
AcDbEntity
  8
A_ACHSEN
100
AcDbCircle
 62
7
  6
CONTINUOUS
 10
69.7206514415
 20
68.6032678703
 40
2.45
  0
CIRCLE
  5
3AD
100
AcDbEntity
  8
A_ACHSEN
100
AcDbCircle
 62
7
  6
CONTINUOUS
 10
69.7206514415
 20
68.6032678703
 40
1.6215728753
  0
ARC
  5
3AE
100
AcDbEntity
  8
QUER2
100
AcDbCircle
 62
7
  6
CONTINUOUS
 10
83.1041043748
 20
73.434281031
 40
0.5
100
AcDbArc
 50
170.0
 51
315.0
  0
ARC
  5
3AF
100
AcDbEntity
  8
0
100
AcDbCircle
 62
7
  6
CONTINUOUS
 10
75.2206514415
 20
84.0032678703
 40
2.0
100
AcDbArc
 50
270.0
 51
360.0
  0
ARC
  5
3B0
100
AcDbEntity
  8
QUER2
100
AcDbCircle
 62
7
  6
CONTINUOUS
 10
72.7914790739
 20
81.8969156656
 40
0.5022619795
100
AcDbArc
 50
257.598515657
 51
0.8619182248
  0
ARC
  5
3B1
100
AcDbEntity
  8
QUER2
100
AcDbCircle
 62
7
  6
CONTINUOUS
 10
74.6235176771
 20
80.8255928596
 40
0.4023630867
100
AcDbArc
 50
176.5890765054
 51
337.7153682265
  0
ARC
  5
3B2
100
AcDbEntity
  8
QUER2
100
AcDbCircle
 62
7
  6
CONTINUOUS
 10
68.1989203548
 20
79.9981156454
 40
0.3039037208
100
AcDbArc
 50
184.5937440552
 51
277.8460018237
  0
ARC
  5
3B3
100
AcDbEntity
  8
QUER2
100
AcDbCircle
 62
7
  6
CONTINUOUS
 10
68.0941264812
 20
81.3023623824
 40
0.3039037208
100
AcDbArc
 50
97.5210600325
 51
184.5937440552
  0
ARC
  5
3B4
100
AcDbEntity
  8
QUER2
100
AcDbCircle
 62
7
  6
CONTINUOUS
 10
82.1863623782
 20
74.564155062
 40
0.6
100
AcDbArc
 50
350.0
 51
121.8763603803
  0
ARC
  5
3B5
100
AcDbEntity
  8
QUER2
100
AcDbCircle
 62
7
  6
CONTINUOUS
 10
82.2842363721
 20
74.3396818387
 40
0.5837
100
AcDbArc
 50
8.4071409463
 51
121.8587620103
  0
ARC
  5
3B6
100
AcDbEntity
  8
QUER2
100
AcDbCircle
 62
7
  6
CONTINUOUS
 10
80.0947910805
 20
74.4666487307
 40
0.5022619795
100
AcDbArc
 50
210.8333048429
 51
290.547271683
  0
ARC
  5
3B7
100
AcDbEntity
  8
QUER2
100
AcDbCircle
 62
7
  6
CONTINUOUS
 10
83.2299693818
 20
73.5601460381
 40
0.5
100
AcDbArc
 50
170.9328996899
 51
315.0
  0
ARC
  5
3B8
100
AcDbEntity
  8
QUER2
100
AcDbCircle
 62
7
  6
CONTINUOUS
 10
79.0881559744
 20
77.9567830864
 40
0.4023630867
100
AcDbArc
 50
134.3466524339
 51
317.7737603653
  0
ARC
  5
3B9
100
AcDbEntity
  8
QUER2
100
AcDbCircle
 62
7
  6
CONTINUOUS
 10
80.3137126814
 20
76.608311169
 40
0.4023630867
100
AcDbArc
 50
127.0417644818
 51
294.1747780881
  0
ARC
  5
3BA
100
AcDbEntity
  8
QUER2
100
AcDbCircle
 62
7
  6
CONTINUOUS
 10
76.7206514415
 20
83.3532678703
 40
19.75
100
AcDbArc
 50
270.0
 51
90.0
  0
ARC
  5
3BB
100
AcDbEntity
  8
QUER2
100
AcDbCircle
 62
7
  6
CONTINUOUS
 10
76.7206514415
 20
83.3532678703
 40
9.75
100
AcDbArc
 50
270.0
 51
301.8763603803
  0
ARC
  5
3BC
100
AcDbEntity
  8
QUER2
100
AcDbCircle
 62
7
  6
CONTINUOUS
 10
76.7206514415
 20
83.3532678703
 40
9.75
100
AcDbArc
 50
328.1236396197
 51
90.0
  0
ARC
  5
3BD
100
AcDbEntity
  8
QUER2
100
AcDbCircle
 62
7
  6
CONTINUOUS
 10
76.8871060827
 20
83.024461063
 40
9.6414848656
100
AcDbArc
 50
290.547271683
 51
301.8587620103
  0
ARC
  5
3BE
100
AcDbEntity
  8
QUER2
100
AcDbCircle
 62
7
  6
CONTINUOUS
 10
76.8871060827
 20
83.024461063
 40
9.6414848656
100
AcDbArc
 50
328.2593605105
 51
340.8200823557
  0
ARC
  5
3BF
100
AcDbEntity
  8
QUER2
100
AcDbCircle
 62
7
  6
CONTINUOUS
 10
79.8244531193
 20
82.0027228623
 40
6.5315079261
100
AcDbArc
 50
352.5872491716
 51
180.8619182248
  0
ARC
  5
3C0
100
AcDbEntity
  8
QUER2
100
AcDbCircle
 62
7
  6
CONTINUOUS
 10
79.8244531193
 20
82.0027228623
 40
5.5240497507
100
AcDbArc
 50
294.1747780881
 51
176.5890765054
  0
ARC
  5
3C1
100
AcDbEntity
  8
QUER2
100
AcDbCircle
 62
7
  6
CONTINUOUS
 10
76.2984838421
 20
80.0391565456
 40
0.4023630867
100
AcDbArc
 50
151.6741664759
 51
330.3376400666
  0
ARC
  5
3C2
100
AcDbEntity
  8
QUER2
100
AcDbCircle
 62
7
  6
CONTINUOUS
 10
77.7635274324
 20
79.1030420709
 40
0.4023630867
100
AcDbArc
 50
144.829576765
 51
322.2970721142
  0
ARC
  5
3C3
100
AcDbEntity
  8
0
100
AcDbCircle
 62
7
  6
CONTINUOUS
 10
93.2206514415
 20
70.1032678703
 40
5.0
100
AcDbArc
 50
270.0
 51
360.0
  0
ARC
  5
3C4
100
AcDbEntity
  8
0
100
AcDbCircle
 62
7
  6
CONTINUOUS
 10
99.7206514415
 20
65.2891745502
 40
2.0
100
AcDbArc
 50
270.3
 51
360.0
  0
ARC
  5
3C5
100
AcDbEntity
  8
A_RUNDUNGEN
100
AcDbCircle
 62
7
  6
CONTINUOUS
 10
95.2206515068
 20
78.3739149114
 40
2.999999909
100
AcDbArc
 50
270.4999987692
 51
289.5983349903
  0
ARC
  5
3C6
100
AcDbEntity
  8
QUER2
100
AcDbCircle
 62
7
  6
CONTINUOUS
 10
85.5996144874
 20
77.6349655119
 40
0.6032437788
100
AcDbArc
 50
148.2593605105
 51
295.0
  0
ARC
  5
3C7
100
AcDbEntity
  8
QUER2
100
AcDbCircle
 62
7
  6
CONTINUOUS
 10
85.5097642498
 20
77.8875569336
 40
0.6
100
AcDbArc
 50
148.1236396197
 51
280.0
  0
ARC
  5
3C8
100
AcDbEntity
  8
QUER2
100
AcDbCircle
 62
7
  6
CONTINUOUS
 10
86.5137732737
 20
76.8439499299
 40
0.5
100
AcDbArc
 50
315.0
 51
115.0
  0
ARC
  5
3C9
100
AcDbEntity
  8
QUER2
100
AcDbCircle
 62
7
  6
CONTINUOUS
 10
86.6396382807
 20
76.969814937
 40
0.5
100
AcDbArc
 50
315.0
 51
100.0
  0
ARC
  5
3CA
100
AcDbEntity
  8
0
100
AcDbCircle
 62
7
  6
CONTINUOUS
 10
79.0276208777
 20
105.0032678703
 40
3.5547736725
100
AcDbArc
 50
175.9671753207
 51
184.0328246793
  0
ARC
  5
3CB
100
AcDbEntity
  8
0
100
AcDbCircle
 62
7
  6
CONTINUOUS
 10
99.7206514415
 20
101.4173611904
 40
2.0
100
AcDbArc
 50
0.0
 51
89.7
  0
ARC
  5
3CC
100
AcDbEntity
  8
0
100
AcDbCircle
 62
7
  6
CONTINUOUS
 10
96.7206514415
 20
99.7230578188
 40
1.5
100
AcDbArc
 50
0.0
 51
88.5
  0
ARC
  5
3CD
100
AcDbEntity
  8
QUER2
100
AcDbCircle
 62
7
  6
CONTINUOUS
 10
74.2206514415
 20
104.6032678703
 40
1.5
100
AcDbArc
 50
180.0
 51
270.0
  0
ARC
  5
3CE
100
AcDbEntity
  8
0
100
AcDbCircle
 62
7
  6
CONTINUOUS
 10
87.9213540027
 20
102.4543325126
 40
1.0
100
AcDbArc
 50
255.425783802
 51
268.5
  0
ARC
  5
3CF
100
AcDbEntity
  8
A_RUNDUNGEN
100
AcDbCircle
 62
7
  6
CONTINUOUS
 10
66.4206514415
 20
107.3032678703
 40
0.3
100
AcDbArc
 50
0.0007005519
 51
90.0
  0
ARC
  5
3D0
100
AcDbEntity
  8
A_RUNDUNGEN
100
AcDbCircle
 62
7
  6
CONTINUOUS
 10
67.0206514415
 20
106.1532678703
 40
0.3
100
AcDbArc
 50
179.9999923139
 51
270.0
  0
ARC
  5
3D1
100
AcDbEntity
  8
A_RUNDUNGEN
100
AcDbCircle
 62
7
  6
CONTINUOUS
 10
71.4206514415
 20
106.1532678703
 40
0.3
100
AcDbArc
 50
270.0
 51
0.0001801248
  0
ARC
  5
3D2
100
AcDbEntity
  8
QUER2
100
AcDbCircle
 62
7
  6
CONTINUOUS
 10
64.0206514415
 20
93.4032678703
 40
0.3
100
AcDbArc
 50
180.0
 51
270.0
  0
ARC
  5
3D3
100
AcDbEntity
  8
0
100
AcDbCircle
 62
7
  6
CONTINUOUS
 10
87.2385194415
 20
156.0032678703
 40
4.0
100
AcDbArc
 50
19.9999997762
 51
90.0
  0
ARC
  5
3D4
100
AcDbEntity
  8
0
100
AcDbCircle
 62
7
  6
CONTINUOUS
 10
105.0302004415
 20
131.0032678703
 40
2.9999996523
100
AcDbArc
 50
90.0
 51
170.0000017934
  0
ARC
  5
3D5
100
AcDbEntity
  8
0
100
AcDbCircle
 62
7
  6
CONTINUOUS
 10
46.2206514415
 20
117.7998246112
 40
2.0
100
AcDbArc
 50
90.3
 51
180.0
  0
ARC
  5
3D6
100
AcDbEntity
  8
0
100
AcDbCircle
 62
7
  6
CONTINUOUS
 10
19.2206514415
 20
158.0032678703
 40
2.0
100
AcDbArc
 50
90.0
 51
180.0
  0
ARC
  5
3D7
100
AcDbEntity
  8
0
100
AcDbCircle
 62
7
  6
CONTINUOUS
 10
85.1031774415
 20
119.0032678703
 40
1.999999563
100
AcDbArc
 50
90.0
 51
174.9999992829
  0
ARC
  5
3D8
100
AcDbEntity
  8
0
100
AcDbCircle
 62
7
  6
CONTINUOUS
 10
19.2206514415
 20
118.6731398703
 40
1.5000001084
100
AcDbArc
 50
180.0
 51
269.4999996651
  0
ARC
  5
3D9
100
AcDbEntity
  8
0
100
AcDbCircle
 62
7
  6
CONTINUOUS
 10
57.7206514415
 20
116.6723077358
 40
1.5
100
AcDbArc
 50
90.5
 51
180.0
  0
ARC
  5
3DA
100
AcDbEntity
  8
0
100
AcDbCircle
 62
7
  6
CONTINUOUS
 10
51.7206514415
 20
117.9841178199
 40
1.5
100
AcDbArc
 50
91.0
 51
180.0
  0
ARC
  5
3DB
100
AcDbEntity
  8
A_RUNDUNGEN
100
AcDbCircle
 62
7
  6
CONTINUOUS
 10
54.5206514415
 20
116.7282678703
 40
1.5
100
AcDbArc
 50
90.0
 51
176.5689179564
  0
ARC
  5
3DC
100
AcDbEntity
  8
0
100
AcDbCircle
 62
7
  6
CONTINUOUS
 10
54.5206514415
 20
116.8182011555
 40
1.5
100
AcDbArc
 50
90.5
 51
180.0
  0
ARC
  5
3DD
100
AcDbEntity
  8
0
100
AcDbCircle
 62
7
  6
CONTINUOUS
 10
19.2206514415
 20
133.3333958703
 40
1.5
100
AcDbArc
 50
90.5000003349
 51
180.0
  0
ARC
  5
3DE
100
AcDbEntity
  8
0
100
AcDbCircle
 62
7
  6
CONTINUOUS
 10
93.7206514415
 20
129.0032678703
 40
1.5
100
AcDbArc
 50
270.0
 51
360.0
  0
ARC
  5
3DF
100
AcDbEntity
  8
0
100
AcDbCircle
 62
7
  6
CONTINUOUS
 10
20.2206514415
 20
153.4588598703
 40
1.000000386
100
AcDbArc
 50
0.0
 51
79.9999950958
  0
ARC
  5
3E0
100
AcDbEntity
  8
0
100
AcDbCircle
 62
7
  6
CONTINUOUS
 10
99.3815514415
 20
122.0032678703
 40
1.000000386
100
AcDbArc
 50
270.0
 51
350.0000017934
  0
ARC
  5
3E1
100
AcDbEntity
  8
0
100
AcDbCircle
 62
7
  6
CONTINUOUS
 10
94.2206514415
 20
145.5914308703
 40
1.0000003073
100
AcDbArc
 50
0.0
 51
19.9999997762
  0
ARC
  5
3E2
100
AcDbEntity
  8
0
100
AcDbCircle
 62
7
  6
CONTINUOUS
 10
78.2206514415
 20
126.5032678703
 40
0.9999993981
100
AcDbArc
 50
90.0
 51
149.9999884324
  0
ARC
  5
3E3
100
AcDbEntity
  8
0
100
AcDbCircle
 62
7
  6
CONTINUOUS
 10
18.2206514415
 20
155.8423668703
 40
0.9999992276
100
AcDbArc
 50
180.0
 51
259.9999950958
  0
ARC
  5
3E4
100
AcDbEntity
  8
A_RUNDUNGEN
100
AcDbCircle
 62
7
  6
CONTINUOUS
 10
59.1206286054
 20
117.3583635873
 40
0.999992388
100
AcDbArc
 50
120.3325947204
 51
124.247925682
  0
ARC
  5
3E5
100
AcDbEntity
  8
0
100
AcDbCircle
 62
7
  6
CONTINUOUS
 10
21.7206514415
 20
148.6512848703
 40
0.5000000361
100
AcDbArc
 50
180.0
 51
269.4999959815
  0
ARC
  5
3E6
100
AcDbEntity
  8
0
100
AcDbCircle
 62
7
  6
CONTINUOUS
 10
26.9206514415
 20
147.8058738703
 40
0.3000004234
100
AcDbArc
 50
0.0
 51
89.4999959815
  0
ARC
  5
3E7
100
AcDbEntity
  8
0
100
AcDbCircle
 62
7
  6
CONTINUOUS
 10
26.9206514415
 20
116.8058738703
 40
0.3000004234
100
AcDbArc
 50
0.0
 51
89.4999996651
  0
ARC
  5
3E8
100
AcDbEntity
  8
A_RUNDUNGEN
100
AcDbCircle
 62
7
  6
CONTINUOUS
 10
66.4206514415
 20
112.9032678703
 40
0.3
100
AcDbArc
 50
270.0
 51
359.9992994481
  0
ARC
  5
3E9
100
AcDbEntity
  8
A_RUNDUNGEN
100
AcDbCircle
 62
7
  6
CONTINUOUS
 10
67.0206514415
 20
114.0532678703
 40
0.3
100
AcDbArc
 50
90.0
 51
180.0000076861
  0
ARC
  5
3EA
100
AcDbEntity
  8
A_RUNDUNGEN
100
AcDbCircle
 62
7
  6
CONTINUOUS
 10
71.4206514415
 20
114.0532678703
 40
0.3
100
AcDbArc
 50
359.9998198752
 51
90.0
  0
ARC
  5
3EB
100
AcDbEntity
  8
QUER2
100
AcDbCircle
 62
7
  6
CONTINUOUS
 10
64.0206514415
 20
116.4032678703
 40
0.3
100
AcDbArc
 50
90.0
 51
180.0
  0
ARC
  5
3EC
100
AcDbEntity
  8
QUER2
100
AcDbCircle
 62
7
  6
CONTINUOUS
 10
72.4206514415
 20
116.4032678703
 40
0.3
100
AcDbArc
 50
0.0
 51
90.0
  0
ARC
  5
3ED
100
AcDbEntity
  8
0
100
AcDbCircle
 62
7
  6
CONTINUOUS
 10
26.9206514415
 20
135.2006608703
 40
0.3
100
AcDbArc
 50
270.5000003349
 51
360.0
  0
ARC
  5
3EE
100
AcDbEntity
  8
0
100
AcDbCircle
 62
7
  6
CONTINUOUS
 10
166.7206514415
 20
63.0032678703
 40
3.0
100
AcDbArc
 50
270.0
 51
360.0
  0
ARC
  5
3EF
100
AcDbEntity
  8
0
100
AcDbCircle
 62
7
  6
CONTINUOUS
 10
186.2385194415
 20
130.0032678703
 40
4.0
100
AcDbArc
 50
19.9999997762
 51
90.0
  0
ARC
  5
3F0
100
AcDbEntity
  8
0
100
AcDbCircle
 62
7
  6
CONTINUOUS
 10
192.7206514415
 20
115.1527348703
 40
3.0
100
AcDbArc
 50
109.9999761886
 51
180.0
  0
ARC
  5
3F1
100
AcDbEntity
  8
0
100
AcDbCircle
 62
7
  6
CONTINUOUS
 10
193.2206514415
 20
119.5914308703
 40
0.9999993676
100
AcDbArc
 50
289.9999761886
 51
19.9999997762
  0
SPLINE
  5
3F2
100
AcDbEntity
  8
DEFAULT_2
100
AcDbSpline
 62
8
  6
HIDDEN
 70
0
 71
3
 72
16
 73
12
 74
0
 42
0.0000001
 43
0.0000001
 44
0.0000000001
 40
0.0
 40
0.0
 40
0.0
 40
0.0
 40
0.3903798779
 40
0.5625679588
 40
0.7120202215
 40
0.8342206317
 40
0.9248405847
 40
0.9573082391
 40
0.9808415989
 40
0.9951643057
 40
1.0
 40
1.0
 40
1.0
 40
1.0
 10
71.6100486891
 20
108.2009737793
 30
0.0
 10
71.6243136449
 20
108.1559585603
 30
0.0
 10
71.6449461188
 20
108.0911115778
 30
0.0
 10
71.6711747929
 20
108.0090756805
 30
0.0
 10
71.6875942733
 20
107.957957428
 30
0.0
 10
71.7009721429
 20
107.9162348442
 30
0.0
 10
71.7101710066
 20
107.8880107829
 30
0.0
 10
71.7154865806
 20
107.8711109391
 30
0.0
 10
71.7183244638
 20
107.8630526303
 30
0.0
 10
71.719511944
 20
107.8580734283
 30
0.0
 10
71.7206452525
 20
107.8559370096
 30
0.0
 10
71.7206514634
 20
107.8553521042
 30
0.0
  0
SPLINE
  5
3F3
100
AcDbEntity
  8
DEFAULT_2
100
AcDbSpline
 62
8
  6
HIDDEN
 70
0
 71
3
 72
13
 73
9
 74
0
 42
0.0000001
 43
0.0000001
 44
0.0000000001
 40
0.0
 40
0.0
 40
0.0
 40
0.0
 40
0.3823170071
 40
0.7042352415
 40
0.828763902
 40
0.9220602523
 40
0.9800639013
 40
1.0
 40
1.0
 40
1.0
 40
1.0
 10
69.5486427124
 20
108.2009737793
 30
0.0
 10
69.5717141361
 20
108.1575880541
 30
0.0
 10
69.6132005218
 20
108.0771295762
 30
0.0
 10
69.660022111
 20
107.9814436563
 30
0.0
 10
69.6899547015
 20
107.9188662367
 30
0.0
 10
69.7047547854
 20
107.8866377872
 30
0.0
 10
69.7145125632
 20
107.8669279353
 30
0.0
 10
69.7182051115
 20
107.8575711734
 30
0.0
 10
69.7194862917
 20
107.8553521042
 30
0.0
  0
SPLINE
  5
3F4
100
AcDbEntity
  8
DEFAULT_2
100
AcDbSpline
 62
8
  6
HIDDEN
 70
0
 71
3
 72
13
 73
9
 74
0
 42
0.0000001
 43
0.0000001
 44
0.0000000001
 40
0.0
 40
0.0
 40
0.0
 40
0.0
 40
0.0628689377
 40
0.1340931028
 40
0.222776558
 40
0.3333361504
 40
0.6251621043
 40
1.0
 40
1.0
 40
1.0
 40
1.0
 10
71.6483716403
 20
111.4521458228
 30
0.0
 10
71.6536399322
 20
111.4521623161
 30
0.0
 10
71.6650523576
 20
111.449368393
 30
0.0
 10
71.6795607728
 20
111.4369085143
 30
0.0
 10
71.6917841329
 20
111.4176013092
 30
0.0
 10
71.7068817872
 20
111.3791420381
 30
0.0
 10
71.7180768283
 20
111.3144905396
 30
0.0
 10
71.7206514448
 20
111.258636609
 30
0.0
 10
71.7206514441
 20
111.2272257853
 30
0.0
  0
SPLINE
  5
3F5
100
AcDbEntity
  8
DEFAULT_2
100
AcDbSpline
 62
8
  6
HIDDEN
 70
0
 71
3
 72
17
 73
13
 74
0
 42
0.0000001
 43
0.0000001
 44
0.0000000001
 40
0.0
 40
0.0
 40
0.0
 40
0.0
 40
0.0314594513
 40
0.063630326
 40
0.1002171407
 40
0.1435921279
 40
0.2545267375
 40
0.3953624568
 40
0.5534361924
 40
0.7147952759
 40
0.8664254743
 40
1.0
 40
1.0
 40
1.0
 40
1.0
 10
69.6117449497
 20
111.4520892867
 30
0.0
 10
69.6207532243
 20
111.4520204779
 30
0.0
 10
69.6391897977
 20
111.4489083343
 30
0.0
 10
69.6640855717
 20
111.4333503537
 30
0.0
 10
69.684313301
 20
111.4078280434
 30
0.0
 10
69.7073080474
 20
111.3578533355
 30
0.0
 10
69.7210987913
 20
111.2732828111
 30
0.0
 10
69.7191509617
 20
111.1557085452
 30
0.0
 10
69.699222319
 20
111.025020886
 30
0.0
 10
69.6632583015
 20
110.8946720697
 30
0.0
 10
69.6138180218
 20
110.776389498
 30
0.0
 10
69.5716448476
 20
110.7058922935
 30
0.0
 10
69.5486427124
 20
110.6753319777
 30
0.0
  0
SPLINE
  5
3F6
100
AcDbEntity
  8
DEFAULT_2
100
AcDbSpline
 62
8
  6
HIDDEN
 70
0
 71
3
 72
21
 73
17
 74
0
 42
0.0000001
 43
0.0000001
 44
0.0000000001
 40
0.0
 40
0.0
 40
0.0
 40
0.0
 40
0.0012141761
 40
0.0048337895
 40
0.0108244702
 40
0.0191518484
 40
0.0426792177
 40
0.0751409396
 40
0.116262058
 40
0.1657533446
 40
0.2231645762
 40
0.2879439606
 40
0.437393674
 40
0.609596116
 40
0.7991324087
 40
1.0
 40
1.0
 40
1.0
 40
1.0
 10
71.7206514634
 20
112.3511836364
 30
0.0
 10
71.7207816284
 20
112.351115608
 30
0.0
 10
71.7201762009
 20
112.3503853389
 30
0.0
 10
71.7201816583
 20
112.3493064969
 30
0.0
 10
71.7192847784
 20
112.347148151
 30
0.0
 10
71.7180146115
 20
112.3428484294
 30
0.0
 10
71.7155221974
 20
112.3354038142
 30
0.0
 10
71.711962008
 20
112.3242445792
 30
0.0
 10
71.7073741015
 20
112.3100683656
 30
0.0
 10
71.7018885782
 20
112.2930287476
 30
0.0
 10
71.6955223259
 20
112.2732599464
 30
0.0
 10
71.685464626
 20
112.241979403
 30
0.0
 10
71.6711822344
 20
112.1974706548
 30
0.0
 10
71.6523467414
 20
112.1385746459
 30
0.0
 10
71.6316812708
 20
112.0737337595
 30
0.0
 10
71.6173886357
 20
112.0287242697
 30
0.0
 10
71.6100486891
 20
112.0055619613
 30
0.0
  0
SPLINE
  5
3F7
100
AcDbEntity
  8
DEFAULT_2
100
AcDbSpline
 62
8
  6
HIDDEN
 70
0
 71
3
 72
21
 73
17
 74
0
 42
0.0000001
 43
0.0000001
 44
0.0000000001
 40
0.0
 40
0.0
 40
0.0
 40
0.0
 40
0.0012682531
 40
0.0050444688
 40
0.0112858327
 40
0.0199495358
 40
0.0443727477
 40
0.0779717415
 40
0.1204042326
 40
0.1712653136
 40
0.2299438463
 40
0.2957867
 40
0.4463552272
 40
0.6176886778
 40
0.8041513214
 40
1.0
 40
1.0
 40
1.0
 40
1.0
 10
69.7194862917
 20
112.3511836364
 30
0.0
 10
69.7196395251
 20
112.3511280369
 30
0.0
 10
69.7188327217
 20
112.3503144604
 30
0.0
 10
69.718740487
 20
112.3492118353
 30
0.0
 10
69.7174468575
 20
112.3469106902
 30
0.0
 10
69.7154992555
 20
112.3423942022
 30
0.0
 10
69.7117671034
 20
112.3345654891
 30
0.0
 10
69.7063752704
 20
112.3228863973
 30
0.0
 10
69.6994399628
 20
112.3081047487
 30
0.0
 10
69.6911351186
 20
112.2904322774
 30
0.0
 10
69.6814842857
 20
112.2700583636
 30
0.0
 10
69.6662496857
 20
112.2381524419
 30
0.0
 10
69.6445153895
 20
112.1933033506
 30
0.0
 10
69.6154867251
 20
112.1347647062
 30
0.0
 10
69.5832358612
 20
112.0713312538
 30
0.0
 10
69.5604615776
 20
112.0277872928
 30
0.0
 10
69.5486427124
 20
112.0055619613
 30
0.0
  0
SPLINE
  5
3F8
100
AcDbEntity
  8
DEFAULT_2
100
AcDbSpline
 62
8
  6
HIDDEN
 70
0
 71
3
 72
17
 73
13
 74
0
 42
0.0000001
 43
0.0000001
 44
0.0000000001
 40
0.0
 40
0.0
 40
0.0
 40
0.0
 40
0.1997572394
 40
0.3866568012
 40
0.5550557639
 40
0.6995754543
 40
0.815820949
 40
0.9013847208
 40
0.9330466488
 40
0.9583878283
 40
0.9795435489
 40
1.0
 40
1.0
 40
1.0
 40
1.0
 10
71.6100486891
 20
112.0055619613
 30
0.0
 10
71.5972476498
 20
111.9651663518
 30
0.0
 10
71.5737916935
 20
111.8865477049
 30
0.0
 10
71.5444927683
 20
111.77246588
 30
0.0
 10
71.522866093
 20
111.6686340045
 30
0.0
 10
71.5095615279
 20
111.5784555335
 30
0.0
 10
71.5050844212
 20
111.5051062594
 30
0.0
 10
71.5085482951
 20
111.4552438035
 30
0.0
 10
71.5174957033
 20
111.4261954249
 30
0.0
 10
71.52595803
 20
111.4116709477
 30
0.0
 10
71.5373568594
 20
111.4024799153
 30
0.0
 10
71.5463765891
 20
111.4007130921
 30
0.0
 10
71.5507160884
 20
111.4007249723
 30
0.0
  0
SPLINE
  5
3F9
100
AcDbEntity
  8
DEFAULT_2
100
AcDbSpline
 62
8
  6
HIDDEN
 70
0
 71
3
 72
11
 73
7
 74
0
 42
0.0000001
 43
0.0000001
 44
0.0000000001
 40
0.0
 40
0.0
 40
0.0
 40
0.0
 40
0.2532177205
 40
0.5233016352
 40
0.7803904152
 40
1.0
 40
1.0
 40
1.0
 40
1.0
 10
71.7206514441
 20
111.2272257853
 30
0.0
 10
71.720651446
 20
111.1794469933
 30
0.0
 10
71.7141254697
 20
111.080696317
 30
0.0
 10
71.6912466073
 20
110.9350583948
 30
0.0
 10
71.6571393555
 20
110.7981805389
 30
0.0
 10
71.6270069736
 20
110.713140358
 30
0.0
 10
71.6100486891
 20
110.6753319777
 30
0.0
  0
SPLINE
  5
3FA
100
AcDbEntity
  8
DEFAULT_2
100
AcDbSpline
 62
8
  6
HIDDEN
 70
0
 71
3
 72
17
 73
13
 74
0
 42
0.0000001
 43
0.0000001
 44
0.0000000001
 40
0.0
 40
0.0
 40
0.0
 40
0.0
 40
0.1335747062
 40
0.2852050946
 40
0.4465642499
 40
0.6046379831
 40
0.7454736112
 40
0.8564080718
 40
0.8997829534
 40
0.9363696965
 40
0.96854054
 40
1.0
 40
1.0
 40
1.0
 40
1.0
 10
69.5486427124
 20
109.5312037629
 30
0.0
 10
69.5716448919
 20
109.5006433881
 30
0.0
 10
69.6138180994
 20
109.430146023
 30
0.0
 10
69.6632584573
 20
109.3118632686
 30
0.0
 10
69.6992224506
 20
109.1815142853
 30
0.0
 10
69.719151032
 20
109.0508265435
 30
0.0
 10
69.7210987449
 20
108.9332522809
 30
0.0
 10
69.7073078988
 20
108.8486818094
 30
0.0
 10
69.6843129993
 20
108.7987072336
 30
0.0
 10
69.6640851792
 20
108.7731850488
 30
0.0
 10
69.6391893394
 20
108.7576271851
 30
0.0
 10
69.6207527379
 20
108.7545151637
 30
0.0
 10
69.6117444552
 20
108.754446411
 30
0.0
  0
SPLINE
  5
3FB
100
AcDbEntity
  8
DEFAULT_2
100
AcDbSpline
 62
8
  6
HIDDEN
 70
0
 71
3
 72
13
 73
9
 74
0
 42
0.0000001
 43
0.0000001
 44
0.0000000001
 40
0.0
 40
0.0
 40
0.0
 40
0.0
 40
0.3748703066
 40
0.6667394223
 40
0.7772817243
 40
0.8659338478
 40
0.9371364084
 40
1.0
 40
1.0
 40
1.0
 40
1.0
 10
71.7206514437
 20
108.9793100145
 30
0.0
 10
71.7206514447
 20
108.9478932807
 30
0.0
 10
71.7180718987
 20
108.8920276848
 30
0.0
 10
71.7068756296
 20
108.8273644018
 30
0.0
 10
71.6917713462
 20
108.788903226
 30
0.0
 10
71.6795421585
 20
108.7696035809
 30
0.0
 10
71.6650290099
 20
108.7571533114
 30
0.0
 10
71.6536154069
 20
108.754367877
 30
0.0
 10
71.6483470408
 20
108.7543882208
 30
0.0
  0
SPLINE
  5
3FC
100
AcDbEntity
  8
DEFAULT_2
100
AcDbSpline
 62
8
  6
HIDDEN
 70
0
 71
3
 72
14
 73
10
 74
0
 42
0.0000001
 43
0.0000001
 44
0.0000000001
 40
0.0
 40
0.0
 40
0.0
 40
0.0
 40
0.3699130223
 40
0.5337813848
 40
0.6747924682
 40
0.7867465766
 40
0.86926824
 40
0.9342567988
 40
1.0
 40
1.0
 40
1.0
 40
1.0
 10
69.5486427124
 20
108.2009737793
 30
0.0
 10
69.5086527288
 20
108.2761747925
 30
0.0
 10
69.4523990485
 20
108.3856321303
 30
0.0
 10
69.3934136753
 20
108.5295082333
 30
0.0
 10
69.3653108789
 20
108.621498028
 30
0.0
 10
69.3535605744
 20
108.6982471902
 30
0.0
 10
69.3625312113
 20
108.7591588759
 30
0.0
 10
69.3959806261
 20
108.7993631863
 30
0.0
 10
69.4274465325
 20
108.8058135281
 30
0.0
 10
69.4425836346
 20
108.8059108281
 30
0.0
  0
SPLINE
  5
3FD
100
AcDbEntity
  8
DEFAULT_2
100
AcDbSpline
 62
8
  6
HIDDEN
 70
0
 71
3
 72
9
 73
5
 74
0
 42
0.0000001
 43
0.0000001
 44
0.0000000001
 40
0.0
 40
0.0
 40
0.0
 40
0.0
 40
0.2763320376
 40
1.0
 40
1.0
 40
1.0
 40
1.0
 10
71.6100486891
 20
111.4334978539
 30
0.0
 10
71.6076145936
 20
111.431243498
 30
0.0
 10
71.5986629084
 20
111.4232496852
 30
0.0
 10
71.5890811314
 20
111.4158997363
 30
0.0
 10
71.5816673944
 20
111.4113692439
 30
0.0
  0
SPLINE
  5
3FE
100
AcDbEntity
  8
DEFAULT_2
100
AcDbSpline
 62
8
  6
HIDDEN
 70
0
 71
3
 72
9
 73
5
 74
0
 42
0.0000001
 43
0.0000001
 44
0.0000000001
 40
0.0
 40
0.0
 40
0.0
 40
0.0
 40
0.2666492063
 40
1.0
 40
1.0
 40
1.0
 40
1.0
 10
71.5816673944
 20
111.4113692439
 30
0.0
 10
71.5804875705
 20
111.4106482602
 30
0.0
 10
71.5760159589
 20
111.4080241786
 30
0.0
 10
71.5713396592
 20
111.4057326304
 30
0.0
 10
71.5677988771
 20
111.4043457471
 30
0.0
  0
SPLINE
  5
3FF
100
AcDbEntity
  8
DEFAULT_2
100
AcDbSpline
 62
8
  6
HIDDEN
 70
0
 71
3
 72
8
 73
4
 74
0
 42
0.0000001
 43
0.0000001
 44
0.0000000001
 40
0.0
 40
0.0
 40
0.0
 40
0.0
 40
1.0
 40
1.0
 40
1.0
 40
1.0
 10
71.5677988771
 20
111.4043457471
 30
0.0
 10
71.5642874613
 20
111.4029703662
 30
0.0
 10
71.5606351791
 20
111.4018739272
 30
0.0
 10
71.5569143155
 20
111.401260016
 30
0.0
  0
SPLINE
  5
400
100
AcDbEntity
  8
DEFAULT_2
100
AcDbSpline
 62
8
  6
HIDDEN
 70
0
 71
3
 72
8
 73
4
 74
0
 42
0.0000001
 43
0.0000001
 44
0.0000000001
 40
0.0
 40
0.0
 40
0.0
 40
0.0
 40
1.0
 40
1.0
 40
1.0
 40
1.0
 10
71.5569143155
 20
111.401260016
 30
0.0
 10
71.5548658711
 20
111.4009220399
 30
0.0
 10
71.5527850582
 20
111.4007301952
 30
0.0
 10
71.5507089261
 20
111.4007249345
 30
0.0
  0
SPLINE
  5
401
100
AcDbEntity
  8
DEFAULT_2
100
AcDbSpline
 62
8
  6
HIDDEN
 70
0
 71
3
 72
9
 73
5
 74
0
 42
0.0000001
 43
0.0000001
 44
0.0000000001
 40
0.0
 40
0.0
 40
0.0
 40
0.0
 40
0.5883452012
 40
1.0
 40
1.0
 40
1.0
 40
1.0
 10
71.6100486891
 20
108.7730378867
 30
0.0
 10
71.6001507
 20
108.782204984
 30
0.0
 10
71.5825185909
 20
108.79681464
 30
0.0
 10
71.5601482798
 20
108.8057868878
 30
0.0
 10
71.5507089261
 20
108.805810806
 30
0.0
  0
SPLINE
  5
402
100
AcDbEntity
  8
DEFAULT_2
100
AcDbSpline
 62
8
  6
HIDDEN
 70
0
 71
3
 72
8
 73
4
 74
0
 42
0.0000001
 43
0.0000001
 44
0.0000000001
 40
0.0
 40
0.0
 40
0.0
 40
0.0
 40
1.0
 40
1.0
 40
1.0
 40
1.0
 10
71.5507160884
 20
108.8058107683
 30
0.0
 10
71.5527930925
 20
108.8058050821
 30
0.0
 10
71.5548747413
 20
108.8056126998
 30
0.0
 10
71.556923972
 20
108.8052741271
 30
0.0
  0
SPLINE
  5
403
100
AcDbEntity
  8
DEFAULT_2
100
AcDbSpline
 62
8
  6
HIDDEN
 70
0
 71
3
 72
8
 73
4
 74
0
 42
0.0000001
 43
0.0000001
 44
0.0000000001
 40
0.0
 40
0.0
 40
0.0
 40
0.0
 40
1.0
 40
1.0
 40
1.0
 40
1.0
 10
71.556923972
 20
108.8052741271
 30
0.0
 10
71.5606414961
 20
108.80465992
 30
0.0
 10
71.5642904728
 20
108.8035642005
 30
0.0
 10
71.5677988647
 20
108.8021900022
 30
0.0
  0
SPLINE
  5
404
100
AcDbEntity
  8
DEFAULT_2
100
AcDbSpline
 62
8
  6
HIDDEN
 70
0
 71
3
 72
9
 73
5
 74
0
 42
0.0000001
 43
0.0000001
 44
0.0000000001
 40
0.0
 40
0.0
 40
0.0
 40
0.0
 40
0.2339590877
 40
1.0
 40
1.0
 40
1.0
 40
1.0
 10
71.5677988647
 20
108.8021900022
 30
0.0
 10
71.5689285492
 20
108.8017475173
 30
0.0
 10
71.573706384
 20
108.7997268028
 30
0.0
 10
71.5782777376
 20
108.7972378952
 30
0.0
 10
71.5816674198
 20
108.7951664841
 30
0.0
  0
SPLINE
  5
405
100
AcDbEntity
  8
DEFAULT_2
100
AcDbSpline
 62
8
  6
HIDDEN
 70
0
 71
3
 72
9
 73
5
 74
0
 42
0.0000001
 43
0.0000001
 44
0.0000000001
 40
0.0
 40
0.0
 40
0.0
 40
0.0
 40
0.2241508545
 40
1.0
 40
1.0
 40
1.0
 40
1.0
 10
71.5816674198
 20
108.7951664841
 30
0.0
 10
71.5839640841
 20
108.7937630086
 30
0.0
 10
71.5939924904
 20
108.7871450014
 30
0.0
 10
71.6032136232
 20
108.7793682345
 30
0.0
 10
71.6100486891
 20
108.7730378867
 30
0.0
  0
SPLINE
  5
406
100
AcDbEntity
  8
DEFAULT_2
100
AcDbSpline
 62
8
  6
HIDDEN
 70
0
 71
3
 72
9
 73
5
 74
0
 42
0.0000001
 43
0.0000001
 44
0.0000000001
 40
0.0
 40
0.0
 40
0.0
 40
0.0
 40
0.4116694073
 40
1.0
 40
1.0
 40
1.0
 40
1.0
 10
71.5507160884
 20
111.4007249723
 30
0.0
 10
71.5601548234
 20
111.4007508125
 30
0.0
 10
71.5825214936
 20
111.4097237518
 30
0.0
 10
71.6001519404
 20
111.4243319054
 30
0.0
 10
71.6100486891
 20
111.4334978539
 30
0.0
  0
SPLINE
  5
407
100
AcDbEntity
  8
DEFAULT_2
100
AcDbSpline
 62
8
  6
HIDDEN
 70
0
 71
3
 72
17
 73
13
 74
0
 42
0.0000001
 43
0.0000001
 44
0.0000000001
 40
0.0
 40
0.0
 40
0.0
 40
0.0
 40
0.1997572394
 40
0.3866568012
 40
0.5550557639
 40
0.6995754543
 40
0.815820949
 40
0.9013847208
 40
0.9330466488
 40
0.9583878283
 40
0.9795435489
 40
1.0
 40
1.0
 40
1.0
 40
1.0
 10
71.6100486891
 20
108.2009737793
 30
0.0
 10
71.5972476498
 20
108.2413693887
 30
0.0
 10
71.5737916935
 20
108.3199880357
 30
0.0
 10
71.5444927683
 20
108.4340698605
 30
0.0
 10
71.522866093
 20
108.5379017361
 30
0.0
 10
71.5095615279
 20
108.628080207
 30
0.0
 10
71.5050844212
 20
108.7014294812
 30
0.0
 10
71.5085482951
 20
108.751291937
 30
0.0
 10
71.5174957033
 20
108.7803403156
 30
0.0
 10
71.52595803
 20
108.7948647929
 30
0.0
 10
71.5373568594
 20
108.8040558253
 30
0.0
 10
71.5463765891
 20
108.8058226485
 30
0.0
 10
71.5507160884
 20
108.8058107683
 30
0.0
  0
SPLINE
  5
408
100
AcDbEntity
  8
DEFAULT_2
100
AcDbSpline
 62
8
  6
HIDDEN
 70
0
 71
3
 72
11
 73
7
 74
0
 42
0.0000001
 43
0.0000001
 44
0.0000000001
 40
0.0
 40
0.0
 40
0.0
 40
0.0
 40
0.2532177204
 40
0.5233016352
 40
0.7803904151
 40
1.0
 40
1.0
 40
1.0
 40
1.0
 10
71.7206514442
 20
108.9793099547
 30
0.0
 10
71.720651446
 20
109.0270887467
 30
0.0
 10
71.7141254697
 20
109.1258394231
 30
0.0
 10
71.6912466074
 20
109.2714773454
 30
0.0
 10
71.6571393556
 20
109.4083552015
 30
0.0
 10
71.6270069736
 20
109.4933953825
 30
0.0
 10
71.6100486891
 20
109.5312037629
 30
0.0
  0
SPLINE
  5
409
100
AcDbEntity
  8
DEFAULT_2
100
AcDbSpline
 62
8
  6
HIDDEN
 70
0
 71
3
 72
11
 73
7
 74
0
 42
0.0000001
 43
0.0000001
 44
0.0000000001
 40
0.0
 40
0.0
 40
0.0
 40
0.0
 40
0.2294183914
 40
0.4999986482
 40
0.7705800762
 40
1.0
 40
1.0
 40
1.0
 40
1.0
 10
71.6100486891
 20
109.5312037629
 30
0.0
 10
71.5734762879
 20
109.6127416832
 30
0.0
 10
71.5222737734
 20
109.8029433842
 30
0.0
 10
71.4979347091
 20
110.1032667344
 30
0.0
 10
71.5222734028
 20
110.40359072
 30
0.0
 10
71.5734760436
 20
110.5937935127
 30
0.0
 10
71.6100486891
 20
110.6753319777
 30
0.0
  0
SPLINE
  5
40A
100
AcDbEntity
  8
DEFAULT_2
100
AcDbSpline
 62
8
  6
HIDDEN
 70
0
 71
3
 72
9
 73
5
 74
0
 42
0.0000001
 43
0.0000001
 44
0.0000000001
 40
0.0
 40
0.0
 40
0.0
 40
0.0
 40
0.500155558
 40
1.0
 40
1.0
 40
1.0
 40
1.0
 10
69.5486427124
 20
110.6753319777
 30
0.0
 10
69.4276652001
 20
110.514602943
 30
0.0
 10
69.2862260358
 20
110.1031779179
 30
0.0
 10
69.4277404527
 20
109.6918328179
 30
0.0
 10
69.5486427124
 20
109.5312037629
 30
0.0
  0
SPLINE
  5
40B
100
AcDbEntity
  8
DEFAULT_2
100
AcDbSpline
 62
8
  6
HIDDEN
 70
0
 71
3
 72
9
 73
5
 74
0
 42
0.0000001
 43
0.0000001
 44
0.0000000001
 40
0.0
 40
0.0
 40
0.0
 40
0.0
 40
0.5251157286
 40
1.0
 40
1.0
 40
1.0
 40
1.0
 10
69.6792088527
 20
111.4131793392
 30
0.0
 10
69.6712448861
 20
111.4247960625
 30
0.0
 10
69.6519248236
 20
111.4451112926
 30
0.0
 10
69.6244812871
 20
111.45199212
 30
0.0
 10
69.6117444552
 20
111.4520893296
 30
0.0
  0
SPLINE
  5
40C
100
AcDbEntity
  8
DEFAULT_2
100
AcDbSpline
 62
8
  6
HIDDEN
 70
0
 71
3
 72
14
 73
10
 74
0
 42
0.0000001
 43
0.0000001
 44
0.0000000001
 40
0.0
 40
0.0
 40
0.0
 40
0.0
 40
0.3699130223
 40
0.5337813848
 40
0.6747924682
 40
0.7867465766
 40
0.86926824
 40
0.9342567988
 40
1.0
 40
1.0
 40
1.0
 40
1.0
 10
69.5486427124
 20
112.0055619613
 30
0.0
 10
69.5086527288
 20
111.9303609481
 30
0.0
 10
69.4523990485
 20
111.8209036103
 30
0.0
 10
69.3934136753
 20
111.6770275073
 30
0.0
 10
69.3653108789
 20
111.5850377126
 30
0.0
 10
69.3535605744
 20
111.5082885503
 30
0.0
 10
69.3625312113
 20
111.4473768646
 30
0.0
 10
69.3959806261
 20
111.4071725543
 30
0.0
 10
69.4274465325
 20
111.4007222125
 30
0.0
 10
69.4425836346
 20
111.4006249124
 30
0.0
  0
SPLINE
  5
40D
100
AcDbEntity
  8
DEFAULT_2
100
AcDbSpline
 62
8
  6
HIDDEN
 70
0
 71
3
 72
21
 73
17
 74
0
 42
0.0000001
 43
0.0000001
 44
0.0000000001
 40
0.0
 40
0.0
 40
0.0
 40
0.0
 40
0.0012682531
 40
0.0050444688
 40
0.0112858327
 40
0.0199495359
 40
0.0443727477
 40
0.0779717416
 40
0.1204042326
 40
0.1712653136
 40
0.2299438463
 40
0.2957867
 40
0.4463552272
 40
0.6176886778
 40
0.8041513214
 40
1.0
 40
1.0
 40
1.0
 40
1.0
 10
69.7194862917
 20
107.8553521042
 30
0.0
 10
69.7196395251
 20
107.8554077037
 30
0.0
 10
69.7188327217
 20
107.8562212802
 30
0.0
 10
69.718740487
 20
107.8573239053
 30
0.0
 10
69.7174468576
 20
107.8596250503
 30
0.0
 10
69.7154992556
 20
107.8641415384
 30
0.0
 10
69.7117671034
 20
107.8719702515
 30
0.0
 10
69.7063752704
 20
107.8836493433
 30
0.0
 10
69.6994399628
 20
107.8984309919
 30
0.0
 10
69.6911351186
 20
107.9161034632
 30
0.0
 10
69.6814842857
 20
107.936477377
 30
0.0
 10
69.6662496857
 20
107.9683832987
 30
0.0
 10
69.6445153895
 20
108.01323239
 30
0.0
 10
69.6154867251
 20
108.0717710344
 30
0.0
 10
69.5832358612
 20
108.1352044868
 30
0.0
 10
69.5604615776
 20
108.1787484477
 30
0.0
 10
69.5486427124
 20
108.2009737793
 30
0.0
  0
SPLINE
  5
40E
100
AcDbEntity
  8
DEFAULT_2
100
AcDbSpline
 62
8
  6
HIDDEN
 70
0
 71
3
 72
21
 73
17
 74
0
 42
0.0000001
 43
0.0000001
 44
0.0000000001
 40
0.0
 40
0.0
 40
0.0
 40
0.0
 40
0.0012141761
 40
0.0048337895
 40
0.0108244703
 40
0.0191518484
 40
0.0426792176
 40
0.0751409395
 40
0.1162620578
 40
0.1657533444
 40
0.2231645761
 40
0.2879439604
 40
0.4373936739
 40
0.609596116
 40
0.7991324087
 40
1.0
 40
1.0
 40
1.0
 40
1.0
 10
71.7206514634
 20
107.8553521042
 30
0.0
 10
71.7207805851
 20
107.8554220925
 30
0.0
 10
71.7201776883
 20
107.8561476072
 30
0.0
 10
71.7201807165
 20
107.8572310129
 30
0.0
 10
71.719285201
 20
107.8593867956
 30
0.0
 10
71.718014215
 20
107.863688056
 30
0.0
 10
71.7155224024
 20
107.8711315411
 30
0.0
 10
71.7119619278
 20
107.8822913119
 30
0.0
 10
71.7073741303
 20
107.8964673209
 30
0.0
 10
71.7018885685
 20
107.9135070112
 30
0.0
 10
71.695522329
 20
107.9332757883
 30
0.0
 10
71.6854646239
 20
107.9645563416
 30
0.0
 10
71.6711822353
 20
108.009065084
 30
0.0
 10
71.6523467411
 20
108.0679610952
 30
0.0
 10
71.6316812709
 20
108.1328019809
 30
0.0
 10
71.6173886357
 20
108.1778114708
 30
0.0
 10
71.6100486891
 20
108.2009737793
 30
0.0
  0
SPLINE
  5
40F
100
AcDbEntity
  8
DEFAULT_2
100
AcDbSpline
 62
8
  6
HIDDEN
 70
0
 71
3
 72
16
 73
12
 74
0
 42
0.0000001
 43
0.0000001
 44
0.0000000001
 40
0.0
 40
0.0
 40
0.0
 40
0.0
 40
0.3903798778
 40
0.5625679587
 40
0.7120202214
 40
0.8342206316
 40
0.9248405847
 40
0.9573082391
 40
0.9808415988
 40
0.9951643057
 40
1.0
 40
1.0
 40
1.0
 40
1.0
 10
71.6100486891
 20
112.0055619613
 30
0.0
 10
71.6243136449
 20
112.0505771803
 30
0.0
 10
71.6449461218
 20
112.1154241627
 30
0.0
 10
71.6711747887
 20
112.1974600601
 30
0.0
 10
71.6875942859
 20
112.2485783124
 30
0.0
 10
71.7009721091
 20
112.2903008967
 30
0.0
 10
71.7101710738
 20
112.3185249569
 30
0.0
 10
71.7154865079
 20
112.3354248022
 30
0.0
 10
71.7183246276
 20
112.3434831086
 30
0.0
 10
71.7195116831
 20
112.348462315
 30
0.0
 10
71.7206454367
 20
112.3505987291
 30
0.0
 10
71.7206514634
 20
112.3511836364
 30
0.0
  0
SPLINE
  5
410
100
AcDbEntity
  8
DEFAULT_2
100
AcDbSpline
 62
8
  6
HIDDEN
 70
0
 71
3
 72
9
 73
5
 74
0
 42
0.0000001
 43
0.0000001
 44
0.0000000001
 40
0.0
 40
0.0
 40
0.0
 40
0.0
 40
0.4748835616
 40
1.0
 40
1.0
 40
1.0
 40
1.0
 10
69.6117449497
 20
108.7544464539
 30
0.0
 10
69.6244818297
 20
108.7545437432
 30
0.0
 10
69.6519254633
 20
108.7614248213
 30
0.0
 10
69.6712454706
 20
108.7817403082
 30
0.0
 10
69.6792094041
 20
108.7933571681
 30
0.0
  0
SPLINE
  5
411
100
AcDbEntity
  8
DEFAULT_2
100
AcDbSpline
 62
8
  6
HIDDEN
 70
0
 71
3
 72
10
 73
6
 74
0
 42
0.0000001
 43
0.0000001
 44
0.0000000001
 40
0.0
 40
0.0
 40
0.0
 40
0.0
 40
0.1759675249
 40
0.5096974143
 40
1.0
 40
1.0
 40
1.0
 40
1.0
 10
71.6483716403
 20
108.7543899178
 30
0.0
 10
71.6545310887
 20
108.7543706346
 30
0.0
 10
71.672631231
 20
108.759870665
 30
0.0
 10
71.6940533675
 20
108.7900555737
 30
0.0
 10
71.702657597
 20
108.8175013569
 30
0.0
 10
71.7066803169
 20
108.834185554
 30
0.0
  0
SPLINE
  5
412
100
AcDbEntity
  8
DEFAULT_2
100
AcDbSpline
 62
8
  6
HIDDEN
 70
0
 71
3
 72
9
 73
5
 74
0
 42
0.0000001
 43
0.0000001
 44
0.0000000001
 40
0.0
 40
0.0
 40
0.0
 40
0.0
 40
0.4524876711
 40
1.0
 40
1.0
 40
1.0
 40
1.0
 10
71.7066803169
 20
108.834185554
 30
0.0
 10
71.7118428284
 20
108.8555970267
 30
0.0
 10
71.718748639
 20
108.9039717343
 30
0.0
 10
71.7206514447
 20
108.9526595387
 30
0.0
 10
71.7206514442
 20
108.9793099547
 30
0.0
  0
SPLINE
  5
413
100
AcDbEntity
  8
DEFAULT_2
100
AcDbSpline
 62
8
  6
HIDDEN
 70
0
 71
3
 72
13
 73
9
 74
0
 42
0.0000001
 43
0.0000001
 44
0.0000000001
 40
0.0
 40
0.0
 40
0.0
 40
0.0
 40
0.3823170072
 40
0.7042352416
 40
0.8287639021
 40
0.9220602524
 40
0.9800639013
 40
1.0
 40
1.0
 40
1.0
 40
1.0
 10
69.5486427124
 20
112.0055619613
 30
0.0
 10
69.5717141361
 20
112.0489476865
 30
0.0
 10
69.6132005218
 20
112.1294061644
 30
0.0
 10
69.6600221111
 20
112.2250920843
 30
0.0
 10
69.6899547015
 20
112.2876695039
 30
0.0
 10
69.7047547854
 20
112.3198979534
 30
0.0
 10
69.7145125632
 20
112.3396078052
 30
0.0
 10
69.7182051115
 20
112.3489645672
 30
0.0
 10
69.7194862917
 20
112.3511836364
 30
0.0
  0
SPLINE
  5
414
100
AcDbEntity
  8
DEFAULT_2
100
AcDbSpline
 62
8
  6
HIDDEN
 70
0
 71
3
 72
9
 73
5
 74
0
 42
0.0000001
 43
0.0000001
 44
0.0000000001
 40
0.0
 40
0.0
 40
0.0
 40
0.0
 40
0.4641848869
 40
1.0
 40
1.0
 40
1.0
 40
1.0
 10
71.5507089261
 20
111.4007249345
 30
0.0
 10
71.5446442961
 20
111.4007095675
 30
0.0
 10
71.531155505
 20
111.4048422596
 30
0.0
 10
71.5232472539
 20
111.4161417957
 30
0.0
 10
71.520064878
 20
111.4223771482
 30
0.0
  0
SPLINE
  5
415
100
AcDbEntity
  8
DEFAULT_2
100
AcDbSpline
 62
8
  6
HIDDEN
 70
0
 71
3
 72
9
 73
5
 74
0
 42
0.0000001
 43
0.0000001
 44
0.0000000001
 40
0.0
 40
0.0
 40
0.0
 40
0.0
 40
0.418384545
 40
1.0
 40
1.0
 40
1.0
 40
1.0
 10
71.520064878
 20
111.4223771482
 30
0.0
 10
71.514679614
 20
111.4329287048
 30
0.0
 10
71.507871259
 20
111.4609820803
 30
0.0
 10
71.5064989179
 20
111.4892572881
 30
0.0
 10
71.5064813026
 20
111.5057254543
 30
0.0
  0
SPLINE
  5
416
100
AcDbEntity
  8
DEFAULT_2
100
AcDbSpline
 62
8
  6
HIDDEN
 70
0
 71
3
 72
10
 73
6
 74
0
 42
0.0000001
 43
0.0000001
 44
0.0000000001
 40
0.0
 40
0.0
 40
0.0
 40
0.0
 40
0.1865243022
 40
0.4230577366
 40
1.0
 40
1.0
 40
1.0
 40
1.0
 10
71.5064813026
 20
111.5057254543
 30
0.0
 10
71.5064472631
 20
111.5375481943
 30
0.0
 10
71.5129574594
 20
111.6096733042
 30
0.0
 10
71.5429974294
 20
111.7776747208
 30
0.0
 10
71.5803137887
 20
111.9117289998
 30
0.0
 10
71.6100486891
 20
112.0055619613
 30
0.0
  0
SPLINE
  5
417
100
AcDbEntity
  8
0
100
AcDbSpline
 62
7
  6
CONTINUOUS
 70
0
 71
3
 72
15
 73
11
 74
0
 42
0.0000001
 43
0.0000001
 44
0.0000000001
 40
0.0
 40
0.0
 40
0.0
 40
0.0
 40
0.1250245363
 40
0.2500293709
 40
0.3750074733
 40
0.4999666607
 40
0.6249397407
 40
0.7499416157
 40
0.8749633898
 40
1.0
 40
1.0
 40
1.0
 40
1.0
 10
75.4818188392
 20
103.1023444352
 30
0.0
 10
75.3934986337
 20
103.2666683428
 30
0.0
 10
75.2292491275
 20
103.602283187
 30
0.0
 10
75.0383769514
 20
104.1298461042
 30
0.0
 10
74.9275945321
 20
104.6809787873
 30
0.0
 10
74.9196576774
 20
105.2437980567
 30
0.0
 10
75.0166016682
 20
105.7976895423
 30
0.0
 10
75.1974648063
 20
106.3289447243
 30
0.0
 10
75.4370040772
 20
106.8356303372
 30
0.0
 10
75.6231247426
 20
107.1593815788
 30
0.0
 10
75.7206514415
 20
107.3184352508
 30
0.0
  0
SPLINE
  5
418
100
AcDbEntity
  8
0
100
AcDbSpline
 62
7
  6
CONTINUOUS
 70
0
 71
3
 72
9
 73
5
 74
0
 42
0.0000001
 43
0.0000001
 44
0.0000000001
 40
0.0
 40
0.0
 40
0.0
 40
0.0
 40
0.5009299054
 40
1.0
 40
1.0
 40
1.0
 40
1.0
 10
75.4816490979
 20
105.2532678703
 30
0.0
 10
75.492803639
 20
105.411285772
 30
0.0
 10
75.5479783774
 20
105.7250300197
 30
0.0
 10
75.656863516
 20
106.0233166598
 30
0.0
 10
75.7206514415
 20
106.1676745245
 30
0.0
  0
SPLINE
  5
419
100
AcDbEntity
  8
0
100
AcDbSpline
 62
7
  6
CONTINUOUS
 70
0
 71
3
 72
9
 73
5
 74
0
 42
0.0000001
 43
0.0000001
 44
0.0000000001
 40
0.0
 40
0.0
 40
0.0
 40
0.0
 40
0.4990716142
 40
1.0
 40
1.0
 40
1.0
 40
1.0
 10
75.7206514415
 20
103.8388612161
 30
0.0
 10
75.6568633225
 20
103.9832195188
 30
0.0
 10
75.5479783676
 20
104.2815062301
 30
0.0
 10
75.492803605
 20
104.5952504495
 30
0.0
 10
75.4816490979
 20
104.7532678703
 30
0.0
  0
SPLINE
  5
41A
100
AcDbEntity
  8
A_RUNDUNGEN
100
AcDbSpline
 62
7
  6
CONTINUOUS
 70
0
 71
3
 72
12
 73
8
 74
0
 42
0.0000001
 43
0.0000001
 44
0.0000000001
 40
0.0
 40
0.0
 40
0.0
 40
0.0
 40
0.3016107602
 40
0.5768876568
 40
0.8129482289
 40
0.9127827064
 40
1.0
 40
1.0
 40
1.0
 40
1.0
 10
79.8836357582
 20
63.8767531424
 30
0.0
 10
79.9869553697
 20
63.8272646568
 30
0.0
 10
80.1858668829
 20
63.7350736577
 30
0.0
 10
80.4723263669
 20
63.619897873
 30
0.0
 10
80.6961871513
 20
63.5538332242
 30
0.0
 10
80.8562974113
 20
63.5357602122
 30
0.0
 10
80.9279296479
 20
63.5405417717
 30
0.0
 10
80.9603218785
 20
63.5474829639
 30
0.0
  0
SPLINE
  5
41B
100
AcDbEntity
  8
A_RUNDUNGEN
100
AcDbSpline
 62
7
  6
CONTINUOUS
 70
0
 71
3
 72
14
 73
10
 74
0
 42
0.0000001
 43
0.0000001
 44
0.0000000001
 40
0.0
 40
0.0
 40
0.0
 40
0.0
 40
0.3820312629
 40
0.5547774445
 40
0.7063658421
 40
0.831008064
 40
0.9236945867
 40
0.9807312587
 40
1.0
 40
1.0
 40
1.0
 40
1.0
 10
88.1234376226
 20
66.1032678703
 30
0.0
 10
88.1369165813
 20
65.9760267073
 30
0.0
 10
88.156196065
 20
65.7912186092
 30
0.0
 10
88.1800882098
 20
65.5558455932
 30
0.0
 10
88.1948452465
 20
65.4061970816
 30
0.0
 10
88.2066297942
 20
65.2831967801
 30
0.0
 10
88.2151962354
 20
65.1917103914
 30
0.0
 10
88.2195507993
 20
65.135260371
 30
0.0
 10
88.2204954705
 20
65.1097209272
 30
0.0
 10
88.2206514415
 20
65.1032678703
 30
0.0
  0
ENDSEC
  0
SECTION
  2
OBJECTS
  0
DICTIONARY
  5
41C
100
AcDbDictionary
  3
ACAD_GROUP
350
41D
  3
ACAD_MLINESTYLE
350
41E
  0
DICTIONARY
  5
41D
102
{ACAD_REACTORS
330
41C
102
}
100
AcDbDictionary
  0
DICTIONARY
  5
41E
102
{ACAD_REACTORS
330
41C
102
}
100
AcDbDictionary
  3
STANDARD
350
41F
  0
MLINESTYLE
  5
41F
102
{ACAD_REACTORS
330
41E
102
}
100
AcDbMlineStyle
  2
STANDARD
 70
0
  3

 62
256
 51
90.0
 52
90.0
 71
2
 49
0.5
 62
256
  6
BYLAYER
 49
-0.5
 62
256
  6
BYLAYER
  0
ENDSEC
  0
EOF
