999
DXF file: d:\tmp\workingDir\0000062585\te_680_3d_fd_q01_01.dxf
999
Pro/ENGINEER 2016380 by Parametric Technology Corporation
  0
SECTION
  2
HEADER
  9
$ACADVER
  1
AC1014
  9
$DWGCODEPAGE
  3
ANSI_1252
  9
$EXTMAX
 10
199.898
 20
200.0
 30
0.0
  9
$EXTMIN
 10
0.0
 20
0.0
 30
0.0
  9
$LIMMIN
 10
0.0
 20
0.0
  9
$LIMMAX
 10
199.898
 20
200.0
  9
$VIEWCTR
 10
99.949
 20
100.0
  9
$VIEWSIZE
 40
200.0
  9
$CLAYER
  8
0
  9
$LTSCALE
 40
13.037037037
  9
$CELTYPE
  6
BYLAYER
  9
$DIMSCALE
 40
1.0
  9
$DIMASZ
 40
3.5
  9
$DIMEXO
 40
0.0
  9
$DIMDLI
 40
9.0074074074
  9
$DIMEXE
 40
2.0
  9
$DIMCEN
 40
2.1333333333
  9
$DIMLFAC
 40
1.0
  9
$DIMBLK
  1
_ARROW_FILLED
  9
$DIMALT
 70
0
  9
$DIMALTF
 40
25.4
  9
$DIMTXT
 40
3.5
  9
$DIMTOL
 70
1
  9
$DIMLIM
 70
0
  9
$DIMTFAC
 40
1.0
  9
$DIMTP
 40
0.01
  9
$DIMTM
 40
0.01
  9
$DIMGAP
 40
0.625
  9
$AUNITS
 70
0
  9
$PDMODE
 70
0
  9
$PDSIZE
 40
0.04
  9
$HANDSEED
  5
42D
  9
$TILEMODE
 70
1
  9
$MEASUREMENT
 70
1
  0
ENDSEC
  0
SECTION
  2
CLASSES
  0
ENDSEC
  0
SECTION
  2
TABLES
  0
TABLE
  2
VPORT
  5
8
100
AcDbSymbolTable
 70
2
  0
VPORT
  5
1F4
100
AcDbSymbolTableRecord
100
AcDbViewportTableRecord
  2
*ACTIVE
 70
0
 10
0.0
 20
0.0
 11
1.0
 21
1.0
 12
99.949
 22
100.0
 13
0.0
 23
0.0
 14
1.0
 24
1.0
 15
0.0
 25
0.0
 16
0.0
 26
0.0
 36
1.0
 17
0.0
 27
0.0
 37
0.0
 40
200.0
 41
0.99949
 42
50.0
 43
0.0
 44
0.0
 50
0.0
 51
0.0
 71
0
 72
100
 73
1
 74
1
 75
0
 76
0
 77
0
 78
0
  0
ENDTAB
  0
TABLE
  2
LTYPE
  5
5
100
AcDbSymbolTable
 70
6
  0
LTYPE
  5
14
100
AcDbSymbolTableRecord
100
AcDbLinetypeTableRecord
  2
BYBLOCK
 70
0
  3

 72
65
 73
0
 40
0.0
  0
LTYPE
  5
15
100
AcDbSymbolTableRecord
100
AcDbLinetypeTableRecord
  2
BYLAYER
 70
0
  3

 72
65
 73
0
 40
0.0
  0
LTYPE
  5
16
100
AcDbSymbolTableRecord
100
AcDbLinetypeTableRecord
  2
CONTINUOUS
 70
64
  3
Solid line
 72
65
 73
0
 40
0.0
  0
LTYPE
  5
1F5
100
AcDbSymbolTableRecord
100
AcDbLinetypeTableRecord
  2
CENTER
 70
64
  3
____ _ ____ _ ____ _ ____ _ ____ _ ____ _ ____
 72
65
 73
4
 40
0.6
 49
0.375
 74
0
 49
-0.075
 74
0
 49
0.075
 74
0
 49
-0.075
 74
0
  0
LTYPE
  5
1F6
100
AcDbSymbolTableRecord
100
AcDbLinetypeTableRecord
  2
HIDDEN
 70
64
  3
- - - - - - - - - - - - - - - - - - - -
 72
65
 73
2
 40
0.2
 49
0.1
 74
0
 49
-0.1
 74
0
  0
LTYPE
  5
1F7
100
AcDbSymbolTableRecord
100
AcDbLinetypeTableRecord
  2
PHANTOM
 70
64
  3
_____ _ _ _____ _ _ _____ _ _ _____
 72
65
 73
6
 40
0.8
 49
0.45
 74
0
 49
-0.05
 74
0
 49
0.1
 74
0
 49
-0.05
 74
0
 49
0.1
 74
0
 49
-0.05
 74
0
  0
LTYPE
  5
1F8
100
AcDbSymbolTableRecord
100
AcDbLinetypeTableRecord
  2
DOT
 70
64
  3
. . . . . . . . . . . . . . . . . . . .
 72
65
 73
2
 40
0.2
 49
0.1
 74
0
 49
-0.1
 74
0
  0
LTYPE
  5
1F9
100
AcDbSymbolTableRecord
100
AcDbLinetypeTableRecord
  2
DASHED
 70
64
  3
- - - - - - - - - - - - - - - - - - - -
 72
65
 73
2
 40
0.2
 49
0.1
 74
0
 49
-0.1
 74
0
  0
ENDTAB
  0
TABLE
  2
LAYER
  5
2
100
AcDbSymbolTable
 70
36
  0
LAYER
  5
10
100
AcDbSymbolTableRecord
100
AcDbLayerTableRecord
  2
0
 70
0
 62
7
  6
CONTINUOUS
  0
LAYER
  5
1FA
100
AcDbSymbolTableRecord
100
AcDbLayerTableRecord
  2
DEFAULT_1
 70
0
 62
7
  6
CENTER
  0
LAYER
  5
1FB
100
AcDbSymbolTableRecord
100
AcDbLayerTableRecord
  2
DEFAULT_2
 70
0
 62
8
  6
HIDDEN
  0
LAYER
  5
1FC
100
AcDbSymbolTableRecord
100
AcDbLayerTableRecord
  2
DEFAULT_3
 70
0
 62
7
  6
PHANTOM
  0
LAYER
  5
1FD
100
AcDbSymbolTableRecord
100
AcDbLayerTableRecord
  2
A_ACHSEN
 70
0
 62
7
  6
CONTINUOUS
  0
LAYER
  5
1FE
100
AcDbSymbolTableRecord
100
AcDbLayerTableRecord
  2
A_BASISEBENEN
 70
0
 62
7
  6
CONTINUOUS
  0
LAYER
  5
1FF
100
AcDbSymbolTableRecord
100
AcDbLayerTableRecord
  2
A_BEMASSUNGEN
 70
0
 62
7
  6
CONTINUOUS
  0
LAYER
  5
200
100
AcDbSymbolTableRecord
100
AcDbLayerTableRecord
  2
A_BOHRUNGEN
 70
0
 62
7
  6
CONTINUOUS
  0
LAYER
  5
201
100
AcDbSymbolTableRecord
100
AcDbLayerTableRecord
  2
A_EBENEN
 70
0
 62
7
  6
CONTINUOUS
  0
LAYER
  5
202
100
AcDbSymbolTableRecord
100
AcDbLayerTableRecord
  2
A_FASEN
 70
0
 62
7
  6
CONTINUOUS
  0
LAYER
  5
203
100
AcDbSymbolTableRecord
100
AcDbLayerTableRecord
  2
A_FLAECHEN
 70
0
 62
7
  6
CONTINUOUS
  0
LAYER
  5
204
100
AcDbSymbolTableRecord
100
AcDbLayerTableRecord
  2
A_FL_VERBAENDE
 70
0
 62
7
  6
CONTINUOUS
  0
LAYER
  5
205
100
AcDbSymbolTableRecord
100
AcDbLayerTableRecord
  2
A_KURVEN
 70
0
 62
7
  6
CONTINUOUS
  0
LAYER
  5
206
100
AcDbSymbolTableRecord
100
AcDbLayerTableRecord
  2
A_NOTIZEN_SYMB
 70
0
 62
7
  6
CONTINUOUS
  0
LAYER
  5
207
100
AcDbSymbolTableRecord
100
AcDbLayerTableRecord
  2
A_PUNKTE
 70
0
 62
7
  6
CONTINUOUS
  0
LAYER
  5
208
100
AcDbSymbolTableRecord
100
AcDbLayerTableRecord
  2
A_RUNDUNGEN
 70
0
 62
7
  6
CONTINUOUS
  0
LAYER
  5
209
100
AcDbSymbolTableRecord
100
AcDbLayerTableRecord
  2
BASISEBENEN
 70
0
 62
7
  6
CONTINUOUS
  0
LAYER
  5
20A
100
AcDbSymbolTableRecord
100
AcDbLayerTableRecord
  2
GRUNDEBENE
 70
0
 62
7
  6
CONTINUOUS
  0
LAYER
  5
20B
100
AcDbSymbolTableRecord
100
AcDbLayerTableRecord
  2
IMPORT_KE
 70
0
 62
7
  6
CONTINUOUS
  0
LAYER
  5
20C
100
AcDbSymbolTableRecord
100
AcDbLayerTableRecord
  2
INTFCLR_3
 70
0
 62
7
  6
CONTINUOUS
  0
LAYER
  5
20D
100
AcDbSymbolTableRecord
100
AcDbLayerTableRecord
  2
INTF_1
 70
0
 62
7
  6
CONTINUOUS
  0
LAYER
  5
20E
100
AcDbSymbolTableRecord
100
AcDbLayerTableRecord
  2
INTF_2
 70
0
 62
7
  6
CONTINUOUS
  0
LAYER
  5
20F
100
AcDbSymbolTableRecord
100
AcDbLayerTableRecord
  2
INTF_3
 70
0
 62
7
  6
CONTINUOUS
  0
LAYER
  5
210
100
AcDbSymbolTableRecord
100
AcDbLayerTableRecord
  2
INTF_4
 70
0
 62
7
  6
CONTINUOUS
  0
LAYER
  5
211
100
AcDbSymbolTableRecord
100
AcDbLayerTableRecord
  2
INTF_MAGENTA
 70
0
 62
7
  6
CONTINUOUS
  0
LAYER
  5
212
100
AcDbSymbolTableRecord
100
AcDbLayerTableRecord
  2
INTF_YELLOW
 70
0
 62
7
  6
CONTINUOUS
  0
LAYER
  5
213
100
AcDbSymbolTableRecord
100
AcDbLayerTableRecord
  2
PROFIL
 70
0
 62
7
  6
CONTINUOUS
  0
LAYER
  5
214
100
AcDbSymbolTableRecord
100
AcDbLayerTableRecord
  2
QUER1
 70
0
 62
7
  6
CONTINUOUS
  0
LAYER
  5
215
100
AcDbSymbolTableRecord
100
AcDbLayerTableRecord
  2
QUER2
 70
0
 62
7
  6
CONTINUOUS
  0
LAYER
  5
216
100
AcDbSymbolTableRecord
100
AcDbLayerTableRecord
  2
QUER3
 70
0
 62
7
  6
CONTINUOUS
  0
LAYER
  5
217
100
AcDbSymbolTableRecord
100
AcDbLayerTableRecord
  2
SCHRAFFUR
 70
0
 62
7
  6
CONTINUOUS
  0
ENDTAB
  0
TABLE
  2
STYLE
  5
3
100
AcDbSymbolTable
 70
1
  0
STYLE
  5
11
100
AcDbSymbolTableRecord
100
AcDbTextStyleTableRecord
  2
STANDARD
 70
0
 40
0.0
 41
1.0
 50
0.0
 71
0
 42
0.2
  3
txt
  4

  0
STYLE
  5
218
100
AcDbSymbolTableRecord
100
AcDbTextStyleTableRecord
  2
TEXTSTYLE_1
 70
0
 40
0.0
 41
0.8
 50
0.0
 71
0
 42
0.2
  3
gdt
  4

  0
STYLE
  5
219
100
AcDbSymbolTableRecord
100
AcDbTextStyleTableRecord
  2
TEXTSTYLE_2
 70
0
 40
0.0
 41
1.0
 50
0.0
 71
0
 42
0.2
  3
txt
  4

  0
ENDTAB
  0
TABLE
  2
VIEW
  5
6
100
AcDbSymbolTable
 70
0
  0
ENDTAB
  0
TABLE
  2
UCS
  5
7
100
AcDbSymbolTable
 70
0
  0
ENDTAB
  0
TABLE
  2
APPID
  5
9
100
AcDbSymbolTable
 70
1
  0
APPID
  5
21A
100
AcDbSymbolTableRecord
100
AcDbRegAppTableRecord
  2
ACAD
 70
0
  0
ENDTAB
  0
TABLE
  2
BLOCK_RECORD
  5
1
100
AcDbSymbolTable
 70
0
  0
BLOCK_RECORD
  5
1F
100
AcDbSymbolTableRecord
100
AcDbBlockTableRecord
  2
*MODEL_SPACE
  0
BLOCK_RECORD
  5
1B
100
AcDbSymbolTableRecord
100
AcDbBlockTableRecord
  2
*PAPER_SPACE
  0
BLOCK_RECORD
  5
21B
100
AcDbSymbolTableRecord
100
AcDbBlockTableRecord
  2
_ARROW_FILLED
  0
BLOCK_RECORD
  5
21C
100
AcDbSymbolTableRecord
100
AcDbBlockTableRecord
  2
*D0
  0
BLOCK_RECORD
  5
21D
100
AcDbSymbolTableRecord
100
AcDbBlockTableRecord
  2
*D1
  0
BLOCK_RECORD
  5
21E
100
AcDbSymbolTableRecord
100
AcDbBlockTableRecord
  2
*D2
  0
BLOCK_RECORD
  5
21F
100
AcDbSymbolTableRecord
100
AcDbBlockTableRecord
  2
*D3
  0
BLOCK_RECORD
  5
220
100
AcDbSymbolTableRecord
100
AcDbBlockTableRecord
  2
*D4
  0
BLOCK_RECORD
  5
221
100
AcDbSymbolTableRecord
100
AcDbBlockTableRecord
  2
*D5
  0
BLOCK_RECORD
  5
222
100
AcDbSymbolTableRecord
100
AcDbBlockTableRecord
  2
*D6
  0
BLOCK_RECORD
  5
223
100
AcDbSymbolTableRecord
100
AcDbBlockTableRecord
  2
*D7
  0
BLOCK_RECORD
  5
224
100
AcDbSymbolTableRecord
100
AcDbBlockTableRecord
  2
*D8
  0
BLOCK_RECORD
  5
225
100
AcDbSymbolTableRecord
100
AcDbBlockTableRecord
  2
*D9
  0
ENDTAB
  0
TABLE
  2
DIMSTYLE
  5
A
100
AcDbSymbolTable
 70
1
  0
DIMSTYLE
105
226
100
AcDbSymbolTableRecord
100
AcDbDimStyleTableRecord
  2
STANDARD
 70
0
  3

  4

  5
_ARROW_FILLED
  6
_ARROW_FILLED
  7
_ARROW_FILLED
 40
1.0
 41
3.5
 42
0.0
 43
0.38
 44
2.0
 45
0.0
 46
0.0
 47
0.01
 48
0.01
140
3.5
141
0.09
142
0.0
143
25.4
144
1.0
145
0.0
146
1.0
147
0.625
 71
1.0
 72
0.0
 73
0
 74
0
 75
0
 76
0
 77
1
 78
8
170
0
171
1
172
0
173
0
174
0
175
0
176
0
177
0
178
5
270
2
271
2
272
2
273
2
274
2
275
0
280
0
281
0
282
0
283
1
284
8
285
0
286
0
287
3
288
0
340
11
  0
DIMSTYLE
105
227
100
AcDbSymbolTableRecord
100
AcDbDimStyleTableRecord
  2
DIMSTYLE_1
 70
0
  3

  4

  5
_ARROW_FILLED
  6
_ARROW_FILLED
  7
_ARROW_FILLED
 40
1.0
 41
3.5
 42
0.0
 43
0.38
 44
2.0
 45
0.0
 46
0.0
 47
0.2
 48
0.2
140
3.5
141
0.09
142
0.0
143
25.4
144
1.0
145
0.0
146
1.0
147
0.875
 71
0.0
 72
0.0
 73
0
 74
0
 75
0
 76
0
 77
1
 78
8
170
0
171
1
172
0
173
0
174
0
175
0
176
0
177
0
178
5
270
2
271
4
272
-1
273
2
274
2
275
0
280
0
281
0
282
0
283
1
284
8
285
0
286
0
287
3
288
0
340
219
  0
DIMSTYLE
105
228
100
AcDbSymbolTableRecord
100
AcDbDimStyleTableRecord
  2
DIMSTYLE_2
 70
0
  3

  4

  5
_ARROW_FILLED
  6
_ARROW_FILLED
  7
_ARROW_FILLED
 40
1.0
 41
3.5
 42
0.0
 43
0.38
 44
2.0
 45
0.0
 46
0.0
 47
0.3
 48
0.3
140
3.5
141
0.09
142
0.0
143
25.4
144
1.0
145
0.0
146
1.0
147
0.875
 71
0.0
 72
0.0
 73
0
 74
0
 75
0
 76
0
 77
1
 78
8
170
0
171
1
172
0
173
0
174
0
175
0
176
0
177
0
178
5
270
2
271
4
272
-1
273
2
274
2
275
0
280
0
281
0
282
0
283
1
284
8
285
0
286
0
287
3
288
0
340
219
  0
DIMSTYLE
105
229
100
AcDbSymbolTableRecord
100
AcDbDimStyleTableRecord
  2
DIMSTYLE_3
 70
0
  3

  4

  5
_ARROW_FILLED
  6
_ARROW_FILLED
  7
_ARROW_FILLED
 40
1.0
 41
3.5
 42
0.0
 43
0.38
 44
2.0
 45
0.0
 46
0.0
 47
0.1
 48
0.1
140
3.5
141
0.09
142
0.0
143
25.4
144
1.0
145
0.0
146
1.0
147
0.875
 71
0.0
 72
0.0
 73
0
 74
0
 75
0
 76
0
 77
1
 78
8
170
0
171
1
172
0
173
0
174
0
175
0
176
0
177
0
178
5
270
2
271
0
272
-1
273
2
274
2
275
0
280
0
281
0
282
0
283
1
284
8
285
0
286
0
287
3
288
0
340
219
  0
DIMSTYLE
105
22A
100
AcDbSymbolTableRecord
100
AcDbDimStyleTableRecord
  2
DIMSTYLE_4
 70
0
  3

  4

  5
_ARROW_FILLED
  6
_ARROW_FILLED
  7
_ARROW_FILLED
 40
1.0
 41
3.5
 42
0.0
 43
0.38
 44
2.0
 45
0.0
 46
0.0
 47
0.1
 48
0.1
140
3.5
141
0.09
142
0.0
143
25.4
144
1.0
145
0.0
146
1.0
147
0.875
 71
0.0
 72
0.0
 73
0
 74
0
 75
0
 76
0
 77
1
 78
8
170
0
171
1
172
0
173
0
174
0
175
0
176
0
177
0
178
5
270
2
271
4
272
-1
273
2
274
2
275
0
280
0
281
0
282
0
283
1
284
8
285
0
286
0
287
3
288
0
340
219
  0
ENDTAB
  0
ENDSEC
  0
SECTION
  2
BLOCKS
  0
BLOCK
  5
20
100
AcDbEntity
  8
0
100
AcDbBlockBegin
  2
*MODEL_SPACE
 70
0
 10
0.0
 20
0.0
 30
0.0
  3
*MODEL_SPACE
  1

  0
ENDBLK
  5
21
100
AcDbEntity
  8
0
100
AcDbBlockEnd
  0
BLOCK
  5
1C
100
AcDbEntity
  8
0
100
AcDbBlockBegin
  2
*PAPER_SPACE
 70
0
 10
0.0
 20
0.0
 30
0.0
  3
*PAPER_SPACE
  1

  0
ENDBLK
  5
1D
100
AcDbEntity
  8
0
100
AcDbBlockEnd
  0
BLOCK
  5
22B
100
AcDbEntity
  8
0
100
AcDbBlockBegin
  2
_ARROW_FILLED
 70
64
 10
0.0
 20
0.0
  3
_ARROW_FILLED
  1

  0
SOLID
  5
22C
100
AcDbEntity
  8
0
  6
BYBLOCK
 62
0
100
AcDbTrace
 10
0.0
 20
0.0
 11
-1.0
 21
0.1428571429
 12
-1.0
 22
-0.1428571429
 13
-1.0
 23
-0.1428571429
  0
ENDBLK
  5
22D
100
AcDbEntity
  8
0
  6
BYBLOCK
 62
0
100
AcDbBlockEnd
  0
BLOCK
  5
22E
100
AcDbEntity
  8
A_BEMASSUNGEN
100
AcDbBlockBegin
 62
2
  6
CONTINUOUS
  2
*D0
 70
65
 10
0.0
 20
0.0
  3
*D0
  1

  0
MTEXT
  5
22F
100
AcDbEntity
  8
A_BEMASSUNGEN
100
AcDbMText
 62
5
  6
CONTINUOUS
  7
TEXTSTYLE_2
 71
2
 72
1
 10
73.5932003797
 20
54.3590718141
 30
0.0
 11
1.0
 21
0.0
 31
0.0
  1
18
 40
3.5
 41
7.125
  0
LINE
  5
230
100
AcDbEntity
  8
A_BEMASSUNGEN
100
AcDbLine
 62
2
  6
CONTINUOUS
 10
64.5932003797
 20
61.1802505402
 11
64.5932003797
 21
47.9840718141
  0
LINE
  5
231
100
AcDbEntity
  8
A_BEMASSUNGEN
100
AcDbLine
 62
2
  6
CONTINUOUS
 10
82.5932003797
 20
83.1803648203
 11
82.5932003797
 21
47.9840718141
  0
LINE
  5
232
100
AcDbEntity
  8
A_BEMASSUNGEN
100
AcDbLine
 62
2
  6
CONTINUOUS
 10
64.5932003797
 20
49.9840718141
 11
73.5932003797
 21
49.9840718141
  0
LINE
  5
233
100
AcDbEntity
  8
A_BEMASSUNGEN
100
AcDbLine
 62
2
  6
CONTINUOUS
 10
82.5932003797
 20
49.9840718141
 11
73.5932003797
 21
49.9840718141
  0
INSERT
  5
234
100
AcDbEntity
  8
A_BEMASSUNGEN
100
AcDbBlockReference
 62
2
  6
CONTINUOUS
  2
_ARROW_FILLED
 10
64.5932003797
 20
49.9840718141
 41
3.5
 42
3.5
 43
3.5
 50
180.0
  0
INSERT
  5
235
100
AcDbEntity
  8
A_BEMASSUNGEN
100
AcDbBlockReference
 62
2
  6
CONTINUOUS
  2
_ARROW_FILLED
 10
82.5932003797
 20
49.9840718141
 41
3.5
 42
3.5
 43
3.5
  0
ENDBLK
  5
236
100
AcDbEntity
  8
0
  6
BYBLOCK
 62
0
100
AcDbBlockEnd
  0
BLOCK
  5
237
100
AcDbEntity
  8
A_BEMASSUNGEN
100
AcDbBlockBegin
 62
2
  6
CONTINUOUS
  2
*D1
 70
65
 10
0.0
 20
0.0
  3
*D1
  1

  0
MTEXT
  5
238
100
AcDbEntity
  8
A_BEMASSUNGEN
100
AcDbMText
 62
5
  6
CONTINUOUS
  7
TEXTSTYLE_2
 71
2
 72
1
 10
83.3432003797
 20
44.7806346738
 30
0.0
 11
1.0
 21
0.0
 31
0.0
  1
37.5
 40
3.5
 41
14.625
  0
LINE
  5
239
100
AcDbEntity
  8
A_BEMASSUNGEN
100
AcDbLine
 62
2
  6
CONTINUOUS
 10
64.5932003797
 20
61.1802505402
 11
64.5932003797
 21
38.4056346738
  0
LINE
  5
23A
100
AcDbEntity
  8
A_BEMASSUNGEN
100
AcDbLine
 62
2
  6
CONTINUOUS
 10
102.0932003797
 20
61.0802505402
 11
102.0932003797
 21
38.4056346738
  0
LINE
  5
23B
100
AcDbEntity
  8
A_BEMASSUNGEN
100
AcDbLine
 62
2
  6
CONTINUOUS
 10
64.5932003797
 20
40.4056346738
 11
83.3432003797
 21
40.4056346738
  0
LINE
  5
23C
100
AcDbEntity
  8
A_BEMASSUNGEN
100
AcDbLine
 62
2
  6
CONTINUOUS
 10
102.0932003797
 20
40.4056346738
 11
83.3432003797
 21
40.4056346738
  0
INSERT
  5
23D
100
AcDbEntity
  8
A_BEMASSUNGEN
100
AcDbBlockReference
 62
2
  6
CONTINUOUS
  2
_ARROW_FILLED
 10
64.5932003797
 20
40.4056346738
 41
3.5
 42
3.5
 43
3.5
 50
180.0
  0
INSERT
  5
23E
100
AcDbEntity
  8
A_BEMASSUNGEN
100
AcDbBlockReference
 62
2
  6
CONTINUOUS
  2
_ARROW_FILLED
 10
102.0932003797
 20
40.4056346738
 41
3.5
 42
3.5
 43
3.5
  0
ENDBLK
  5
23F
100
AcDbEntity
  8
0
  6
BYBLOCK
 62
0
100
AcDbBlockEnd
  0
BLOCK
  5
240
100
AcDbEntity
  8
A_BEMASSUNGEN
100
AcDbBlockBegin
 62
2
  6
CONTINUOUS
  2
*D2
 70
65
 10
0.0
 20
0.0
  3
*D2
  1

  0
MTEXT
  5
241
100
AcDbEntity
  8
A_BEMASSUNGEN
100
AcDbMText
 62
5
  6
CONTINUOUS
  7
TEXTSTYLE_2
 71
3
 72
1
 10
50.4581117845
 20
69.8470347847
 30
0.0
 11
0.0
 21
1.0
 31
0.0
  1
6
 40
3.5
 41
4.125
  0
LINE
  5
242
100
AcDbEntity
  8
A_BEMASSUNGEN
100
AcDbLine
 62
2
  6
CONTINUOUS
 10
64.5932003797
 20
73.1802505402
 11
52.8331117845
 21
73.1802505402
  0
LINE
  5
243
100
AcDbEntity
  8
A_BEMASSUNGEN
100
AcDbLine
 62
2
  6
CONTINUOUS
 10
54.8331117845
 20
79.0802505402
 11
54.8331117845
 21
86.5802505402
  0
LINE
  5
244
100
AcDbEntity
  8
A_BEMASSUNGEN
100
AcDbLine
 62
2
  6
CONTINUOUS
 10
54.8331117845
 20
86.5802505402
 11
54.8331117845
 21
76.1302505402
  0
LINE
  5
245
100
AcDbEntity
  8
A_BEMASSUNGEN
100
AcDbLine
 62
2
  6
CONTINUOUS
 10
54.8331117845
 20
73.1802505402
 11
54.8331117845
 21
67.0970347847
  0
LINE
  5
246
100
AcDbEntity
  8
A_BEMASSUNGEN
100
AcDbLine
 62
2
  6
CONTINUOUS
 10
54.8331117845
 20
67.0970347847
 11
54.8331117845
 21
76.1302505402
  0
INSERT
  5
247
100
AcDbEntity
  8
A_BEMASSUNGEN
100
AcDbBlockReference
 62
2
  6
CONTINUOUS
  2
_ARROW_FILLED
 10
54.8331117845
 20
79.0802505402
 41
3.5
 42
3.5
 43
3.5
 50
270.0
  0
INSERT
  5
248
100
AcDbEntity
  8
A_BEMASSUNGEN
100
AcDbBlockReference
 62
2
  6
CONTINUOUS
  2
_ARROW_FILLED
 10
54.8331117845
 20
73.1802505402
 41
3.5
 42
3.5
 43
3.5
 50
90.0
  0
ENDBLK
  5
249
100
AcDbEntity
  8
0
  6
BYBLOCK
 62
0
100
AcDbBlockEnd
  0
BLOCK
  5
24A
100
AcDbEntity
  8
A_BEMASSUNGEN
100
AcDbBlockBegin
 62
2
  6
CONTINUOUS
  2
*D3
 70
65
 10
0.0
 20
0.0
  3
*D3
  1

  0
MTEXT
  5
24B
100
AcDbEntity
  8
A_BEMASSUNGEN
100
AcDbMText
 62
5
  6
CONTINUOUS
  7
TEXTSTYLE_2
 71
2
 72
1
 10
37.4843839572
 20
68.5802505402
 30
0.0
 11
0.0
 21
1.0
 31
0.0
  1
21
 40
3.5
 41
7.125
  0
LINE
  5
24C
100
AcDbEntity
  8
A_BEMASSUNGEN
100
AcDbLine
 62
2
  6
CONTINUOUS
 10
67.5932003797
 20
58.0802505402
 11
39.8593839572
 21
58.0802505402
  0
LINE
  5
24D
100
AcDbEntity
  8
A_BEMASSUNGEN
100
AcDbLine
 62
2
  6
CONTINUOUS
 10
41.8593839572
 20
79.0802505402
 11
41.8593839572
 21
68.5802505402
  0
LINE
  5
24E
100
AcDbEntity
  8
A_BEMASSUNGEN
100
AcDbLine
 62
2
  6
CONTINUOUS
 10
41.8593839572
 20
58.0802505402
 11
41.8593839572
 21
68.5802505402
  0
INSERT
  5
24F
100
AcDbEntity
  8
A_BEMASSUNGEN
100
AcDbBlockReference
 62
2
  6
CONTINUOUS
  2
_ARROW_FILLED
 10
41.8593839572
 20
79.0802505402
 41
3.5
 42
3.5
 43
3.5
 50
90.0
  0
INSERT
  5
250
100
AcDbEntity
  8
A_BEMASSUNGEN
100
AcDbBlockReference
 62
2
  6
CONTINUOUS
  2
_ARROW_FILLED
 10
41.8593839572
 20
58.0802505402
 41
3.5
 42
3.5
 43
3.5
 50
270.0
  0
ENDBLK
  5
251
100
AcDbEntity
  8
0
  6
BYBLOCK
 62
0
100
AcDbBlockEnd
  0
BLOCK
  5
252
100
AcDbEntity
  8
A_BEMASSUNGEN
100
AcDbBlockBegin
 62
2
  6
CONTINUOUS
  2
*D4
 70
65
 10
0.0
 20
0.0
  3
*D4
  1

  0
MTEXT
  5
253
100
AcDbEntity
  8
A_BEMASSUNGEN
100
AcDbMText
 62
5
  6
CONTINUOUS
  7
TEXTSTYLE_2
 71
2
 72
1
 10
5.2945801524
 20
83.5802505402
 30
0.0
 11
0.0
 21
1.0
 31
0.0
  1
9
 40
3.5
 41
4.125
  0
LINE
  5
254
100
AcDbEntity
  8
A_BEMASSUNGEN
100
AcDbLine
 62
2
  6
CONTINUOUS
 10
19.5932003797
 20
79.0802505402
 11
7.6695801524
 21
79.0802505402
  0
LINE
  5
255
100
AcDbEntity
  8
A_BEMASSUNGEN
100
AcDbLine
 62
2
  6
CONTINUOUS
 10
44.5932003797
 20
88.0802505402
 11
7.6695801524
 21
88.0802505402
  0
LINE
  5
256
100
AcDbEntity
  8
A_BEMASSUNGEN
100
AcDbLine
 62
2
  6
CONTINUOUS
 10
9.6695801524
 20
79.0802505402
 11
9.6695801524
 21
71.5802505402
  0
LINE
  5
257
100
AcDbEntity
  8
A_BEMASSUNGEN
100
AcDbLine
 62
2
  6
CONTINUOUS
 10
9.6695801524
 20
71.5802505402
 11
9.6695801524
 21
83.5802505402
  0
LINE
  5
258
100
AcDbEntity
  8
A_BEMASSUNGEN
100
AcDbLine
 62
2
  6
CONTINUOUS
 10
9.6695801524
 20
88.0802505402
 11
9.6695801524
 21
95.5802505402
  0
LINE
  5
259
100
AcDbEntity
  8
A_BEMASSUNGEN
100
AcDbLine
 62
2
  6
CONTINUOUS
 10
9.6695801524
 20
95.5802505402
 11
9.6695801524
 21
83.5802505402
  0
INSERT
  5
25A
100
AcDbEntity
  8
A_BEMASSUNGEN
100
AcDbBlockReference
 62
2
  6
CONTINUOUS
  2
_ARROW_FILLED
 10
9.6695801524
 20
79.0802505402
 41
3.5
 42
3.5
 43
3.5
 50
90.0
  0
INSERT
  5
25B
100
AcDbEntity
  8
A_BEMASSUNGEN
100
AcDbBlockReference
 62
2
  6
CONTINUOUS
  2
_ARROW_FILLED
 10
9.6695801524
 20
88.0802505402
 41
3.5
 42
3.5
 43
3.5
 50
270.0
  0
ENDBLK
  5
25C
100
AcDbEntity
  8
0
  6
BYBLOCK
 62
0
100
AcDbBlockEnd
  0
BLOCK
  5
25D
100
AcDbEntity
  8
A_BEMASSUNGEN
100
AcDbBlockBegin
 62
2
  6
CONTINUOUS
  2
*D5
 70
65
 10
0.0
 20
0.0
  3
*D5
  1

  0
MTEXT
  5
25E
100
AcDbEntity
  8
A_BEMASSUNGEN
100
AcDbMText
 62
5
  6
CONTINUOUS
  7
TEXTSTYLE_2
 71
2
 72
1
 10
5.2945801524
 20
103.0802505402
 30
0.0
 11
0.0
 21
1.0
 31
0.0
  1
30
 40
3.5
 41
7.875
  0
LINE
  5
25F
100
AcDbEntity
  8
A_BEMASSUNGEN
100
AcDbLine
 62
2
  6
CONTINUOUS
 10
44.5932003797
 20
88.0802505402
 11
7.6695801524
 21
88.0802505402
  0
LINE
  5
260
100
AcDbEntity
  8
A_BEMASSUNGEN
100
AcDbLine
 62
2
  6
CONTINUOUS
 10
44.5932003797
 20
118.0802505402
 11
7.6695801524
 21
118.0802505402
  0
LINE
  5
261
100
AcDbEntity
  8
A_BEMASSUNGEN
100
AcDbLine
 62
2
  6
CONTINUOUS
 10
9.6695801524
 20
88.0802505402
 11
9.6695801524
 21
103.0802505402
  0
LINE
  5
262
100
AcDbEntity
  8
A_BEMASSUNGEN
100
AcDbLine
 62
2
  6
CONTINUOUS
 10
9.6695801524
 20
118.0802505402
 11
9.6695801524
 21
103.0802505402
  0
INSERT
  5
263
100
AcDbEntity
  8
A_BEMASSUNGEN
100
AcDbBlockReference
 62
2
  6
CONTINUOUS
  2
_ARROW_FILLED
 10
9.6695801524
 20
88.0802505402
 41
3.5
 42
3.5
 43
3.5
 50
270.0
  0
INSERT
  5
264
100
AcDbEntity
  8
A_BEMASSUNGEN
100
AcDbBlockReference
 62
2
  6
CONTINUOUS
  2
_ARROW_FILLED
 10
9.6695801524
 20
118.0802505402
 41
3.5
 42
3.5
 43
3.5
 50
90.0
  0
ENDBLK
  5
265
100
AcDbEntity
  8
0
  6
BYBLOCK
 62
0
100
AcDbBlockEnd
  0
BLOCK
  5
266
100
AcDbEntity
  8
A_BEMASSUNGEN
100
AcDbBlockBegin
 62
2
  6
CONTINUOUS
  2
*D6
 70
65
 10
0.0
 20
0.0
  3
*D6
  1

  0
MTEXT
  5
267
100
AcDbEntity
  8
A_BEMASSUNGEN
100
AcDbMText
 62
5
  6
CONTINUOUS
  7
TEXTSTYLE_2
 71
1
 72
1
 10
87.7955962957
 20
168.6879919927
 30
0.0
 11
1.0
 21
0.0
 31
0.0
  1
5
 40
3.5
 41
3.75
  0
LINE
  5
268
100
AcDbEntity
  8
A_BEMASSUNGEN
100
AcDbLine
 62
2
  6
CONTINUOUS
 10
82.5932003797
 20
106.0802505402
 11
82.5932003797
 21
166.3129919927
  0
LINE
  5
269
100
AcDbEntity
  8
A_BEMASSUNGEN
100
AcDbLine
 62
2
  6
CONTINUOUS
 10
77.5932003797
 20
117.4802505402
 11
77.5932003797
 21
166.3129919927
  0
LINE
  5
26A
100
AcDbEntity
  8
A_BEMASSUNGEN
100
AcDbLine
 62
2
  6
CONTINUOUS
 10
82.5932003797
 20
164.3129919927
 11
90.2955962957
 21
164.3129919927
  0
LINE
  5
26B
100
AcDbEntity
  8
A_BEMASSUNGEN
100
AcDbLine
 62
2
  6
CONTINUOUS
 10
90.2955962957
 20
164.3129919927
 11
80.0932003797
 21
164.3129919927
  0
LINE
  5
26C
100
AcDbEntity
  8
A_BEMASSUNGEN
100
AcDbLine
 62
2
  6
CONTINUOUS
 10
77.5932003797
 20
164.3129919927
 11
70.0932003797
 21
164.3129919927
  0
LINE
  5
26D
100
AcDbEntity
  8
A_BEMASSUNGEN
100
AcDbLine
 62
2
  6
CONTINUOUS
 10
70.0932003797
 20
164.3129919927
 11
80.0932003797
 21
164.3129919927
  0
INSERT
  5
26E
100
AcDbEntity
  8
A_BEMASSUNGEN
100
AcDbBlockReference
 62
2
  6
CONTINUOUS
  2
_ARROW_FILLED
 10
82.5932003797
 20
164.3129919927
 41
3.5
 42
3.5
 43
3.5
 50
180.0
  0
INSERT
  5
26F
100
AcDbEntity
  8
A_BEMASSUNGEN
100
AcDbBlockReference
 62
2
  6
CONTINUOUS
  2
_ARROW_FILLED
 10
77.5932003797
 20
164.3129919927
 41
3.5
 42
3.5
 43
3.5
  0
ENDBLK
  5
270
100
AcDbEntity
  8
0
  6
BYBLOCK
 62
0
100
AcDbBlockEnd
  0
BLOCK
  5
271
100
AcDbEntity
  8
A_BEMASSUNGEN
100
AcDbBlockBegin
 62
2
  6
CONTINUOUS
  2
*D7
 70
65
 10
0.0
 20
0.0
  3
*D7
  1

  0
MTEXT
  5
272
100
AcDbEntity
  8
A_BEMASSUNGEN
100
AcDbMText
 62
5
  6
CONTINUOUS
  7
TEXTSTYLE_2
 71
2
 72
1
 10
61.0932003797
 20
168.6879919927
 30
0.0
 11
1.0
 21
0.0
 31
0.0
  1
33
 40
3.5
 41
7.5
  0
LINE
  5
273
100
AcDbEntity
  8
A_BEMASSUNGEN
100
AcDbLine
 62
2
  6
CONTINUOUS
 10
77.5932003797
 20
118.2874577474
 11
77.5932003797
 21
166.3129919927
  0
LINE
  5
274
100
AcDbEntity
  8
A_BEMASSUNGEN
100
AcDbLine
 62
2
  6
CONTINUOUS
 10
44.5932003797
 20
118.0802505402
 11
44.5932003797
 21
166.3129919927
  0
LINE
  5
275
100
AcDbEntity
  8
A_BEMASSUNGEN
100
AcDbLine
 62
2
  6
CONTINUOUS
 10
77.5932003797
 20
164.3129919927
 11
61.0932003797
 21
164.3129919927
  0
LINE
  5
276
100
AcDbEntity
  8
A_BEMASSUNGEN
100
AcDbLine
 62
2
  6
CONTINUOUS
 10
44.5932003797
 20
164.3129919927
 11
61.0932003797
 21
164.3129919927
  0
INSERT
  5
277
100
AcDbEntity
  8
A_BEMASSUNGEN
100
AcDbBlockReference
 62
2
  6
CONTINUOUS
  2
_ARROW_FILLED
 10
77.5932003797
 20
164.3129919927
 41
3.5
 42
3.5
 43
3.5
  0
INSERT
  5
278
100
AcDbEntity
  8
A_BEMASSUNGEN
100
AcDbBlockReference
 62
2
  6
CONTINUOUS
  2
_ARROW_FILLED
 10
44.5932003797
 20
164.3129919927
 41
3.5
 42
3.5
 43
3.5
 50
180.0
  0
ENDBLK
  5
279
100
AcDbEntity
  8
0
  6
BYBLOCK
 62
0
100
AcDbBlockEnd
  0
BLOCK
  5
27A
100
AcDbEntity
  8
A_BEMASSUNGEN
100
AcDbBlockBegin
 62
2
  6
CONTINUOUS
  2
*D8
 70
65
 10
0.0
 20
0.0
  3
*D8
  1

  0
MTEXT
  5
27B
100
AcDbEntity
  8
A_BEMASSUNGEN
100
AcDbMText
 62
5
  6
CONTINUOUS
  7
TEXTSTYLE_2
 71
3
 72
1
 10
183.4060124583
 20
53.1279248943
 30
0.0
 11
0.0
 21
1.0
 31
0.0
  1
3
 40
3.5
 41
3.75
  0
LINE
  5
27C
100
AcDbEntity
  8
A_BEMASSUNGEN
100
AcDbLine
 62
2
  6
CONTINUOUS
 10
167.0932003797
 20
58.0802505402
 11
189.7810124583
 21
58.0802505402
  0
LINE
  5
27D
100
AcDbEntity
  8
A_BEMASSUNGEN
100
AcDbLine
 62
2
  6
CONTINUOUS
 10
102.0932003797
 20
61.0802505402
 11
189.7810124583
 21
61.0802505402
  0
LINE
  5
27E
100
AcDbEntity
  8
A_BEMASSUNGEN
100
AcDbLine
 62
2
  6
CONTINUOUS
 10
187.7810124583
 20
58.0802505402
 11
187.7810124583
 21
50.6279248943
  0
LINE
  5
27F
100
AcDbEntity
  8
A_BEMASSUNGEN
100
AcDbLine
 62
2
  6
CONTINUOUS
 10
187.7810124583
 20
50.6279248943
 11
187.7810124583
 21
59.5802505402
  0
LINE
  5
280
100
AcDbEntity
  8
A_BEMASSUNGEN
100
AcDbLine
 62
2
  6
CONTINUOUS
 10
187.7810124583
 20
61.0802505402
 11
187.7810124583
 21
68.5802505402
  0
LINE
  5
281
100
AcDbEntity
  8
A_BEMASSUNGEN
100
AcDbLine
 62
2
  6
CONTINUOUS
 10
187.7810124583
 20
68.5802505402
 11
187.7810124583
 21
59.5802505402
  0
INSERT
  5
282
100
AcDbEntity
  8
A_BEMASSUNGEN
100
AcDbBlockReference
 62
2
  6
CONTINUOUS
  2
_ARROW_FILLED
 10
187.7810124583
 20
58.0802505402
 41
3.5
 42
3.5
 43
3.5
 50
90.0
  0
INSERT
  5
283
100
AcDbEntity
  8
A_BEMASSUNGEN
100
AcDbBlockReference
 62
2
  6
CONTINUOUS
  2
_ARROW_FILLED
 10
187.7810124583
 20
61.0802505402
 41
3.5
 42
3.5
 43
3.5
 50
270.0
  0
ENDBLK
  5
284
100
AcDbEntity
  8
0
  6
BYBLOCK
 62
0
100
AcDbBlockEnd
  0
BLOCK
  5
285
100
AcDbEntity
  8
A_BEMASSUNGEN
100
AcDbBlockBegin
 62
2
  6
CONTINUOUS
  2
*D9
 70
65
 10
0.0
 20
0.0
  3
*D9
  1

  0
MTEXT
  5
286
100
AcDbEntity
  8
A_BEMASSUNGEN
100
AcDbMText
 62
5
  6
CONTINUOUS
  7
TEXTSTYLE_2
 71
2
 72
1
 10
183.4060124583
 20
81.4302505402
 30
0.0
 11
0.0
 21
1.0
 31
0.0
  1
40.7
 40
3.5
 41
15.375
  0
LINE
  5
287
100
AcDbEntity
  8
A_BEMASSUNGEN
100
AcDbLine
 62
2
  6
CONTINUOUS
 10
102.0932003797
 20
61.0802505402
 11
189.7810124583
 21
61.0802505402
  0
LINE
  5
288
100
AcDbEntity
  8
A_BEMASSUNGEN
100
AcDbLine
 62
2
  6
CONTINUOUS
 10
102.0932003797
 20
101.7802505402
 11
189.7810124583
 21
101.7802505402
  0
LINE
  5
289
100
AcDbEntity
  8
A_BEMASSUNGEN
100
AcDbLine
 62
2
  6
CONTINUOUS
 10
187.7810124583
 20
61.0802505402
 11
187.7810124583
 21
81.4302505402
  0
LINE
  5
28A
100
AcDbEntity
  8
A_BEMASSUNGEN
100
AcDbLine
 62
2
  6
CONTINUOUS
 10
187.7810124583
 20
101.7802505402
 11
187.7810124583
 21
81.4302505402
  0
INSERT
  5
28B
100
AcDbEntity
  8
A_BEMASSUNGEN
100
AcDbBlockReference
 62
2
  6
CONTINUOUS
  2
_ARROW_FILLED
 10
187.7810124583
 20
61.0802505402
 41
3.5
 42
3.5
 43
3.5
 50
270.0
  0
INSERT
  5
28C
100
AcDbEntity
  8
A_BEMASSUNGEN
100
AcDbBlockReference
 62
2
  6
CONTINUOUS
  2
_ARROW_FILLED
 10
187.7810124583
 20
101.7802505402
 41
3.5
 42
3.5
 43
3.5
 50
90.0
  0
ENDBLK
  5
28D
100
AcDbEntity
  8
0
  6
BYBLOCK
 62
0
100
AcDbBlockEnd
  0
ENDSEC
  0
SECTION
  2
ENTITIES
  0
DIMENSION
  5
28E
100
AcDbEntity
  8
A_BEMASSUNGEN
100
AcDbDimension
 62
2
  6
CONTINUOUS
  2
*D0
 10
82.5932003797
 20
49.9840718141
 11
73.0931984954
 21
49.9840718141
 70
160
  3
DIMSTYLE_1
100
AcDbAlignedDimension
 13
64.5932003797
 23
61.1802505402
 14
82.5932003797
 24
83.1803648203
100
AcDbRotatedDimension
  0
DIMENSION
  5
28F
100
AcDbEntity
  8
A_BEMASSUNGEN
100
AcDbDimension
 62
2
  6
CONTINUOUS
  2
*D1
 10
102.0932003797
 20
40.4056346738
 11
82.8431984954
 21
40.4056346738
 70
160
  3
DIMSTYLE_2
100
AcDbAlignedDimension
 13
64.5932003797
 23
61.1802505402
 14
102.0932003797
 24
61.0802505402
100
AcDbRotatedDimension
  0
DIMENSION
  5
290
100
AcDbEntity
  8
A_BEMASSUNGEN
100
AcDbDimension
 62
2
  6
CONTINUOUS
  2
*D2
 10
54.8331117845
 20
73.1802505402
 11
54.8331117845
 21
67.9720375834
 70
160
  3
DIMSTYLE_3
100
AcDbAlignedDimension
 13
75.5932003797
 23
79.0802505402
 14
64.5932003797
 24
73.1802505402
 50
270.0
100
AcDbRotatedDimension
  0
DIMENSION
  5
291
100
AcDbEntity
  8
A_BEMASSUNGEN
100
AcDbDimension
 62
2
  6
CONTINUOUS
  2
*D3
 10
41.8593839572
 20
58.0802505402
 11
41.8593839572
 21
68.0802488891
 70
160
  3
DIMSTYLE_1
100
AcDbAlignedDimension
 13
19.5932003797
 23
79.0802505402
 14
67.5932003797
 24
58.0802505402
 50
270.0
100
AcDbRotatedDimension
  0
DIMENSION
  5
292
100
AcDbEntity
  8
A_BEMASSUNGEN
100
AcDbDimension
 62
2
  6
CONTINUOUS
  2
*D4
 10
9.6695801524
 20
88.0802505402
 11
9.6695801524
 21
83.0802505382
 70
160
  3
DIMSTYLE_1
100
AcDbAlignedDimension
 13
19.5932003797
 23
79.0802505402
 14
44.5932003797
 24
88.0802505402
 50
90.0
100
AcDbRotatedDimension
  0
DIMENSION
  5
293
100
AcDbEntity
  8
A_BEMASSUNGEN
100
AcDbDimension
 62
2
  6
CONTINUOUS
  2
*D5
 10
9.6695801524
 20
118.0802505402
 11
9.6695801524
 21
102.5802505382
 70
160
  3
DIMSTYLE_1
100
AcDbAlignedDimension
 13
44.5932003797
 23
88.0802505402
 14
44.5932003797
 24
118.0802505402
 50
90.0
100
AcDbRotatedDimension
  0
DIMENSION
  5
294
100
AcDbEntity
  8
A_BEMASSUNGEN
100
AcDbDimension
 62
2
  6
CONTINUOUS
  2
*D6
 10
77.5932003797
 20
164.3129919927
 11
88.5455928819
 21
164.3129919927
 70
160
  3
DIMSTYLE_4
100
AcDbAlignedDimension
 13
82.5932003797
 23
106.0802505402
 14
77.5932003797
 24
117.4802505402
 50
180.0
100
AcDbRotatedDimension
  0
DIMENSION
  5
295
100
AcDbEntity
  8
A_BEMASSUNGEN
100
AcDbDimension
 62
2
  6
CONTINUOUS
  2
*D7
 10
44.5932003797
 20
164.3129919927
 11
60.5931984954
 21
164.3129919927
 70
160
  3
DIMSTYLE_2
100
AcDbAlignedDimension
 13
77.5932003797
 23
118.2874577474
 14
44.5932003797
 24
118.0802505402
 50
180.0
100
AcDbRotatedDimension
  0
DIMENSION
  5
296
100
AcDbEntity
  8
A_BEMASSUNGEN
100
AcDbDimension
 62
2
  6
CONTINUOUS
  2
*D8
 10
187.7810124583
 20
61.0802505402
 11
187.7810124583
 21
51.3779292184
 70
160
  3
DIMSTYLE_4
100
AcDbAlignedDimension
 13
167.0932003797
 23
58.0802505402
 14
102.0932003797
 24
61.0802505402
 50
90.0
100
AcDbRotatedDimension
  0
DIMENSION
  5
297
100
AcDbEntity
  8
A_BEMASSUNGEN
100
AcDbDimension
 62
2
  6
CONTINUOUS
  2
*D9
 10
187.7810124583
 20
101.7802505402
 11
187.7810124583
 21
80.9302548643
 70
160
  3
DIMSTYLE_2
100
AcDbAlignedDimension
 13
102.0932003797
 23
61.0802505402
 14
102.0932003797
 24
101.7802505402
 50
90.0
100
AcDbRotatedDimension
  0
LINE
  5
298
100
AcDbEntity
  8
0
100
AcDbLine
 62
7
  6
CONTINUOUS
 10
17.5932003797
 20
155.0802505402
 11
17.5932003797
 21
152.9193495402
  0
LINE
  5
299
100
AcDbEntity
  8
0
100
AcDbLine
 62
7
  6
CONTINUOUS
 10
17.5932003797
 20
99.4060145402
 11
17.5932003797
 21
81.0802505402
  0
LINE
  5
29A
100
AcDbEntity
  8
0
100
AcDbLine
 62
7
  6
CONTINUOUS
 10
18.0932003797
 20
130.4103785402
 11
18.0932003797
 21
115.7501225402
  0
LINE
  5
29B
100
AcDbEntity
  8
0
100
AcDbLine
 62
7
  6
CONTINUOUS
 10
21.5932003797
 20
150.5358425402
 11
21.5932003797
 21
145.7282675402
  0
LINE
  5
29C
100
AcDbEntity
  8
0
100
AcDbLine
 62
7
  6
CONTINUOUS
 10
27.5932003797
 20
144.8828565402
 11
27.5932003797
 21
132.2776435402
  0
LINE
  5
29D
100
AcDbEntity
  8
0
100
AcDbLine
 62
7
  6
CONTINUOUS
 10
27.5932003797
 20
113.8828565402
 11
27.5932003797
 21
101.2776435402
  0
LINE
  5
29E
100
AcDbEntity
  8
0
100
AcDbLine
 62
7
  6
CONTINUOUS
 10
44.5932003797
 20
118.0802505402
 11
44.5932003797
 21
88.0802505402
  0
LINE
  5
29F
100
AcDbEntity
  8
0
100
AcDbLine
 62
7
  6
CONTINUOUS
 10
45.0932003797
 20
92.7302505402
 11
45.0932003797
 21
99.7302505402
  0
LINE
  5
2A0
100
AcDbEntity
  8
0
100
AcDbLine
 62
7
  6
CONTINUOUS
 10
45.0932003797
 20
109.5802505402
 11
45.0932003797
 21
115.5802505402
  0
LINE
  5
2A1
100
AcDbEntity
  8
0
100
AcDbLine
 62
7
  6
CONTINUOUS
 10
47.3432003797
 20
103.0802505402
 11
47.3432003797
 21
109.0802505402
  0
LINE
  5
2A2
100
AcDbEntity
  8
0
100
AcDbLine
 62
7
  6
CONTINUOUS
 10
49.5932003797
 20
100.8302505402
 11
49.5932003797
 21
111.3302505402
  0
LINE
  5
2A3
100
AcDbEntity
  8
0
100
AcDbLine
 62
7
  6
CONTINUOUS
 10
50.5932003797
 20
117.8977788393
 11
50.5932003797
 21
88.262722241
  0
LINE
  5
2A4
100
AcDbEntity
  8
A_FASEN
100
AcDbLine
 62
7
  6
CONTINUOUS
 10
51.0932003797
 20
92.7802505402
 11
51.0932003797
 21
99.7802505402
  0
LINE
  5
2A5
100
AcDbEntity
  8
0
100
AcDbLine
 62
7
  6
CONTINUOUS
 10
52.0932003797
 20
99.7802505402
 11
52.0932003797
 21
92.7802505402
  0
LINE
  5
2A6
100
AcDbEntity
  8
0
100
AcDbLine
 62
7
  6
CONTINUOUS
 10
53.3932003797
 20
91.2653172549
 11
53.3932003797
 21
114.8951838254
  0
LINE
  5
2A7
100
AcDbEntity
  8
0
100
AcDbLine
 62
7
  6
CONTINUOUS
 10
55.0932003797
 20
110.1802505402
 11
55.0932003797
 21
106.1802505402
  0
LINE
  5
2A8
100
AcDbEntity
  8
0
100
AcDbLine
 62
7
  6
CONTINUOUS
 10
55.0932003797
 20
99.6802505402
 11
55.0932003797
 21
95.6802505402
  0
LINE
  5
2A9
100
AcDbEntity
  8
0
100
AcDbLine
 62
7
  6
CONTINUOUS
 10
55.5932003797
 20
110.6802505402
 11
55.5932003797
 21
105.6802505402
  0
LINE
  5
2AA
100
AcDbEntity
  8
0
100
AcDbLine
 62
7
  6
CONTINUOUS
 10
55.5932003797
 20
100.1802505402
 11
55.5932003797
 21
95.1802505402
  0
LINE
  5
2AB
100
AcDbEntity
  8
0
100
AcDbLine
 62
7
  6
CONTINUOUS
 10
56.5932003797
 20
114.7492904057
 11
56.5932003797
 21
110.6802505402
  0
LINE
  5
2AC
100
AcDbEntity
  8
0
100
AcDbLine
 62
7
  6
CONTINUOUS
 10
56.5932003797
 20
91.4112106746
 11
56.5932003797
 21
105.6802505402
  0
LINE
  5
2AD
100
AcDbEntity
  8
0
100
AcDbLine
 62
7
  6
CONTINUOUS
 10
67.5932003797
 20
58.0802505402
 11
167.0932003797
 21
58.0802505402
  0
LINE
  5
2AE
100
AcDbEntity
  8
0
100
AcDbLine
 62
7
  6
CONTINUOUS
 10
61.5932003797
 20
92.2176938578
 11
61.5932003797
 21
103.7428072225
  0
LINE
  5
2AF
100
AcDbEntity
  8
0
100
AcDbLine
 62
7
  6
CONTINUOUS
 10
62.8932003797
 20
116.4650558853
 11
62.8932003797
 21
116.3052505402
  0
LINE
  5
2B0
100
AcDbEntity
  8
0
100
AcDbLine
 62
7
  6
CONTINUOUS
 10
62.8932003797
 20
89.8552505402
 11
62.8932003797
 21
89.695445195
  0
LINE
  5
2B1
100
AcDbEntity
  8
A_FASEN
100
AcDbLine
 62
7
  6
CONTINUOUS
 10
63.5932003797
 20
99.7802505402
 11
63.5932003797
 21
92.7802505402
  0
LINE
  5
2B2
100
AcDbEntity
  8
0
100
AcDbLine
 62
7
  6
CONTINUOUS
 10
64.0932003797
 20
116.30170873
 11
64.0932003797
 21
110.6802505402
  0
LINE
  5
2B3
100
AcDbEntity
  8
0
100
AcDbLine
 62
7
  6
CONTINUOUS
 10
64.0932003797
 20
105.6802505402
 11
64.0932003797
 21
100.2802505402
  0
LINE
  5
2B4
100
AcDbEntity
  8
0
100
AcDbLine
 62
7
  6
CONTINUOUS
 10
64.0932003797
 20
92.2802505402
 11
64.0932003797
 21
89.8587923503
  0
LINE
  5
2B5
100
AcDbEntity
  8
QUER2
100
AcDbLine
 62
7
  6
CONTINUOUS
 10
64.0932003797
 20
91.4802505402
 11
64.0932003797
 21
104.0802505402
  0
LINE
  5
2B6
100
AcDbEntity
  8
QUER2
100
AcDbLine
 62
7
  6
CONTINUOUS
 10
64.0932003797
 20
112.2802505402
 11
64.0932003797
 21
114.4802505402
  0
LINE
  5
2B7
100
AcDbEntity
  8
0
100
AcDbLine
 62
7
  6
CONTINUOUS
 10
64.5932003797
 20
61.1552894992
 11
64.5932003797
 21
61.0802505402
  0
LINE
  5
2B8
100
AcDbEntity
  8
A_RUNDUNGEN
100
AcDbLine
 62
7
  6
CONTINUOUS
 10
64.5932003797
 20
61.1802505402
 11
64.5932003797
 21
73.1802505402
  0
LINE
  5
2B9
100
AcDbEntity
  8
0
100
AcDbLine
 62
7
  6
CONTINUOUS
 10
47.3432003797
 20
109.0802505402
 11
49.5932003797
 21
111.3302505402
  0
LINE
  5
2BA
100
AcDbEntity
  8
A_RUNDUNGEN
100
AcDbLine
 62
7
  6
CONTINUOUS
 10
64.5932003797
 20
61.1802505402
 11
69.7180159918
 21
61.2070842572
  0
LINE
  5
2BB
100
AcDbEntity
  8
A_RUNDUNGEN
100
AcDbLine
 62
7
  6
CONTINUOUS
 10
70.5276581378
 20
61.2113235723
 11
81.5932003797
 21
61.2692631455
  0
LINE
  5
2BC
100
AcDbEntity
  8
0
100
AcDbLine
 62
7
  6
CONTINUOUS
 10
81.5932003797
 20
61.2692631455
 11
100.1036723073
 21
61.3661846355
  0
LINE
  5
2BD
100
AcDbEntity
  8
0
100
AcDbLine
 62
7
  6
CONTINUOUS
 10
64.5932003797
 20
61.0802505402
 11
102.0932003797
 21
61.0802505402
  0
LINE
  5
2BE
100
AcDbEntity
  8
0
100
AcDbLine
 62
7
  6
CONTINUOUS
 10
170.0932003797
 20
61.0802505402
 11
174.5932003797
 21
61.0802505402
  0
LINE
  5
2BF
100
AcDbEntity
  8
QUER2
100
AcDbLine
 62
7
  6
CONTINUOUS
 10
77.0932003797
 20
61.6802505402
 11
70.0932003797
 21
61.6802505402
  0
LINE
  5
2C0
100
AcDbEntity
  8
0
100
AcDbLine
 62
7
  6
CONTINUOUS
 10
88.5932003797
 20
63.1802505402
 11
93.5932003797
 21
63.1802505402
  0
LINE
  5
2C1
100
AcDbEntity
  8
0
100
AcDbLine
 62
7
  6
CONTINUOUS
 10
45.0932003797
 20
99.7302505402
 11
44.5932003797
 21
100.2302505402
  0
LINE
  5
2C2
100
AcDbEntity
  8
0
100
AcDbLine
 62
7
  6
CONTINUOUS
 10
47.3432003797
 20
103.0802505402
 11
49.5932003797
 21
100.8302505402
  0
LINE
  5
2C3
100
AcDbEntity
  8
0
100
AcDbLine
 62
7
  6
CONTINUOUS
 10
55.0932003797
 20
95.6802505402
 11
55.5932003797
 21
95.1802505402
  0
LINE
  5
2C4
100
AcDbEntity
  8
0
100
AcDbLine
 62
7
  6
CONTINUOUS
 10
51.0932003797
 20
99.7802505402
 11
50.5932003797
 21
100.2802505402
  0
LINE
  5
2C5
100
AcDbEntity
  8
QUER2
100
AcDbLine
 62
7
  6
CONTINUOUS
 10
68.16374795
 20
79.3550053763
 11
68.2685418237
 21
78.0507586393
  0
LINE
  5
2C6
100
AcDbEntity
  8
QUER2
100
AcDbLine
 62
7
  6
CONTINUOUS
 10
67.0932003797
 20
113.9802505402
 11
67.0932003797
 21
112.1302505402
  0
LINE
  5
2C7
100
AcDbEntity
  8
DEFAULT_2
100
AcDbLine
 62
8
  6
HIDDEN
 10
67.0932003797
 20
110.6802505402
 11
67.0932003797
 21
105.6802505402
  0
LINE
  5
2C8
100
AcDbEntity
  8
A_RUNDUNGEN
100
AcDbLine
 62
7
  6
CONTINUOUS
 10
67.0932003797
 20
112.1302505402
 11
67.0932003797
 21
104.2302505402
  0
LINE
  5
2C9
100
AcDbEntity
  8
QUER2
100
AcDbLine
 62
7
  6
CONTINUOUS
 10
67.0932003797
 20
104.3375565536
 11
67.0932003797
 21
102.3802505402
  0
LINE
  5
2CA
100
AcDbEntity
  8
0
100
AcDbLine
 62
7
  6
CONTINUOUS
 10
67.9932003797
 20
116.5095629111
 11
67.9932003797
 21
116.3357435144
  0
LINE
  5
2CB
100
AcDbEntity
  8
0
100
AcDbLine
 62
7
  6
CONTINUOUS
 10
67.9932003797
 20
89.8247575659
 11
67.9932003797
 21
89.6509381693
  0
LINE
  5
2CC
100
AcDbEntity
  8
0
100
AcDbLine
 62
7
  6
CONTINUOUS
 10
69.01180296
 20
116.3446327245
 11
69.01180296
 21
114.7802505402
  0
LINE
  5
2CD
100
AcDbEntity
  8
0
100
AcDbLine
 62
7
  6
CONTINUOUS
 10
69.01180296
 20
91.1802505402
 11
69.01180296
 21
89.8158683558
  0
LINE
  5
2CE
100
AcDbEntity
  8
0
100
AcDbLine
 62
7
  6
CONTINUOUS
 10
69.0932003797
 20
119.0802505402
 11
69.0932003797
 21
124.0802505402
  0
LINE
  5
2CF
100
AcDbEntity
  8
A_ACHSEN
100
AcDbLine
 62
7
  6
CENTER
 10
70.0932003797
 20
59.2778082527
 11
70.0932003797
 21
74.0826928276
  0
LINE
  5
2D0
100
AcDbEntity
  8
DEFAULT_2
100
AcDbLine
 62
8
  6
HIDDEN
 10
72.0932003797
 20
110.4274044048
 11
72.0932003797
 21
105.9330966755
  0
LINE
  5
2D1
100
AcDbEntity
  8
A_RUNDUNGEN
100
AcDbLine
 62
7
  6
CONTINUOUS
 10
72.0932003797
 20
112.1302505402
 11
72.0932003797
 21
104.2302505402
  0
LINE
  5
2D2
100
AcDbEntity
  8
DEFAULT_2
100
AcDbLine
 62
8
  6
HIDDEN
 10
72.0932003797
 20
110.4281663063
 11
71.879060069
 21
109.8003578676
  0
LINE
  5
2D3
100
AcDbEntity
  8
A_FLAECHEN
100
AcDbLine
 62
8
  6
HIDDEN
 10
69.7308857438
 20
109.8026371815
 11
68.7942003797
 21
108.1802505402
  0
LINE
  5
2D4
100
AcDbEntity
  8
0
100
AcDbLine
 62
7
  6
CONTINUOUS
 10
55.5932003797
 20
110.6802505402
 11
55.0932003797
 21
110.1802505402
  0
LINE
  5
2D5
100
AcDbEntity
  8
0
100
AcDbLine
 62
7
  6
CONTINUOUS
 10
45.0932003797
 20
92.7302505402
 11
44.5932003797
 21
92.2302505402
  0
LINE
  5
2D6
100
AcDbEntity
  8
A_RUNDUNGEN
100
AcDbLine
 62
7
  6
CONTINUOUS
 10
81.3328708167
 20
61.6244656338
 11
81.5932003797
 21
61.6802505402
  0
LINE
  5
2D7
100
AcDbEntity
  8
0
100
AcDbLine
 62
7
  6
CONTINUOUS
 10
81.5932003797
 20
61.6802505402
 11
88.5932003797
 21
63.1802505402
  0
LINE
  5
2D8
100
AcDbEntity
  8
A_ACHSEN
100
AcDbLine
 62
7
  6
CENTER
 10
62.6907580922
 20
66.6802505402
 11
77.4956426671
 21
66.6802505402
  0
LINE
  5
2D9
100
AcDbEntity
  8
QUER2
100
AcDbLine
 62
7
  6
CONTINUOUS
 10
70.0932003797
 20
71.6802505402
 11
77.0932003797
 21
71.6802505402
  0
LINE
  5
2DA
100
AcDbEntity
  8
0
100
AcDbLine
 62
7
  6
CONTINUOUS
 10
63.5932003797
 20
92.7802505402
 11
64.0932003797
 21
92.2802505402
  0
LINE
  5
2DB
100
AcDbEntity
  8
0
100
AcDbLine
 62
7
  6
CONTINUOUS
 10
55.0932003797
 20
106.1802505402
 11
55.5932003797
 21
105.6802505402
  0
LINE
  5
2DC
100
AcDbEntity
  8
0
100
AcDbLine
 62
7
  6
CONTINUOUS
 10
73.0932003797
 20
116.3802505402
 11
73.0932003797
 21
114.4802505402
  0
LINE
  5
2DD
100
AcDbEntity
  8
0
100
AcDbLine
 62
7
  6
CONTINUOUS
 10
73.0932003797
 20
91.1802505402
 11
73.0932003797
 21
89.7802505402
  0
LINE
  5
2DE
100
AcDbEntity
  8
QUER2
100
AcDbLine
 62
7
  6
CONTINUOUS
 10
73.0932003797
 20
102.6802505402
 11
73.0932003797
 21
114.4802505402
  0
LINE
  5
2DF
100
AcDbEntity
  8
0
100
AcDbLine
 62
7
  6
CONTINUOUS
 10
75.8932003797
 20
118.0302505402
 11
75.8932003797
 21
117.9767595272
  0
LINE
  5
2E0
100
AcDbEntity
  8
0
100
AcDbLine
 62
7
  6
CONTINUOUS
 10
75.8932003797
 20
88.1302505402
 11
75.8932003797
 21
88.1837415531
  0
LINE
  5
2E1
100
AcDbEntity
  8
A_RUNDUNGEN
100
AcDbLine
 62
7
  6
CONTINUOUS
 10
75.8932003797
 20
102.5402327299
 11
75.8932003797
 21
103.6198808788
  0
LINE
  5
2E2
100
AcDbEntity
  8
0
100
AcDbLine
 62
7
  6
CONTINUOUS
 10
76.0932003797
 20
117.9802505402
 11
76.0932003797
 21
116.5802505402
  0
LINE
  5
2E3
100
AcDbEntity
  8
A_RUNDUNGEN
100
AcDbLine
 62
7
  6
CONTINUOUS
 10
76.0932003797
 20
116.5802505402
 11
76.0932003797
 21
101.1802505402
  0
LINE
  5
2E4
100
AcDbEntity
  8
A_RUNDUNGEN
100
AcDbLine
 62
7
  6
CONTINUOUS
 10
76.0932003797
 20
91.1802505402
 11
76.0932003797
 21
89.5802505402
  0
LINE
  5
2E5
100
AcDbEntity
  8
0
100
AcDbLine
 62
7
  6
CONTINUOUS
 10
76.0932003797
 20
89.5802505402
 11
76.0932003797
 21
88.1802505402
  0
LINE
  5
2E6
100
AcDbEntity
  8
A_RUNDUNGEN
100
AcDbLine
 62
7
  6
CONTINUOUS
 10
77.5932003797
 20
117.9802505402
 11
77.5932003797
 21
117.4802505402
  0
LINE
  5
2E7
100
AcDbEntity
  8
A_RUNDUNGEN
100
AcDbLine
 62
7
  6
CONTINUOUS
 10
77.5932003797
 20
88.6802505402
 11
77.5932003797
 21
88.1802505402
  0
LINE
  5
2E8
100
AcDbEntity
  8
0
100
AcDbLine
 62
7
  6
CONTINUOUS
 10
77.5932003797
 20
81.0802505402
 11
77.5932003797
 21
88.1985300204
  0
LINE
  5
2E9
100
AcDbEntity
  8
0
100
AcDbLine
 62
7
  6
CONTINUOUS
 10
77.5932003797
 20
117.9619710599
 11
77.5932003797
 21
119.0802505402
  0
LINE
  5
2EA
100
AcDbEntity
  8
QUER2
100
AcDbLine
 62
7
  6
CONTINUOUS
 10
74.5944163137
 20
78.9265148005
 11
74.6827381445
 21
80.408368196
  0
LINE
  5
2EB
100
AcDbEntity
  8
QUER2
100
AcDbLine
 62
7
  6
CONTINUOUS
 10
73.7834441089
 20
81.3153714373
 11
73.6662331615
 21
79.9814537336
  0
LINE
  5
2EC
100
AcDbEntity
  8
0
100
AcDbLine
 62
7
  6
CONTINUOUS
 10
55.5932003797
 20
100.1802505402
 11
55.0932003797
 21
99.6802505402
  0
LINE
  5
2ED
100
AcDbEntity
  8
0
100
AcDbLine
 62
7
  6
CONTINUOUS
 10
51.0932003797
 20
92.7802505402
 11
50.5932003797
 21
92.2802505402
  0
LINE
  5
2EE
100
AcDbEntity
  8
A_RUNDUNGEN
100
AcDbLine
 62
7
  6
CONTINUOUS
 10
95.6193799862
 20
73.4510119076
 11
95.1408729641
 21
73.4468360401
  0
LINE
  5
2EF
100
AcDbEntity
  8
A_RUNDUNGEN
100
AcDbLine
 62
7
  6
CONTINUOUS
 10
79.3035444896
 20
73.3086257684
 11
64.5932003797
 21
73.1802505402
  0
LINE
  5
2F0
100
AcDbEntity
  8
0
100
AcDbLine
 62
7
  6
CONTINUOUS
 10
98.5932003797
 20
73.1802505402
 11
96.5932003797
 21
73.1802505402
  0
LINE
  5
2F1
100
AcDbEntity
  8
0
100
AcDbLine
 62
7
  6
CONTINUOUS
 10
85.3172238114
 20
78.0802505402
 11
82.5932003797
 21
78.0802505402
  0
LINE
  5
2F2
100
AcDbEntity
  8
0
100
AcDbLine
 62
7
  6
CONTINUOUS
 10
101.5932003797
 20
66.1802505402
 11
102.0932003797
 21
65.6802505402
  0
LINE
  5
2F3
100
AcDbEntity
  8
A_FLAECHEN
100
AcDbLine
 62
8
  6
HIDDEN
 10
69.7308857438
 20
106.5578638988
 11
68.7942003797
 21
108.1802505402
  0
LINE
  5
2F4
100
AcDbEntity
  8
DEFAULT_2
100
AcDbLine
 62
8
  6
HIDDEN
 10
72.0932003797
 20
105.932334774
 11
71.879060069
 21
106.5601432127
  0
LINE
  5
2F5
100
AcDbEntity
  8
0
100
AcDbLine
 62
7
  6
CONTINUOUS
 10
81.5932003797
 20
61.2692631455
 11
81.5932003797
 21
61.6802505402
  0
LINE
  5
2F6
100
AcDbEntity
  8
0
100
AcDbLine
 62
7
  6
CONTINUOUS
 10
82.5932003797
 20
82.1802505402
 11
82.5932003797
 21
78.0802505402
  0
LINE
  5
2F7
100
AcDbEntity
  8
A_RUNDUNGEN
100
AcDbLine
 62
7
  6
CONTINUOUS
 10
82.5932003797
 20
82.1802505402
 11
82.5932003797
 21
85.029621457
  0
LINE
  5
2F8
100
AcDbEntity
  8
A_RUNDUNGEN
100
AcDbLine
 62
7
  6
CONTINUOUS
 10
82.5932003797
 20
86.1802505402
 11
82.5932003797
 21
89.4461508769
  0
LINE
  5
2F9
100
AcDbEntity
  8
0
100
AcDbLine
 62
7
  6
CONTINUOUS
 10
82.5932003797
 20
100.3942065393
 11
82.5932003797
 21
106.0802505402
  0
LINE
  5
2FA
100
AcDbEntity
  8
0
100
AcDbLine
 62
7
  6
CONTINUOUS
 10
83.483337421
 20
116.2545620125
 11
82.5932003797
 21
106.0802505402
  0
LINE
  5
2FB
100
AcDbEntity
  8
0
100
AcDbLine
 62
7
  6
CONTINUOUS
 10
63.5932003797
 20
99.7802505402
 11
64.0932003797
 21
100.2802505402
  0
LINE
  5
2FC
100
AcDbEntity
  8
QUER2
100
AcDbLine
 62
7
  6
CONTINUOUS
 10
86.9253631301
 20
75.5392014834
 11
85.9865020945
 21
75.3736549517
  0
LINE
  5
2FD
100
AcDbEntity
  8
0
100
AcDbLine
 62
7
  6
CONTINUOUS
 10
19.5932003797
 20
79.0802505402
 11
75.5932003797
 21
79.0802505402
  0
LINE
  5
2FE
100
AcDbEntity
  8
0
100
AcDbLine
 62
7
  6
CONTINUOUS
 10
102.0932003797
 20
81.6802505402
 11
101.5932003797
 21
81.6802505402
  0
LINE
  5
2FF
100
AcDbEntity
  8
0
100
AcDbLine
 62
7
  6
CONTINUOUS
 10
102.0932003797
 20
82.6802505402
 11
101.5932003797
 21
82.6802505402
  0
LINE
  5
300
100
AcDbEntity
  8
0
100
AcDbLine
 62
7
  6
CONTINUOUS
 10
102.0932003797
 20
85.1772361332
 11
101.5932003797
 21
85.1772361332
  0
LINE
  5
301
100
AcDbEntity
  8
0
100
AcDbLine
 62
7
  6
CONTINUOUS
 10
82.5932003797
 20
82.1802505402
 11
85.3122575185
 21
82.1090495232
  0
LINE
  5
302
100
AcDbEntity
  8
A_RUNDUNGEN
100
AcDbLine
 62
7
  6
CONTINUOUS
 10
82.5932003797
 20
82.1802505402
 11
85.3122575185
 21
82.1090495232
  0
LINE
  5
303
100
AcDbEntity
  8
0
100
AcDbLine
 62
7
  6
CONTINUOUS
 10
86.3959542176
 20
82.0806719264
 11
86.8014458221
 21
82.0700537551
  0
LINE
  5
304
100
AcDbEntity
  8
A_RUNDUNGEN
100
AcDbLine
 62
7
  6
CONTINUOUS
 10
86.3959542176
 20
82.0806719264
 11
86.8014458221
 21
82.0700537551
  0
LINE
  5
305
100
AcDbEntity
  8
QUER2
100
AcDbLine
 62
7
  6
CONTINUOUS
 10
83.2342129392
 20
72.5020051396
 11
83.1087660902
 21
71.7159242382
  0
LINE
  5
306
100
AcDbEntity
  8
QUER2
100
AcDbLine
 62
7
  6
CONTINUOUS
 10
83.1497959682
 20
72.5369488253
 11
82.9842494365
 21
71.5980877898
  0
LINE
  5
307
100
AcDbEntity
  8
0
100
AcDbLine
 62
7
  6
CONTINUOUS
 10
82.5932003797
 20
86.1802505402
 11
85.5279125633
 21
86.2570986832
  0
LINE
  5
308
100
AcDbEntity
  8
A_RUNDUNGEN
100
AcDbLine
 62
7
  6
CONTINUOUS
 10
82.5932003797
 20
86.1802505402
 11
85.5279125633
 21
86.2570986832
  0
LINE
  5
309
100
AcDbEntity
  8
0
100
AcDbLine
 62
7
  6
CONTINUOUS
 10
96.1431231318
 20
86.5350677546
 11
96.5932003797
 21
86.5468534421
  0
LINE
  5
30A
100
AcDbEntity
  8
A_RUNDUNGEN
100
AcDbLine
 62
7
  6
CONTINUOUS
 10
96.1431231318
 20
86.5350677546
 11
96.5932003797
 21
86.5468534421
  0
LINE
  5
30B
100
AcDbEntity
  8
0
100
AcDbLine
 62
7
  6
CONTINUOUS
 10
101.5932003797
 20
86.3296569213
 11
102.0932003797
 21
86.3296569213
  0
LINE
  5
30C
100
AcDbEntity
  8
0
100
AcDbLine
 62
7
  6
CONTINUOUS
 10
102.0932003797
 20
87.0979189117
 11
101.5932003797
 21
87.0979189117
  0
LINE
  5
30D
100
AcDbEntity
  8
0
100
AcDbLine
 62
7
  6
CONTINUOUS
 10
77.5932003797
 20
88.0802505402
 11
44.5932003797
 21
88.0802505402
  0
LINE
  5
30E
100
AcDbEntity
  8
A_RUNDUNGEN
100
AcDbLine
 62
7
  6
CONTINUOUS
 10
77.5932003797
 20
88.1802505402
 11
76.0932003797
 21
88.1802505402
  0
LINE
  5
30F
100
AcDbEntity
  8
0
100
AcDbLine
 62
7
  6
CONTINUOUS
 10
102.0932003797
 20
89.5949045047
 11
101.5932003797
 21
89.5949045047
  0
LINE
  5
310
100
AcDbEntity
  8
A_RUNDUNGEN
100
AcDbLine
 62
7
  6
CONTINUOUS
 10
54.8932003797
 20
89.8552505402
 11
63.0801105764
 21
89.8552505402
  0
LINE
  5
311
100
AcDbEntity
  8
0
100
AcDbLine
 62
7
  6
CONTINUOUS
 10
102.0932003797
 20
90.6802505402
 11
101.5932003797
 21
90.6802505402
  0
LINE
  5
312
100
AcDbEntity
  8
QUER2
100
AcDbLine
 62
7
  6
CONTINUOUS
 10
77.0932003797
 20
91.1802505402
 11
64.3932003797
 21
91.1802505402
  0
LINE
  5
313
100
AcDbEntity
  8
0
100
AcDbLine
 62
7
  6
CONTINUOUS
 10
96.5932003797
 20
92.1802505402
 11
99.0932003797
 21
92.1802505402
  0
LINE
  5
314
100
AcDbEntity
  8
A_RUNDUNGEN
100
AcDbLine
 62
7
  6
CONTINUOUS
 10
75.8932003797
 20
88.1302505402
 11
50.5932003797
 21
88.262722241
  0
LINE
  5
315
100
AcDbEntity
  8
0
100
AcDbLine
 62
7
  6
CONTINUOUS
 10
50.5932003797
 20
88.262722241
 11
46.582728452
 21
88.2837212148
  0
LINE
  5
316
100
AcDbEntity
  8
0
100
AcDbLine
 62
7
  6
CONTINUOUS
 10
54.8801105764
 20
89.7653743703
 11
76.0932003797
 21
89.5802505402
  0
LINE
  5
317
100
AcDbEntity
  8
0
100
AcDbLine
 62
7
  6
CONTINUOUS
 10
73.0932003797
 20
89.7802505402
 11
69.01180296
 21
89.8158683558
  0
LINE
  5
318
100
AcDbEntity
  8
A_RUNDUNGEN
100
AcDbLine
 62
7
  6
CONTINUOUS
 10
69.01180296
 20
89.8158683558
 11
64.0932003797
 21
89.8587923503
  0
LINE
  5
319
100
AcDbEntity
  8
0
100
AcDbLine
 62
7
  6
CONTINUOUS
 10
64.0932003797
 20
89.8587923503
 11
58.0801105764
 21
89.91126779
  0
LINE
  5
31A
100
AcDbEntity
  8
0
100
AcDbLine
 62
7
  6
CONTINUOUS
 10
76.0932003797
 20
88.1802505402
 11
52.06702177
 21
88.5996290478
  0
LINE
  5
31B
100
AcDbEntity
  8
0
100
AcDbLine
 62
7
  6
CONTINUOUS
 10
61.5932003797
 20
93.2428072225
 11
56.5932003797
 21
93.6802505402
  0
LINE
  5
31C
100
AcDbEntity
  8
0
100
AcDbLine
 62
7
  6
CONTINUOUS
 10
95.5932003797
 20
126.0802505402
 11
95.5932003797
 21
142.6684135402
  0
LINE
  5
31D
100
AcDbEntity
  8
0
100
AcDbLine
 62
7
  6
CONTINUOUS
 10
96.5932003797
 20
73.1802505402
 11
96.5932003797
 21
92.1802505402
  0
LINE
  5
31E
100
AcDbEntity
  8
0
100
AcDbLine
 62
7
  6
CONTINUOUS
 10
98.5932003797
 20
68.1802505402
 11
98.5932003797
 21
97.8000404887
  0
LINE
  5
31F
100
AcDbEntity
  8
0
100
AcDbLine
 62
7
  6
CONTINUOUS
 10
99.0932003797
 20
97.6802505402
 11
99.0932003797
 21
92.1802505402
  0
LINE
  5
320
100
AcDbEntity
  8
0
100
AcDbLine
 62
7
  6
CONTINUOUS
 10
102.4483264467
 20
128.6011949203
 11
100.7389085183
 21
118.9066023263
  0
LINE
  5
321
100
AcDbEntity
  8
0
100
AcDbLine
 62
7
  6
CONTINUOUS
 10
61.5932003797
 20
92.2176938578
 11
56.5932003797
 21
91.7802505402
  0
LINE
  5
322
100
AcDbEntity
  8
0
100
AcDbLine
 62
7
  6
CONTINUOUS
 10
99.0932003797
 20
92.6802505402
 11
98.5932003797
 21
92.6802505402
  0
LINE
  5
323
100
AcDbEntity
  8
0
100
AcDbLine
 62
7
  6
CONTINUOUS
 10
99.0932003797
 20
92.7653569204
 11
98.5932003797
 21
92.7653569204
  0
LINE
  5
324
100
AcDbEntity
  8
0
100
AcDbLine
 62
7
  6
CONTINUOUS
 10
53.3932003797
 20
92.7802505402
 11
51.0932003797
 21
92.7802505402
  0
LINE
  5
325
100
AcDbEntity
  8
0
100
AcDbLine
 62
7
  6
CONTINUOUS
 10
61.5932003797
 20
92.7802505402
 11
63.5932003797
 21
92.7802505402
  0
LINE
  5
326
100
AcDbEntity
  8
0
100
AcDbLine
 62
7
  6
CONTINUOUS
 10
99.0932003797
 20
92.9355696885
 11
98.5932003797
 21
92.9355696885
  0
LINE
  5
327
100
AcDbEntity
  8
0
100
AcDbLine
 62
7
  6
CONTINUOUS
 10
99.0932003797
 20
93.2759952096
 11
98.5932003797
 21
93.2759952096
  0
LINE
  5
328
100
AcDbEntity
  8
0
100
AcDbLine
 62
7
  6
CONTINUOUS
 10
99.0932003797
 20
93.6164207605
 11
98.5932003797
 21
93.6164207605
  0
LINE
  5
329
100
AcDbEntity
  8
0
100
AcDbLine
 62
7
  6
CONTINUOUS
 10
99.0932003797
 20
94.0419526247
 11
98.5932003797
 21
94.0419526247
  0
LINE
  5
32A
100
AcDbEntity
  8
0
100
AcDbLine
 62
7
  6
CONTINUOUS
 10
56.5932003797
 20
95.1802505402
 11
55.5932003797
 21
95.1802505402
  0
LINE
  5
32B
100
AcDbEntity
  8
A_RUNDUNGEN
100
AcDbLine
 62
7
  6
CONTINUOUS
 10
55.5932003797
 20
95.1802505402
 11
56.5932003797
 21
95.1802505402
  0
LINE
  5
32C
100
AcDbEntity
  8
0
100
AcDbLine
 62
7
  6
CONTINUOUS
 10
99.0932003797
 20
95.3185483364
 11
98.5932003797
 21
95.3185483364
  0
LINE
  5
32D
100
AcDbEntity
  8
0
100
AcDbLine
 62
2
  6
CONTINUOUS
 10
55.0932003797
 20
95.6802505402
 11
56.5932003797
 21
95.6802505402
  0
LINE
  5
32E
100
AcDbEntity
  8
0
100
AcDbLine
 62
7
  6
CONTINUOUS
 10
99.0932003797
 20
95.744080439
 11
98.5932003797
 21
95.744080439
  0
LINE
  5
32F
100
AcDbEntity
  8
0
100
AcDbLine
 62
7
  6
CONTINUOUS
 10
99.0932003797
 20
96.0845059303
 11
98.5932003797
 21
96.0845059303
  0
LINE
  5
330
100
AcDbEntity
  8
0
100
AcDbLine
 62
7
  6
CONTINUOUS
 10
99.0932003797
 20
96.4249314217
 11
98.5932003797
 21
96.4249314217
  0
LINE
  5
331
100
AcDbEntity
  8
0
100
AcDbLine
 62
7
  6
CONTINUOUS
 10
99.0932003797
 20
96.5951441673
 11
98.5932003797
 21
96.5951441673
  0
LINE
  5
332
100
AcDbEntity
  8
0
100
AcDbLine
 62
7
  6
CONTINUOUS
 10
99.0932003797
 20
96.6802505402
 11
98.5932003797
 21
96.6802505402
  0
LINE
  5
333
100
AcDbEntity
  8
0
100
AcDbLine
 62
7
  6
CONTINUOUS
 10
98.5932003797
 20
97.6802505402
 11
99.0932003797
 21
97.6802505402
  0
LINE
  5
334
100
AcDbEntity
  8
0
100
AcDbLine
 62
7
  6
CONTINUOUS
 10
174.5932003797
 20
98.0802505402
 11
172.0932003797
 21
98.0802505402
  0
LINE
  5
335
100
AcDbEntity
  8
A_RUNDUNGEN
100
AcDbLine
 62
7
  6
CONTINUOUS
 10
88.0415905267
 20
99.5375794231
 11
84.6807124028
 21
99.625587114
  0
LINE
  5
336
100
AcDbEntity
  8
0
100
AcDbLine
 62
7
  6
CONTINUOUS
 10
88.2677259926
 20
99.5316578575
 11
97.1324658021
 21
99.2995264761
  0
LINE
  5
337
100
AcDbEntity
  8
0
100
AcDbLine
 62
7
  6
CONTINUOUS
 10
56.5932003797
 20
99.5802505402
 11
61.5932003797
 21
99.1428072225
  0
LINE
  5
338
100
AcDbEntity
  8
0
100
AcDbLine
 62
7
  6
CONTINUOUS
 10
88.0422690891
 20
99.5634926757
 11
82.5932003797
 21
100.9802505402
  0
LINE
  5
339
100
AcDbEntity
  8
0
100
AcDbLine
 62
7
  6
CONTINUOUS
 10
101.5932003797
 20
90.6802505402
 11
101.5932003797
 21
89.5949045047
  0
LINE
  5
33A
100
AcDbEntity
  8
0
100
AcDbLine
 62
7
  6
CONTINUOUS
 10
101.5932003797
 20
87.0979189117
 11
101.5932003797
 21
85.1772361332
  0
LINE
  5
33B
100
AcDbEntity
  8
0
100
AcDbLine
 62
7
  6
CONTINUOUS
 10
101.5932003797
 20
82.6802505402
 11
101.5932003797
 21
81.6802505402
  0
LINE
  5
33C
100
AcDbEntity
  8
0
100
AcDbLine
 62
7
  6
CONTINUOUS
 10
101.5932003797
 20
66.1802505402
 11
101.5932003797
 21
73.1802505402
  0
LINE
  5
33D
100
AcDbEntity
  8
0
100
AcDbLine
 62
7
  6
CONTINUOUS
 10
102.0932003797
 20
101.7802505402
 11
102.0932003797
 21
61.0802505402
  0
LINE
  5
33E
100
AcDbEntity
  8
0
100
AcDbLine
 62
7
  6
CONTINUOUS
 10
27.2958183576
 20
100.97765554
 11
19.0801104639
 21
100.9059575322
  0
LINE
  5
33F
100
AcDbEntity
  8
0
100
AcDbLine
 62
2
  6
CONTINUOUS
 10
55.0932003797
 20
99.6802505402
 11
56.5932003797
 21
99.6802505402
  0
LINE
  5
340
100
AcDbEntity
  8
0
100
AcDbLine
 62
7
  6
CONTINUOUS
 10
53.3932003797
 20
99.7802505402
 11
51.0932003797
 21
99.7802505402
  0
LINE
  5
341
100
AcDbEntity
  8
0
100
AcDbLine
 62
7
  6
CONTINUOUS
 10
61.5932003797
 20
99.7802505402
 11
63.5932003797
 21
99.7802505402
  0
LINE
  5
342
100
AcDbEntity
  8
0
100
AcDbLine
 62
7
  6
CONTINUOUS
 10
56.5932003797
 20
100.1802505402
 11
55.5932003797
 21
100.1802505402
  0
LINE
  5
343
100
AcDbEntity
  8
A_RUNDUNGEN
100
AcDbLine
 62
7
  6
CONTINUOUS
 10
55.5932003797
 20
100.1802505402
 11
56.5932003797
 21
100.1802505402
  0
LINE
  5
344
100
AcDbEntity
  8
0
100
AcDbLine
 62
7
  6
CONTINUOUS
 10
49.5932003797
 20
100.8302505402
 11
50.5932003797
 21
100.8302505402
  0
LINE
  5
345
100
AcDbEntity
  8
QUER2
100
AcDbLine
 62
7
  6
CONTINUOUS
 10
74.5932003797
 20
101.1802505402
 11
77.0932003797
 21
101.1802505402
  0
LINE
  5
346
100
AcDbEntity
  8
0
100
AcDbLine
 62
7
  6
CONTINUOUS
 10
82.5932003797
 20
101.7802505402
 11
102.0932003797
 21
101.7802505402
  0
LINE
  5
347
100
AcDbEntity
  8
QUER2
100
AcDbLine
 62
7
  6
CONTINUOUS
 10
73.123506534
 20
102.3802505402
 11
67.0932003797
 21
102.3802505402
  0
LINE
  5
348
100
AcDbEntity
  8
0
100
AcDbLine
 62
7
  6
CONTINUOUS
 10
44.5932003797
 20
103.0802505402
 11
47.3432003797
 21
103.0802505402
  0
LINE
  5
349
100
AcDbEntity
  8
0
100
AcDbLine
 62
7
  6
CONTINUOUS
 10
71.7932003797
 20
103.9302505402
 11
67.3932003797
 21
103.9302505402
  0
LINE
  5
34A
100
AcDbEntity
  8
QUER2
100
AcDbLine
 62
7
  6
CONTINUOUS
 10
67.0932003797
 20
104.0802505402
 11
64.0932003797
 21
104.0802505402
  0
LINE
  5
34B
100
AcDbEntity
  8
0
100
AcDbLine
 62
7
  6
CONTINUOUS
 10
53.3932003797
 20
105.1802505402
 11
50.5932003797
 21
105.1802505402
  0
LINE
  5
34C
100
AcDbEntity
  8
0
100
AcDbLine
 62
7
  6
CONTINUOUS
 10
66.7932003797
 20
105.6802505402
 11
55.5932003797
 21
105.6802505402
  0
LINE
  5
34D
100
AcDbEntity
  8
A_RUNDUNGEN
100
AcDbLine
 62
7
  6
CONTINUOUS
 10
55.5932003797
 20
105.6802505402
 11
66.7932003797
 21
105.6802505402
  0
LINE
  5
34E
100
AcDbEntity
  8
0
100
AcDbLine
 62
7
  6
CONTINUOUS
 10
82.5932003797
 20
101.5860018993
 11
100.1036723073
 21
101.4943164448
  0
LINE
  5
34F
100
AcDbEntity
  8
0
100
AcDbLine
 62
7
  6
CONTINUOUS
 10
56.5932003797
 20
104.1802505402
 11
61.5932003797
 21
103.7428072225
  0
LINE
  5
350
100
AcDbEntity
  8
A_ACHSEN
100
AcDbLine
 62
7
  6
CENTER
 10
43.5932003797
 20
106.0802505402
 11
53.5932003797
 21
106.0802505402
  0
LINE
  5
351
100
AcDbEntity
  8
0
100
AcDbLine
 62
7
  6
CONTINUOUS
 10
172.0932003797
 20
106.0802505402
 11
174.5932003797
 21
106.0802505402
  0
LINE
  5
352
100
AcDbEntity
  8
A_FLAECHEN
100
AcDbLine
 62
8
  6
HIDDEN
 10
70.0572385435
 20
106.1732098128
 11
72.0721904349
 21
106.1732098128
  0
LINE
  5
353
100
AcDbEntity
  8
0
100
AcDbLine
 62
2
  6
CONTINUOUS
 10
55.0932003797
 20
106.1802505402
 11
67.0932003797
 21
106.1802505402
  0
LINE
  5
354
100
AcDbEntity
  8
A_FLAECHEN
100
AcDbLine
 62
8
  6
HIDDEN
 10
69.730794877
 20
106.5602505402
 11
71.8790598852
 21
106.5602505402
  0
LINE
  5
355
100
AcDbEntity
  8
A_ACHSEN
100
AcDbLine
 62
7
  6
CENTER
 10
52.0932003797
 20
108.1802505402
 11
75.0932003797
 21
108.1802505402
  0
LINE
  5
356
100
AcDbEntity
  8
0
100
AcDbLine
 62
7
  6
CONTINUOUS
 10
44.5932003797
 20
109.0802505402
 11
47.3432003797
 21
109.0802505402
  0
LINE
  5
357
100
AcDbEntity
  8
0
100
AcDbLine
 62
7
  6
CONTINUOUS
 10
44.5932003797
 20
109.5802505402
 11
45.0932003797
 21
109.5802505402
  0
LINE
  5
358
100
AcDbEntity
  8
A_FLAECHEN
100
AcDbLine
 62
8
  6
HIDDEN
 10
69.730794877
 20
109.8002505402
 11
71.8790598852
 21
109.8002505402
  0
LINE
  5
359
100
AcDbEntity
  8
0
100
AcDbLine
 62
2
  6
CONTINUOUS
 10
55.0932003797
 20
110.1802505402
 11
67.0932003797
 21
110.1802505402
  0
LINE
  5
35A
100
AcDbEntity
  8
A_FLAECHEN
100
AcDbLine
 62
8
  6
HIDDEN
 10
70.0572385435
 20
110.1872912675
 11
72.0721904349
 21
110.1872912675
  0
LINE
  5
35B
100
AcDbEntity
  8
0
100
AcDbLine
 62
7
  6
CONTINUOUS
 10
45.0932003797
 20
110.6369505402
 11
44.5932003797
 21
110.6369505402
  0
LINE
  5
35C
100
AcDbEntity
  8
0
100
AcDbLine
 62
7
  6
CONTINUOUS
 10
66.7932003797
 20
110.6802505402
 11
55.5932003797
 21
110.6802505402
  0
LINE
  5
35D
100
AcDbEntity
  8
A_RUNDUNGEN
100
AcDbLine
 62
7
  6
CONTINUOUS
 10
55.5932003797
 20
110.6802505402
 11
66.7932003797
 21
110.6802505402
  0
LINE
  5
35E
100
AcDbEntity
  8
0
100
AcDbLine
 62
7
  6
CONTINUOUS
 10
45.0932003797
 20
110.7102122336
 11
44.5932003797
 21
110.7102122336
  0
LINE
  5
35F
100
AcDbEntity
  8
0
100
AcDbLine
 62
7
  6
CONTINUOUS
 10
45.0932003797
 20
110.8567356203
 11
44.5932003797
 21
110.8567356203
  0
LINE
  5
360
100
AcDbEntity
  8
0
100
AcDbLine
 62
7
  6
CONTINUOUS
 10
174.5932003797
 20
111.0802505402
 11
189.5932003797
 21
111.0802505402
  0
LINE
  5
361
100
AcDbEntity
  8
0
100
AcDbLine
 62
7
  6
CONTINUOUS
 10
45.0932003797
 20
111.1497823939
 11
44.5932003797
 21
111.1497823939
  0
LINE
  5
362
100
AcDbEntity
  8
0
100
AcDbLine
 62
7
  6
CONTINUOUS
 10
53.3932003797
 20
111.1802505402
 11
50.5932003797
 21
111.1802505402
  0
LINE
  5
363
100
AcDbEntity
  8
0
100
AcDbLine
 62
7
  6
CONTINUOUS
 10
49.5932003797
 20
111.3302505402
 11
50.5932003797
 21
111.3302505402
  0
LINE
  5
364
100
AcDbEntity
  8
0
100
AcDbLine
 62
7
  6
CONTINUOUS
 10
45.0932003797
 20
111.4428291675
 11
44.5932003797
 21
111.4428291675
  0
LINE
  5
365
100
AcDbEntity
  8
0
100
AcDbLine
 62
7
  6
CONTINUOUS
 10
45.0932003797
 20
111.8091378397
 11
44.5932003797
 21
111.8091378397
  0
LINE
  5
366
100
AcDbEntity
  8
QUER2
100
AcDbLine
 62
7
  6
CONTINUOUS
 10
67.0932003797
 20
112.2802505402
 11
64.0932003797
 21
112.2802505402
  0
LINE
  5
367
100
AcDbEntity
  8
0
100
AcDbLine
 62
7
  6
CONTINUOUS
 10
71.7932003797
 20
112.4302505402
 11
67.3932003797
 21
112.4302505402
  0
LINE
  5
368
100
AcDbEntity
  8
A_RUNDUNGEN
100
AcDbLine
 62
7
  6
CONTINUOUS
 10
67.3932003797
 20
112.4302505402
 11
71.7932003797
 21
112.4302505402
  0
LINE
  5
369
100
AcDbEntity
  8
0
100
AcDbLine
 62
7
  6
CONTINUOUS
 10
95.5328932906
 20
143.0104337849
 11
91.3698391403
 21
154.4483311978
  0
LINE
  5
36A
100
AcDbEntity
  8
QUER2
100
AcDbLine
 62
7
  6
CONTINUOUS
 10
83.8302067036
 20
71.1577103103
 11
87.3657406095
 21
74.6932442163
  0
LINE
  5
36B
100
AcDbEntity
  8
0
100
AcDbLine
 62
7
  6
CONTINUOUS
 10
76.0932003797
 20
117.9802505402
 11
52.06702177
 21
117.5608720326
  0
LINE
  5
36C
100
AcDbEntity
  8
0
100
AcDbLine
 62
7
  6
CONTINUOUS
 10
64.0932003797
 20
116.30170873
 11
58.0801105764
 21
116.2492332903
  0
LINE
  5
36D
100
AcDbEntity
  8
A_RUNDUNGEN
100
AcDbLine
 62
7
  6
CONTINUOUS
 10
64.0932003797
 20
116.30170873
 11
69.01180296
 21
116.3446327245
  0
LINE
  5
36E
100
AcDbEntity
  8
0
100
AcDbLine
 62
7
  6
CONTINUOUS
 10
69.01180296
 20
116.3446327245
 11
73.0932003797
 21
116.3802505402
  0
LINE
  5
36F
100
AcDbEntity
  8
0
100
AcDbLine
 62
7
  6
CONTINUOUS
 10
54.8801105764
 20
116.39512671
 11
76.0932003797
 21
116.5802505402
  0
LINE
  5
370
100
AcDbEntity
  8
0
100
AcDbLine
 62
7
  6
CONTINUOUS
 10
50.5932003797
 20
117.8977788393
 11
46.582728452
 21
117.8767798655
  0
LINE
  5
371
100
AcDbEntity
  8
A_RUNDUNGEN
100
AcDbLine
 62
7
  6
CONTINUOUS
 10
50.5932003797
 20
117.8977788393
 11
75.8932003797
 21
118.0302505402
  0
LINE
  5
372
100
AcDbEntity
  8
0
100
AcDbLine
 62
7
  6
CONTINUOUS
 10
45.0932003797
 20
112.9080633432
 11
44.5932003797
 21
112.9080633432
  0
LINE
  5
373
100
AcDbEntity
  8
0
100
AcDbLine
 62
7
  6
CONTINUOUS
 10
45.0932003797
 20
113.2743718102
 11
44.5932003797
 21
113.2743718102
  0
LINE
  5
374
100
AcDbEntity
  8
0
100
AcDbLine
 62
7
  6
CONTINUOUS
 10
45.0932003797
 20
113.5674186351
 11
44.5932003797
 21
113.5674186351
  0
LINE
  5
375
100
AcDbEntity
  8
0
100
AcDbLine
 62
7
  6
CONTINUOUS
 10
45.0932003797
 20
113.8604654343
 11
44.5932003797
 21
113.8604654343
  0
LINE
  5
376
100
AcDbEntity
  8
QUER2
100
AcDbLine
 62
7
  6
CONTINUOUS
 10
73.0932003797
 20
113.9802505402
 11
67.0932003797
 21
113.9802505402
  0
LINE
  5
377
100
AcDbEntity
  8
0
100
AcDbLine
 62
7
  6
CONTINUOUS
 10
45.0932003797
 20
114.0069888404
 11
44.5932003797
 21
114.0069888404
  0
LINE
  5
378
100
AcDbEntity
  8
0
100
AcDbLine
 62
7
  6
CONTINUOUS
 10
45.0932003797
 20
114.0802505402
 11
44.5932003797
 21
114.0802505402
  0
LINE
  5
379
100
AcDbEntity
  8
QUER2
100
AcDbLine
 62
7
  6
CONTINUOUS
 10
64.3932003797
 20
114.7802505402
 11
72.7932003797
 21
114.7802505402
  0
LINE
  5
37A
100
AcDbEntity
  8
0
100
AcDbLine
 62
7
  6
CONTINUOUS
 10
45.0932003797
 20
115.2524377371
 11
44.5932003797
 21
115.2524377371
  0
LINE
  5
37B
100
AcDbEntity
  8
0
100
AcDbLine
 62
7
  6
CONTINUOUS
 10
44.5932003797
 20
115.5802505402
 11
45.0932003797
 21
115.5802505402
  0
LINE
  5
37C
100
AcDbEntity
  8
A_RUNDUNGEN
100
AcDbLine
 62
7
  6
CONTINUOUS
 10
54.8932003797
 20
116.3052505402
 11
63.0801105764
 21
116.3052505402
  0
LINE
  5
37D
100
AcDbEntity
  8
A_RUNDUNGEN
100
AcDbLine
 62
7
  6
CONTINUOUS
 10
77.5932003797
 20
117.9802505402
 11
76.0932003797
 21
117.9802505402
  0
LINE
  5
37E
100
AcDbEntity
  8
0
100
AcDbLine
 62
7
  6
CONTINUOUS
 10
99.7541003797
 20
118.0802505402
 11
85.4757263797
 21
118.0802505402
  0
LINE
  5
37F
100
AcDbEntity
  8
0
100
AcDbLine
 62
7
  6
CONTINUOUS
 10
77.5932003797
 20
118.0802505402
 11
44.5932003797
 21
118.0802505402
  0
LINE
  5
380
100
AcDbEntity
  8
0
100
AcDbLine
 62
7
  6
CONTINUOUS
 10
77.5932003797
 20
119.0802505402
 11
69.0932003797
 21
119.0802505402
  0
LINE
  5
381
100
AcDbEntity
  8
0
100
AcDbLine
 62
7
  6
CONTINUOUS
 10
19.5801105667
 20
114.2501795473
 11
27.2958183458
 21
114.1828455405
  0
LINE
  5
382
100
AcDbEntity
  8
0
100
AcDbLine
 62
7
  6
CONTINUOUS
 10
101.5932003797
 20
73.1802505402
 11
102.0932003797
 21
73.6802505402
  0
LINE
  5
383
100
AcDbEntity
  8
QUER2
100
AcDbLine
 62
7
  6
CONTINUOUS
 10
86.675013081
 20
75.3740864933
 11
86.2271052628
 21
75.1652236476
  0
LINE
  5
384
100
AcDbEntity
  8
QUER2
100
AcDbLine
 62
7
  6
CONTINUOUS
 10
82.4592190535
 20
75.0401123034
 11
80.8510379439
 21
74.3182178025
  0
LINE
  5
385
100
AcDbEntity
  8
0
100
AcDbLine
 62
7
  6
CONTINUOUS
 10
192.0671410104
 20
115.0487961337
 11
193.9352202376
 21
115.7287204884
  0
LINE
  5
386
100
AcDbEntity
  8
0
100
AcDbLine
 62
7
  6
CONTINUOUS
 10
69.0932003797
 20
124.0802505402
 11
77.7271753797
 21
124.0802505402
  0
LINE
  5
387
100
AcDbEntity
  8
0
100
AcDbLine
 62
7
  6
CONTINUOUS
 10
78.5932003797
 20
124.5802505402
 11
94.0932003797
 21
124.5802505402
  0
LINE
  5
388
100
AcDbEntity
  8
0
100
AcDbLine
 62
7
  6
CONTINUOUS
 10
27.295818337
 20
131.9776555398
 11
19.5801105667
 21
131.9103215331
  0
LINE
  5
389
100
AcDbEntity
  8
0
100
AcDbLine
 62
7
  6
CONTINUOUS
 10
186.6110683797
 20
131.0802505402
 11
105.4027493797
 21
131.0802505402
  0
LINE
  5
38A
100
AcDbEntity
  8
0
100
AcDbLine
 62
7
  6
CONTINUOUS
 10
18.4195522518
 20
151.9345425627
 11
20.7668487087
 21
151.5206506585
  0
LINE
  5
38B
100
AcDbEntity
  8
0
100
AcDbLine
 62
7
  6
CONTINUOUS
 10
22.0888370765
 20
145.2282865428
 11
27.2958183651
 21
145.1828455403
  0
LINE
  5
38C
100
AcDbEntity
  8
0
100
AcDbLine
 62
7
  6
CONTINUOUS
 10
189.5932003797
 20
111.0802505402
 11
190.0932003797
 21
111.5802505402
  0
LINE
  5
38D
100
AcDbEntity
  8
0
100
AcDbLine
 62
7
  6
CONTINUOUS
 10
87.6110683797
 20
157.0802505402
 11
19.5932003797
 21
157.0802505402
  0
LINE
  5
38E
100
AcDbEntity
  8
0
100
AcDbLine
 62
7
  6
CONTINUOUS
 10
172.0932003797
 20
98.0802505402
 11
172.0932003797
 21
106.0802505402
  0
LINE
  5
38F
100
AcDbEntity
  8
0
100
AcDbLine
 62
7
  6
CONTINUOUS
 10
174.5932003797
 20
61.0802505402
 11
174.5932003797
 21
98.0802505402
  0
LINE
  5
390
100
AcDbEntity
  8
0
100
AcDbLine
 62
7
  6
CONTINUOUS
 10
174.5932003797
 20
106.0802505402
 11
174.5932003797
 21
111.0802505402
  0
LINE
  5
391
100
AcDbEntity
  8
0
100
AcDbLine
 62
7
  6
CONTINUOUS
 10
190.0932003797
 20
111.5802505402
 11
190.0932003797
 21
112.2297175402
  0
LINE
  5
392
100
AcDbEntity
  8
0
100
AcDbLine
 62
7
  6
CONTINUOUS
 10
194.5328924076
 20
117.0104334635
 11
190.3698382573
 21
128.4483308764
  0
ARC
  5
393
100
AcDbEntity
  8
0
100
AcDbCircle
 62
7
  6
CONTINUOUS
 10
19.5932003797
 20
81.0802505402
 40
2.0
100
AcDbArc
 50
180.0
 51
270.0
  0
ARC
  5
394
100
AcDbEntity
  8
0
100
AcDbCircle
 62
7
  6
CONTINUOUS
 10
46.5932003797
 20
90.2836937993
 40
2.0
100
AcDbArc
 50
180.0
 51
269.7
  0
ARC
  5
395
100
AcDbEntity
  8
0
100
AcDbCircle
 62
7
  6
CONTINUOUS
 10
58.0932003797
 20
91.4112106746
 40
1.5
100
AcDbArc
 50
180.0
 51
269.5
  0
ARC
  5
396
100
AcDbEntity
  8
0
100
AcDbCircle
 62
7
  6
CONTINUOUS
 10
52.0932003797
 20
90.0994005905
 40
1.5
100
AcDbArc
 50
180.0
 51
269.0
  0
ARC
  5
397
100
AcDbEntity
  8
0
100
AcDbCircle
 62
7
  6
CONTINUOUS
 10
54.8932003797
 20
91.2653172549
 40
1.5
100
AcDbArc
 50
180.0
 51
269.5
  0
ARC
  5
398
100
AcDbEntity
  8
A_RUNDUNGEN
100
AcDbCircle
 62
7
  6
CONTINUOUS
 10
54.8932003797
 20
91.3552505402
 40
1.5
100
AcDbArc
 50
183.4310820436
 51
270.0
  0
ARC
  5
399
100
AcDbEntity
  8
0
100
AcDbCircle
 62
7
  6
CONTINUOUS
 10
19.0932003797
 20
99.4060145402
 40
1.5
100
AcDbArc
 50
90.5000042622
 51
180.0
  0
ARC
  5
39A
100
AcDbEntity
  8
A_RUNDUNGEN
100
AcDbCircle
 62
7
  6
CONTINUOUS
 10
59.4932003797
 20
90.7251546239
 40
1.0
100
AcDbArc
 50
235.7510301834
 51
239.6666666658
  0
ARC
  5
39B
100
AcDbEntity
  8
0
100
AcDbCircle
 62
7
  6
CONTINUOUS
 10
27.2932003797
 20
101.2776435402
 40
0.3
100
AcDbArc
 50
270.5000042622
 51
360.0
  0
ARC
  5
39C
100
AcDbEntity
  8
QUER2
100
AcDbCircle
 62
7
  6
CONTINUOUS
 10
70.1798991202
 20
66.402978146
 40
13.3928774596
100
AcDbArc
 50
62.727386009
 51
67.20682206
  0
ARC
  5
39D
100
AcDbEntity
  8
QUER2
100
AcDbCircle
 62
7
  6
CONTINUOUS
 10
70.1798991202
 20
66.402978146
 40
13.3928774596
100
AcDbArc
 50
55.2845037669
 51
59.2844205334
  0
ARC
  5
39E
100
AcDbEntity
  8
QUER2
100
AcDbCircle
 62
7
  6
CONTINUOUS
 10
70.1798991202
 20
66.402978146
 40
13.3928774596
100
AcDbArc
 50
47.7810361635
 51
51.8421451123
  0
ARC
  5
39F
100
AcDbEntity
  8
QUER2
100
AcDbCircle
 62
7
  6
CONTINUOUS
 10
70.1798991202
 20
66.402978146
 40
13.3928774596
100
AcDbArc
 50
39.9704349704
 51
44.3393766357
  0
ARC
  5
3A0
100
AcDbEntity
  8
QUER2
100
AcDbCircle
 62
7
  6
CONTINUOUS
 10
70.1798991202
 20
66.402978146
 40
13.3928774596
100
AcDbArc
 50
77.598515657
 51
97.5210600325
  0
ARC
  5
3A1
100
AcDbEntity
  8
QUER2
100
AcDbCircle
 62
7
  6
CONTINUOUS
 10
70.1798991202
 20
66.402978146
 40
11.478516903
100
AcDbArc
 50
30.8333048429
 51
97.8460018237
  0
ARC
  5
3A2
100
AcDbEntity
  8
0
100
AcDbCircle
 62
7
  6
CONTINUOUS
 10
70.0932003797
 20
66.6802505402
 40
5.5
100
AcDbArc
 50
65.390016476
 51
294.609983524
  0
ARC
  5
3A3
100
AcDbEntity
  8
QUER2
100
AcDbCircle
 62
7
  6
CONTINUOUS
 10
70.0932003797
 20
66.6802505402
 40
5.0
100
AcDbArc
 50
90.0
 51
270.0
  0
ARC
  5
3A4
100
AcDbEntity
  8
0
100
AcDbCircle
 62
7
  6
CONTINUOUS
 10
67.5932003797
 20
61.0802505402
 40
3.0
100
AcDbArc
 50
180.0
 51
270.0
  0
CIRCLE
  5
3A5
100
AcDbEntity
  8
QUER2
100
AcDbCircle
 62
7
  6
CONTINUOUS
 10
70.0932003797
 20
66.6802505402
 40
2.5
  0
CIRCLE
  5
3A6
100
AcDbEntity
  8
A_ACHSEN
100
AcDbCircle
 62
7
  6
CONTINUOUS
 10
70.0932003797
 20
66.6802505402
 40
2.45
  0
CIRCLE
  5
3A7
100
AcDbEntity
  8
A_ACHSEN
100
AcDbCircle
 62
7
  6
CONTINUOUS
 10
70.0932003797
 20
66.6802505402
 40
1.6215728753
  0
ARC
  5
3A8
100
AcDbEntity
  8
QUER2
100
AcDbCircle
 62
7
  6
CONTINUOUS
 10
77.0932003797
 20
81.4302505402
 40
19.75
100
AcDbArc
 50
270.0
 51
90.0
  0
ARC
  5
3A9
100
AcDbEntity
  8
QUER2
100
AcDbCircle
 62
7
  6
CONTINUOUS
 10
77.0932003797
 20
81.4302505402
 40
9.75
100
AcDbArc
 50
270.0
 51
301.8763603803
  0
ARC
  5
3AA
100
AcDbEntity
  8
QUER2
100
AcDbCircle
 62
7
  6
CONTINUOUS
 10
77.0932003797
 20
81.4302505402
 40
9.75
100
AcDbArc
 50
328.1236396197
 51
90.0
  0
ARC
  5
3AB
100
AcDbEntity
  8
QUER2
100
AcDbCircle
 62
7
  6
CONTINUOUS
 10
77.2596550209
 20
81.1014437329
 40
9.6414848656
100
AcDbArc
 50
290.547271683
 51
301.8587620103
  0
ARC
  5
3AC
100
AcDbEntity
  8
QUER2
100
AcDbCircle
 62
7
  6
CONTINUOUS
 10
77.2596550209
 20
81.1014437329
 40
9.6414848656
100
AcDbArc
 50
328.2593605105
 51
340.8200823557
  0
ARC
  5
3AD
100
AcDbEntity
  8
QUER2
100
AcDbCircle
 62
7
  6
CONTINUOUS
 10
80.1970020575
 20
80.0797055322
 40
6.5315079261
100
AcDbArc
 50
340.8200823557
 51
169.0947514089
  0
ARC
  5
3AE
100
AcDbEntity
  8
QUER2
100
AcDbCircle
 62
7
  6
CONTINUOUS
 10
80.1970020575
 20
80.0797055322
 40
5.5240497507
100
AcDbArc
 50
294.1747780881
 51
176.5890765054
  0
ARC
  5
3AF
100
AcDbEntity
  8
0
100
AcDbCircle
 62
7
  6
CONTINUOUS
 10
75.5932003797
 20
81.0802505402
 40
2.0
100
AcDbArc
 50
270.0
 51
360.0
  0
ARC
  5
3B0
100
AcDbEntity
  8
QUER2
100
AcDbCircle
 62
7
  6
CONTINUOUS
 10
82.5589113164
 20
72.6411377319
 40
0.6
100
AcDbArc
 50
350.0
 51
121.8763603803
  0
ARC
  5
3B1
100
AcDbEntity
  8
QUER2
100
AcDbCircle
 62
7
  6
CONTINUOUS
 10
82.6567853102
 20
72.4166645086
 40
0.5837
100
AcDbArc
 50
8.4071409463
 51
121.8587620103
  0
ARC
  5
3B2
100
AcDbEntity
  8
QUER2
100
AcDbCircle
 62
7
  6
CONTINUOUS
 10
80.4673400187
 20
72.5436314005
 40
0.5022619795
100
AcDbArc
 50
210.8333048429
 51
290.547271683
  0
ARC
  5
3B3
100
AcDbEntity
  8
QUER2
100
AcDbCircle
 62
7
  6
CONTINUOUS
 10
73.1640280121
 20
79.9738983355
 40
0.5022619795
100
AcDbArc
 50
257.598515657
 51
0.8619182248
  0
ARC
  5
3B4
100
AcDbEntity
  8
QUER2
100
AcDbCircle
 62
7
  6
CONTINUOUS
 10
83.60251832
 20
71.637128708
 40
0.5
100
AcDbArc
 50
170.9328996899
 51
315.0
  0
ARC
  5
3B5
100
AcDbEntity
  8
QUER2
100
AcDbCircle
 62
7
  6
CONTINUOUS
 10
83.476653313
 20
71.5112637009
 40
0.5
100
AcDbArc
 50
170.0
 51
315.0
  0
ARC
  5
3B6
100
AcDbEntity
  8
QUER2
100
AcDbCircle
 62
7
  6
CONTINUOUS
 10
74.9960666153
 20
78.9025755295
 40
0.4023630867
100
AcDbArc
 50
176.5890765054
 51
337.7153682265
  0
ARC
  5
3B7
100
AcDbEntity
  8
QUER2
100
AcDbCircle
 62
7
  6
CONTINUOUS
 10
76.6710327803
 20
78.1161392155
 40
0.4023630867
100
AcDbArc
 50
151.6741664759
 51
330.3376400666
  0
ARC
  5
3B8
100
AcDbEntity
  8
QUER2
100
AcDbCircle
 62
7
  6
CONTINUOUS
 10
78.1360763706
 20
77.1800247407
 40
0.4023630867
100
AcDbArc
 50
144.829576765
 51
322.2970721142
  0
ARC
  5
3B9
100
AcDbEntity
  8
QUER2
100
AcDbCircle
 62
7
  6
CONTINUOUS
 10
79.4607049126
 20
76.0337657563
 40
0.4023630867
100
AcDbArc
 50
134.3466524339
 51
317.7737603653
  0
ARC
  5
3BA
100
AcDbEntity
  8
QUER2
100
AcDbCircle
 62
7
  6
CONTINUOUS
 10
80.6862616196
 20
74.6852938389
 40
0.4023630867
100
AcDbArc
 50
127.0417644818
 51
294.1747780881
  0
ARC
  5
3BB
100
AcDbEntity
  8
QUER2
100
AcDbCircle
 62
7
  6
CONTINUOUS
 10
68.571469293
 20
78.0750983153
 40
0.3039037208
100
AcDbArc
 50
184.5937440552
 51
277.8460018237
  0
ARC
  5
3BC
100
AcDbEntity
  8
QUER2
100
AcDbCircle
 62
7
  6
CONTINUOUS
 10
68.4666754193
 20
79.3793450523
 40
0.3039037208
100
AcDbArc
 50
97.5210600325
 51
184.5937440552
  0
ARC
  5
3BD
100
AcDbEntity
  8
0
100
AcDbCircle
 62
7
  6
CONTINUOUS
 10
93.5932003797
 20
68.1802505402
 40
5.0
100
AcDbArc
 50
270.0
 51
360.0
  0
ARC
  5
3BE
100
AcDbEntity
  8
0
100
AcDbCircle
 62
7
  6
CONTINUOUS
 10
100.0932003797
 20
63.36615722
 40
2.0
100
AcDbArc
 50
270.3
 51
360.0
  0
ARC
  5
3BF
100
AcDbEntity
  8
A_RUNDUNGEN
100
AcDbCircle
 62
7
  6
CONTINUOUS
 10
95.593200445
 20
76.4508975813
 40
2.999999909
100
AcDbArc
 50
270.4999987692
 51
289.5983349903
  0
ARC
  5
3C0
100
AcDbEntity
  8
QUER2
100
AcDbCircle
 62
7
  6
CONTINUOUS
 10
85.9721634256
 20
75.7119481818
 40
0.6032437788
100
AcDbArc
 50
148.2593605105
 51
295.0
  0
ARC
  5
3C1
100
AcDbEntity
  8
QUER2
100
AcDbCircle
 62
7
  6
CONTINUOUS
 10
85.8823131879
 20
75.9645396035
 40
0.6
100
AcDbArc
 50
148.1236396197
 51
280.0
  0
ARC
  5
3C2
100
AcDbEntity
  8
QUER2
100
AcDbCircle
 62
7
  6
CONTINUOUS
 10
86.8863222119
 20
74.9209325998
 40
0.5
100
AcDbArc
 50
315.0
 51
115.0
  0
ARC
  5
3C3
100
AcDbEntity
  8
QUER2
100
AcDbCircle
 62
7
  6
CONTINUOUS
 10
87.0121872189
 20
75.0467976069
 40
0.5
100
AcDbArc
 50
315.0
 51
100.0
  0
ARC
  5
3C4
100
AcDbEntity
  8
0
100
AcDbCircle
 62
7
  6
CONTINUOUS
 10
79.4001698158
 20
103.0802505402
 40
3.5547736725
100
AcDbArc
 50
175.9671753207
 51
184.0328246793
  0
ARC
  5
3C5
100
AcDbEntity
  8
0
100
AcDbCircle
 62
7
  6
CONTINUOUS
 10
100.0932003797
 20
99.4943438603
 40
2.0
100
AcDbArc
 50
0.0
 51
89.7
  0
ARC
  5
3C6
100
AcDbEntity
  8
0
100
AcDbCircle
 62
7
  6
CONTINUOUS
 10
97.0932003797
 20
97.8000404887
 40
1.5
100
AcDbArc
 50
0.0
 51
88.5
  0
ARC
  5
3C7
100
AcDbEntity
  8
QUER2
100
AcDbCircle
 62
7
  6
CONTINUOUS
 10
74.5932003797
 20
102.6802505402
 40
1.5
100
AcDbArc
 50
180.0
 51
270.0
  0
ARC
  5
3C8
100
AcDbEntity
  8
0
100
AcDbCircle
 62
7
  6
CONTINUOUS
 10
88.2939029409
 20
100.5313151825
 40
1.0
100
AcDbArc
 50
255.425783802
 51
268.5
  0
ARC
  5
3C9
100
AcDbEntity
  8
A_RUNDUNGEN
100
AcDbCircle
 62
7
  6
CONTINUOUS
 10
66.7932003797
 20
105.3802505402
 40
0.3
100
AcDbArc
 50
0.0000013184
 51
90.0
  0
ARC
  5
3CA
100
AcDbEntity
  8
A_RUNDUNGEN
100
AcDbCircle
 62
7
  6
CONTINUOUS
 10
67.3932003797
 20
104.2302505402
 40
0.3
100
AcDbArc
 50
179.9999999998
 51
270.0
  0
ARC
  5
3CB
100
AcDbEntity
  8
A_RUNDUNGEN
100
AcDbCircle
 62
7
  6
CONTINUOUS
 10
71.7932003797
 20
104.2302505402
 40
0.3
100
AcDbArc
 50
270.0
 51
360.0
  0
ARC
  5
3CC
100
AcDbEntity
  8
QUER2
100
AcDbCircle
 62
7
  6
CONTINUOUS
 10
64.3932003797
 20
91.4802505402
 40
0.3
100
AcDbArc
 50
180.0
 51
270.0
  0
ARC
  5
3CD
100
AcDbEntity
  8
0
100
AcDbCircle
 62
7
  6
CONTINUOUS
 10
87.6110683797
 20
153.0802505402
 40
4.0
100
AcDbArc
 50
19.9999997762
 51
90.0
  0
ARC
  5
3CE
100
AcDbEntity
  8
0
100
AcDbCircle
 62
7
  6
CONTINUOUS
 10
105.4027493797
 20
128.0802505402
 40
2.9999996523
100
AcDbArc
 50
90.0
 51
170.0000017934
  0
ARC
  5
3CF
100
AcDbEntity
  8
0
100
AcDbCircle
 62
7
  6
CONTINUOUS
 10
46.5932003797
 20
115.876807281
 40
2.0
100
AcDbArc
 50
90.3
 51
180.0
  0
ARC
  5
3D0
100
AcDbEntity
  8
0
100
AcDbCircle
 62
7
  6
CONTINUOUS
 10
19.5932003797
 20
155.0802505402
 40
2.0
100
AcDbArc
 50
90.0
 51
180.0
  0
ARC
  5
3D1
100
AcDbEntity
  8
0
100
AcDbCircle
 62
7
  6
CONTINUOUS
 10
85.4757263797
 20
116.0802505402
 40
1.999999563
100
AcDbArc
 50
90.0
 51
174.9999992829
  0
ARC
  5
3D2
100
AcDbEntity
  8
0
100
AcDbCircle
 62
7
  6
CONTINUOUS
 10
19.5932003797
 20
115.7501225402
 40
1.5000001084
100
AcDbArc
 50
180.0
 51
269.4999996651
  0
ARC
  5
3D3
100
AcDbEntity
  8
0
100
AcDbCircle
 62
7
  6
CONTINUOUS
 10
58.0932003797
 20
114.7492904057
 40
1.5
100
AcDbArc
 50
90.5
 51
180.0
  0
ARC
  5
3D4
100
AcDbEntity
  8
0
100
AcDbCircle
 62
7
  6
CONTINUOUS
 10
52.0932003797
 20
116.0611004898
 40
1.5
100
AcDbArc
 50
91.0
 51
180.0
  0
ARC
  5
3D5
100
AcDbEntity
  8
A_RUNDUNGEN
100
AcDbCircle
 62
7
  6
CONTINUOUS
 10
54.8932003797
 20
114.8052505402
 40
1.5
100
AcDbArc
 50
90.0
 51
176.5689179564
  0
ARC
  5
3D6
100
AcDbEntity
  8
0
100
AcDbCircle
 62
7
  6
CONTINUOUS
 10
54.8932003797
 20
114.8951838254
 40
1.5
100
AcDbArc
 50
90.5
 51
180.0
  0
ARC
  5
3D7
100
AcDbEntity
  8
0
100
AcDbCircle
 62
7
  6
CONTINUOUS
 10
94.0932003797
 20
126.0802505402
 40
1.5
100
AcDbArc
 50
270.0
 51
360.0
  0
ARC
  5
3D8
100
AcDbEntity
  8
0
100
AcDbCircle
 62
7
  6
CONTINUOUS
 10
19.5932003797
 20
130.4103785402
 40
1.5
100
AcDbArc
 50
90.5000003349
 51
180.0
  0
ARC
  5
3D9
100
AcDbEntity
  8
0
100
AcDbCircle
 62
7
  6
CONTINUOUS
 10
20.5932003797
 20
150.5358425402
 40
1.000000386
100
AcDbArc
 50
0.0
 51
79.9999950958
  0
ARC
  5
3DA
100
AcDbEntity
  8
0
100
AcDbCircle
 62
7
  6
CONTINUOUS
 10
99.7541003797
 20
119.0802505402
 40
1.000000386
100
AcDbArc
 50
270.0
 51
350.0000017934
  0
ARC
  5
3DB
100
AcDbEntity
  8
0
100
AcDbCircle
 62
7
  6
CONTINUOUS
 10
94.5932003797
 20
142.6684135402
 40
1.0000003073
100
AcDbArc
 50
0.0
 51
19.9999997762
  0
ARC
  5
3DC
100
AcDbEntity
  8
0
100
AcDbCircle
 62
7
  6
CONTINUOUS
 10
78.5932003797
 20
123.5802505402
 40
0.9999993981
100
AcDbArc
 50
90.0
 51
149.9999884324
  0
ARC
  5
3DD
100
AcDbEntity
  8
0
100
AcDbCircle
 62
7
  6
CONTINUOUS
 10
18.5932003797
 20
152.9193495402
 40
0.9999992276
100
AcDbArc
 50
180.0
 51
259.9999950958
  0
ARC
  5
3DE
100
AcDbEntity
  8
A_RUNDUNGEN
100
AcDbCircle
 62
7
  6
CONTINUOUS
 10
59.4931775436
 20
115.4353462572
 40
0.999992388
100
AcDbArc
 50
120.3325947204
 51
124.247925682
  0
ARC
  5
3DF
100
AcDbEntity
  8
0
100
AcDbCircle
 62
7
  6
CONTINUOUS
 10
22.0932003797
 20
145.7282675402
 40
0.5000000361
100
AcDbArc
 50
180.0
 51
269.4999959815
  0
ARC
  5
3E0
100
AcDbEntity
  8
0
100
AcDbCircle
 62
7
  6
CONTINUOUS
 10
27.2932003797
 20
144.8828565402
 40
0.3000004234
100
AcDbArc
 50
0.0
 51
89.4999959815
  0
ARC
  5
3E1
100
AcDbEntity
  8
0
100
AcDbCircle
 62
7
  6
CONTINUOUS
 10
27.2932003797
 20
113.8828565402
 40
0.3000004234
100
AcDbArc
 50
0.0
 51
89.4999996651
  0
ARC
  5
3E2
100
AcDbEntity
  8
A_RUNDUNGEN
100
AcDbCircle
 62
7
  6
CONTINUOUS
 10
66.7932003797
 20
110.9802505402
 40
0.3
100
AcDbArc
 50
270.0
 51
359.9999966848
  0
ARC
  5
3E3
100
AcDbEntity
  8
A_RUNDUNGEN
100
AcDbCircle
 62
7
  6
CONTINUOUS
 10
67.3932003797
 20
112.1302505402
 40
0.3
100
AcDbArc
 50
90.0
 51
180.0000000002
  0
ARC
  5
3E4
100
AcDbEntity
  8
A_RUNDUNGEN
100
AcDbCircle
 62
7
  6
CONTINUOUS
 10
71.7932003797
 20
112.1302505402
 40
0.3
100
AcDbArc
 50
0.0
 51
90.0
  0
ARC
  5
3E5
100
AcDbEntity
  8
QUER2
100
AcDbCircle
 62
7
  6
CONTINUOUS
 10
64.3932003797
 20
114.4802505402
 40
0.3
100
AcDbArc
 50
90.0
 51
180.0
  0
ARC
  5
3E6
100
AcDbEntity
  8
QUER2
100
AcDbCircle
 62
7
  6
CONTINUOUS
 10
72.7932003797
 20
114.4802505402
 40
0.3
100
AcDbArc
 50
0.0
 51
90.0
  0
ARC
  5
3E7
100
AcDbEntity
  8
0
100
AcDbCircle
 62
7
  6
CONTINUOUS
 10
27.2932003797
 20
132.2776435402
 40
0.3
100
AcDbArc
 50
270.5000003349
 51
360.0
  0
ARC
  5
3E8
100
AcDbEntity
  8
DEFAULT_2
100
AcDbCircle
 62
8
  6
HIDDEN
 10
110.2153631322
 20
93.8249022811
 40
41.5317491376
100
AcDbArc
 50
157.0091422516
 51
157.3657267213
  0
ARC
  5
3E9
100
AcDbEntity
  8
0
100
AcDbCircle
 62
7
  6
CONTINUOUS
 10
167.0932003797
 20
61.0802505402
 40
3.0
100
AcDbArc
 50
270.0
 51
360.0
  0
ARC
  5
3EA
100
AcDbEntity
  8
DEFAULT_2
100
AcDbCircle
 62
8
  6
HIDDEN
 10
109.9300240745
 20
122.4155809304
 40
41.2221982862
100
AcDbArc
 50
202.6326469596
 51
202.9921982323
  0
ARC
  5
3EB
100
AcDbEntity
  8
0
100
AcDbCircle
 62
7
  6
CONTINUOUS
 10
186.6110683797
 20
127.0802505402
 40
4.0
100
AcDbArc
 50
19.9999997762
 51
90.0
  0
ARC
  5
3EC
100
AcDbEntity
  8
0
100
AcDbCircle
 62
7
  6
CONTINUOUS
 10
193.0932003797
 20
112.2297175402
 40
3.0
100
AcDbArc
 50
109.9999761886
 51
180.0
  0
ARC
  5
3ED
100
AcDbEntity
  8
0
100
AcDbCircle
 62
7
  6
CONTINUOUS
 10
193.5932003797
 20
116.6684135402
 40
0.9999993676
100
AcDbArc
 50
289.9999761886
 51
19.9999997762
  0
SPLINE
  5
3EE
100
AcDbEntity
  8
DEFAULT_2
100
AcDbSpline
 62
8
  6
HIDDEN
 70
0
 71
3
 72
12
 73
8
 74
0
 42
0.0000001
 43
0.0000001
 44
0.0000000001
 40
0.0
 40
0.0
 40
0.0
 40
0.0
 40
0.3263384585
 40
0.6170969122
 40
0.8447382103
 40
0.931291079
 40
1.0
 40
1.0
 40
1.0
 40
1.0
 10
72.0932004016
 20
108.1802508452
 30
0.0
 10
72.0932004166
 20
108.130089087
 30
0.0
 10
72.0881206069
 20
108.0350987425
 30
0.0
 10
72.0664426727
 20
107.9069139038
 30
0.0
 10
72.0372927676
 20
107.8176770955
 30
0.0
 10
72.0073492671
 20
107.7667946141
 30
0.0
 10
71.9910366107
 20
107.7488734438
 30
0.0
 10
71.9825976273
 20
107.7425232674
 30
0.0
  0
SPLINE
  5
3EF
100
AcDbEntity
  8
DEFAULT_2
100
AcDbSpline
 62
8
  6
HIDDEN
 70
0
 71
3
 72
11
 73
7
 74
0
 42
0.0000001
 43
0.0000001
 44
0.0000000001
 40
0.0
 40
0.0
 40
0.0
 40
0.0
 40
0.1362461108
 40
0.3299253965
 40
0.6155479999
 40
1.0
 40
1.0
 40
1.0
 40
1.0
 10
72.0737377621
 20
110.1873267002
 30
0.0
 10
72.0768052074
 20
110.1873226806
 30
0.0
 10
72.084125303
 20
110.1832497661
 30
0.0
 10
72.0893011875
 20
110.1698992974
 30
0.0
 10
72.0927043949
 20
110.1508210098
 30
0.0
 10
72.0932003821
 20
110.1356582757
 30
0.0
 10
72.0932003819
 20
110.1270027149
 30
0.0
  0
SPLINE
  5
3F0
100
AcDbEntity
  8
DEFAULT_2
100
AcDbSpline
 62
8
  6
HIDDEN
 70
0
 71
3
 72
18
 73
14
 74
0
 42
0.0000001
 43
0.0000001
 44
0.0000000001
 40
0.0
 40
0.0
 40
0.0
 40
0.0
 40
0.0186152665
 40
0.0390424149
 40
0.0662627538
 40
0.1022016468
 40
0.1470719053
 40
0.2005667204
 40
0.3309728372
 40
0.4855975863
 40
0.6546464113
 40
0.828943352
 40
1.0
 40
1.0
 40
1.0
 40
1.0
 10
70.0641202201
 20
110.1872016414
 30
0.0
 10
70.0679809208
 20
110.1871722551
 30
0.0
 10
70.0763577536
 20
110.1849056215
 30
0.0
 10
70.0852395256
 20
110.1735898235
 30
0.0
 10
70.0901493929
 20
110.1567921117
 30
0.0
 10
70.0923196723
 20
110.1344156325
 30
0.0
 10
70.0916364064
 20
110.1065239254
 30
0.0
 10
70.0865701414
 20
110.059310281
 30
0.0
 10
70.072337809
 20
109.9904167425
 30
0.0
 10
70.0464129432
 20
109.8998248503
 30
0.0
 10
70.0116523905
 20
109.8024934148
 30
0.0
 10
69.9698771847
 20
109.7042680296
 30
0.0
 10
69.9380421765
 20
109.6400419685
 30
0.0
 10
69.9211916506
 20
109.6088219121
 30
0.0
  0
SPLINE
  5
3F1
100
AcDbEntity
  8
DEFAULT_2
100
AcDbSpline
 62
8
  6
HIDDEN
 70
0
 71
3
 72
15
 73
11
 74
0
 42
0.0000001
 43
0.0000001
 44
0.0000000001
 40
0.0
 40
0.0
 40
0.0
 40
0.0
 40
0.0193932075
 40
0.0432359976
 40
0.0759362939
 40
0.1661930952
 40
0.2867409563
 40
0.4340855027
 40
0.6045404293
 40
1.0
 40
1.0
 40
1.0
 40
1.0
 10
69.7295134884
 20
109.8002548339
 30
0.0
 10
69.7278818207
 20
109.7990672087
 30
0.0
 10
69.7354538555
 20
109.8067259644
 30
0.0
 10
69.7382460086
 20
109.810564915
 30
0.0
 10
69.7494199898
 20
109.8233943569
 30
0.0
 10
69.7647370066
 20
109.842004759
 30
0.0
 10
69.7887054705
 20
109.8712785685
 30
0.0
 10
69.8169258913
 20
109.906859973
 30
0.0
 10
69.8623843018
 20
109.9656480983
 30
0.0
 10
69.8973212566
 20
110.0130267853
 30
0.0
 10
69.9211916506
 20
110.0465491848
 30
0.0
  0
SPLINE
  5
3F2
100
AcDbEntity
  8
DEFAULT_2
100
AcDbSpline
 62
8
  6
HIDDEN
 70
0
 71
3
 72
10
 73
6
 74
0
 42
0.0000001
 43
0.0000001
 44
0.0000000001
 40
0.0
 40
0.0
 40
0.0
 40
0.0
 40
0.3177774129
 40
0.6005475257
 40
1.0
 40
1.0
 40
1.0
 40
1.0
 10
70.0920352299
 20
108.1802513269
 30
0.0
 10
70.0920352819
 20
108.1287359969
 30
0.0
 10
70.0840477652
 20
108.0305074922
 30
0.0
 10
70.0457799921
 20
107.8755212549
 30
0.0
 10
69.9802788612
 20
107.7690188011
 30
0.0
 10
69.9211916506
 20
107.7425232674
 30
0.0
  0
SPLINE
  5
3F3
100
AcDbEntity
  8
DEFAULT_2
100
AcDbSpline
 62
8
  6
HIDDEN
 70
0
 71
3
 72
15
 73
11
 74
0
 42
0.0000001
 43
0.0000001
 44
0.0000000001
 40
0.0
 40
0.0
 40
0.0
 40
0.0
 40
0.0193932075
 40
0.0432359976
 40
0.0759362939
 40
0.1661930952
 40
0.2867409563
 40
0.4340855027
 40
0.6045404293
 40
1.0
 40
1.0
 40
1.0
 40
1.0
 10
69.7295134884
 20
106.5602462465
 30
0.0
 10
69.7278818207
 20
106.5614338716
 30
0.0
 10
69.7354538555
 20
106.5537751159
 30
0.0
 10
69.7382460086
 20
106.5499361653
 30
0.0
 10
69.7494199898
 20
106.5371067234
 30
0.0
 10
69.7647370066
 20
106.5184963214
 30
0.0
 10
69.7887054705
 20
106.4892225118
 30
0.0
 10
69.8169258913
 20
106.4536411073
 30
0.0
 10
69.8623843018
 20
106.3948529821
 30
0.0
 10
69.8973212566
 20
106.347474295
 30
0.0
 10
69.9211916506
 20
106.3139518955
 30
0.0
  0
SPLINE
  5
3F4
100
AcDbEntity
  8
DEFAULT_2
100
AcDbSpline
 62
8
  6
HIDDEN
 70
0
 71
3
 72
11
 73
7
 74
0
 42
0.0000001
 43
0.0000001
 44
0.0000000001
 40
0.0
 40
0.0
 40
0.0
 40
0.0
 40
0.2852898261
 40
0.5676333432
 40
0.815687503
 40
1.0
 40
1.0
 40
1.0
 40
1.0
 10
71.9825976273
 20
106.7516791682
 30
0.0
 10
71.998064386
 20
106.7035912469
 30
0.0
 10
72.0264820527
 20
106.6071536559
 30
0.0
 10
72.0611859154
 20
106.4668604515
 30
0.0
 10
72.0845545088
 20
106.3425158876
 30
0.0
 10
72.0932003835
 20
106.266133177
 30
0.0
 10
72.0932003824
 20
106.2334983999
 30
0.0
  0
SPLINE
  5
3F5
100
AcDbEntity
  8
DEFAULT_2
100
AcDbSpline
 62
8
  6
HIDDEN
 70
0
 71
3
 72
18
 73
14
 74
0
 42
0.0000001
 43
0.0000001
 44
0.0000000001
 40
0.0
 40
0.0
 40
0.0
 40
0.0
 40
0.1710567901
 40
0.3453539309
 40
0.514402822
 40
0.6690275211
 40
0.7994335553
 40
0.8529283029
 40
0.897798482
 40
0.9337373034
 40
0.9609575977
 40
0.9813847112
 40
1.0
 40
1.0
 40
1.0
 40
1.0
 10
69.9211916506
 20
106.7516791682
 30
0.0
 10
69.938042194
 20
106.7204590794
 30
0.0
 10
69.9698772278
 20
106.6562329346
 30
0.0
 10
70.0116524593
 20
106.5580074451
 30
0.0
 10
70.0464130474
 20
106.4606759514
 30
0.0
 10
70.0723378848
 20
106.3700840446
 30
0.0
 10
70.0865701911
 20
106.3011905278
 30
0.0
 10
70.0916364262
 20
106.2539769183
 30
0.0
 10
70.0923196666
 20
106.2260852491
 30
0.0
 10
70.0901493533
 20
106.20370881
 30
0.0
 10
70.0852394665
 20
106.1869111306
 30
0.0
 10
70.0763576382
 20
106.175595376
 30
0.0
 10
70.0679807849
 20
106.1733288146
 30
0.0
 10
70.0641200786
 20
106.1732994531
 30
0.0
  0
SPLINE
  5
3F6
100
AcDbEntity
  8
DEFAULT_2
100
AcDbSpline
 62
8
  6
HIDDEN
 70
0
 71
3
 72
11
 73
7
 74
0
 42
0.0000001
 43
0.0000001
 44
0.0000000001
 40
0.0
 40
0.0
 40
0.0
 40
0.0
 40
0.3844734193
 40
0.6700898658
 40
0.8637544267
 40
1.0
 40
1.0
 40
1.0
 40
1.0
 10
72.0932003824
 20
106.2334983999
 30
0.0
 10
72.0932003829
 20
106.2248416571
 30
0.0
 10
72.0927040951
 20
106.2096772975
 30
0.0
 10
72.0892994961
 20
106.1905977137
 30
0.0
 10
72.0841211619
 20
106.1772470572
 30
0.0
 10
72.0767994235
 20
106.1731762136
 30
0.0
 10
72.0737317414
 20
106.1731730434
 30
0.0
  0
SPLINE
  5
3F7
100
AcDbEntity
  8
DEFAULT_2
100
AcDbSpline
 62
8
  6
HIDDEN
 70
0
 71
3
 72
14
 73
10
 74
0
 42
0.0000001
 43
0.0000001
 44
0.0000000001
 40
0.0
 40
0.0
 40
0.0
 40
0.0
 40
0.395222261
 40
0.5656518834
 40
0.7129350411
 40
0.8333172415
 40
0.9234089878
 40
0.9800324929
 40
1.0
 40
1.0
 40
1.0
 40
1.0
 10
69.9211916506
 20
106.3139518955
 30
0.0
 10
69.8973356691
 20
106.3474540548
 30
0.0
 10
69.8623831295
 20
106.3948351688
 30
0.0
 10
69.8169931473
 20
106.4535185219
 30
0.0
 10
69.7886706301
 20
106.489250368
 30
0.0
 10
69.7650830812
 20
106.5180406684
 30
0.0
 10
69.7474858939
 20
106.5395888572
 30
0.0
 10
69.735883966
 20
106.5524410654
 30
0.0
 10
69.7310582241
 20
106.5588551084
 30
0.0
 10
69.7295142124
 20
106.5602456406
 30
0.0
  0
SPLINE
  5
3F8
100
AcDbEntity
  8
DEFAULT_2
100
AcDbSpline
 62
8
  6
HIDDEN
 70
0
 71
3
 72
11
 73
7
 74
0
 42
0.0000001
 43
0.0000001
 44
0.0000000001
 40
0.0
 40
0.0
 40
0.0
 40
0.0
 40
0.3530470657
 40
0.6448732653
 40
0.861337275
 40
1.0
 40
1.0
 40
1.0
 40
1.0
 10
69.9211916506
 20
106.3139518955
 30
0.0
 10
69.9351254561
 20
106.2943839488
 30
0.0
 10
69.9612488495
 20
106.2591819464
 30
0.0
 10
69.9996745769
 20
106.2145128033
 30
0.0
 10
70.0316735904
 20
106.184902736
 30
0.0
 10
70.0546856237
 20
106.1732276262
 30
0.0
 10
70.0641202201
 20
106.1732994389
 30
0.0
  0
SPLINE
  5
3F9
100
AcDbEntity
  8
DEFAULT_2
100
AcDbSpline
 62
8
  6
HIDDEN
 70
0
 71
3
 72
14
 73
10
 74
0
 42
0.0000001
 43
0.0000001
 44
0.0000000001
 40
0.0
 40
0.0
 40
0.0
 40
0.0
 40
0.395222261
 40
0.5656518834
 40
0.7129350411
 40
0.8333172415
 40
0.9234089878
 40
0.9800324929
 40
1.0
 40
1.0
 40
1.0
 40
1.0
 10
69.9211916506
 20
110.0465491848
 30
0.0
 10
69.8973356691
 20
110.0130470255
 30
0.0
 10
69.8623831295
 20
109.9656659115
 30
0.0
 10
69.8169931473
 20
109.9069825584
 30
0.0
 10
69.7886706301
 20
109.8712507123
 30
0.0
 10
69.7650830812
 20
109.8424604119
 30
0.0
 10
69.7474858939
 20
109.8209122231
 30
0.0
 10
69.735883966
 20
109.8080600149
 30
0.0
 10
69.7310582241
 20
109.8016459719
 30
0.0
 10
69.7295142124
 20
109.8002554398
 30
0.0
  0
SPLINE
  5
3FA
100
AcDbEntity
  8
DEFAULT_2
100
AcDbSpline
 62
8
  6
HIDDEN
 70
0
 71
3
 72
11
 73
7
 74
0
 42
0.0000001
 43
0.0000001
 44
0.0000000001
 40
0.0
 40
0.0
 40
0.0
 40
0.0
 40
0.3530470657
 40
0.6448732653
 40
0.861337275
 40
1.0
 40
1.0
 40
1.0
 40
1.0
 10
69.9211916506
 20
110.0465491848
 30
0.0
 10
69.9351254561
 20
110.0661171315
 30
0.0
 10
69.9612488495
 20
110.1013191339
 30
0.0
 10
69.9996745769
 20
110.1459882771
 30
0.0
 10
70.0316735904
 20
110.1755983443
 30
0.0
 10
70.0546856237
 20
110.1872734541
 30
0.0
 10
70.0641202201
 20
110.1872016414
 30
0.0
  0
SPLINE
  5
3FB
100
AcDbEntity
  8
DEFAULT_2
100
AcDbSpline
 62
8
  6
HIDDEN
 70
0
 71
3
 72
11
 73
7
 74
0
 42
0.0000001
 43
0.0000001
 44
0.0000000001
 40
0.0
 40
0.0
 40
0.0
 40
0.0
 40
0.1843405803
 40
0.4324105962
 40
0.71473
 40
1.0
 40
1.0
 40
1.0
 40
1.0
 10
72.0932003819
 20
110.1270027149
 30
0.0
 10
72.0932003837
 20
110.094362969
 30
0.0
 10
72.0845502412
 20
110.0179728062
 30
0.0
 10
72.0611837626
 20
109.8936244451
 30
0.0
 10
72.0264788616
 20
109.7533365231
 30
0.0
 10
71.9980633094
 20
109.6569064862
 30
0.0
 10
71.9825976273
 20
109.6088219121
 30
0.0
  0
SPLINE
  5
3FC
100
AcDbEntity
  8
DEFAULT_2
100
AcDbSpline
 62
8
  6
HIDDEN
 70
0
 71
3
 72
9
 73
5
 74
0
 42
0.0000001
 43
0.0000001
 44
0.0000000001
 40
0.0
 40
0.0
 40
0.0
 40
0.0
 40
0.5660195257
 40
1.0
 40
1.0
 40
1.0
 40
1.0
 10
71.9825976273
 20
106.3139518955
 30
0.0
 10
71.9916608065
 20
106.2925933069
 30
0.0
 10
72.0086492443
 20
106.255284222
 30
0.0
 10
72.0285086721
 20
106.2192727724
 30
0.0
 10
72.0385315858
 20
106.2045756012
 30
0.0
  0
SPLINE
  5
3FD
100
AcDbEntity
  8
DEFAULT_2
100
AcDbSpline
 62
8
  6
HIDDEN
 70
0
 71
3
 72
9
 73
5
 74
0
 42
0.0000001
 43
0.0000001
 44
0.0000000001
 40
0.0
 40
0.0
 40
0.0
 40
0.0
 40
0.2877168733
 40
1.0
 40
1.0
 40
1.0
 40
1.0
 10
72.0385315858
 20
106.2045756012
 30
0.0
 10
72.0400643667
 20
106.202327997
 30
0.0
 10
72.0455259737
 20
106.1946174989
 30
0.0
 10
72.0515416812
 20
106.1872366545
 30
0.0
 10
72.0564186242
 20
106.1825917148
 30
0.0
  0
SPLINE
  5
3FE
100
AcDbEntity
  8
DEFAULT_2
100
AcDbSpline
 62
8
  6
HIDDEN
 70
0
 71
3
 72
9
 73
5
 74
0
 42
0.0000001
 43
0.0000001
 44
0.0000000001
 40
0.0
 40
0.0
 40
0.0
 40
0.0
 40
0.3153260578
 40
1.0
 40
1.0
 40
1.0
 40
1.0
 10
72.0564186242
 20
106.1825917148
 30
0.0
 10
72.057934704
 20
106.1811477571
 30
0.0
 10
72.0628600972
 20
106.1768441723
 30
0.0
 10
72.0691917074
 20
106.1731684229
 30
0.0
 10
72.073737762
 20
106.1731743801
 30
0.0
  0
LINE
  5
3FF
100
AcDbEntity
  8
DEFAULT_2
100
AcDbLine
 62
8
  6
HIDDEN
 10
71.9825976273
 20
110.0465491848
 11
71.9541650804
 21
109.9793762087
  0
LINE
  5
400
100
AcDbEntity
  8
DEFAULT_2
100
AcDbLine
 62
8
  6
HIDDEN
 10
71.9541650804
 20
109.9793762087
 11
71.9478574806
 21
109.9644287736
  0
LINE
  5
401
100
AcDbEntity
  8
DEFAULT_2
100
AcDbLine
 62
8
  6
HIDDEN
 10
71.9478574806
 20
109.9644287736
 11
71.9293966356
 21
109.9205861467
  0
LINE
  5
402
100
AcDbEntity
  8
DEFAULT_2
100
AcDbLine
 62
8
  6
HIDDEN
 10
71.9293966356
 20
109.9205861467
 11
71.9217882259
 21
109.9024757882
  0
LINE
  5
403
100
AcDbEntity
  8
DEFAULT_2
100
AcDbLine
 62
8
  6
HIDDEN
 10
71.9217882259
 20
109.9024757882
 11
71.9085345818
 21
109.8708705406
  0
LINE
  5
404
100
AcDbEntity
  8
DEFAULT_2
100
AcDbLine
 62
8
  6
HIDDEN
 10
71.9085345818
 20
109.8708705406
 11
71.8999762024
 21
109.8504231657
  0
LINE
  5
405
100
AcDbEntity
  8
DEFAULT_2
100
AcDbLine
 62
8
  6
HIDDEN
 10
71.8999762024
 20
109.8504231657
 11
71.8924332138
 21
109.832376347
  0
LINE
  5
406
100
AcDbEntity
  8
DEFAULT_2
100
AcDbLine
 62
8
  6
HIDDEN
 10
71.8924332138
 20
109.832376347
 11
71.8852909693
 21
109.8152667184
  0
LINE
  5
407
100
AcDbEntity
  8
DEFAULT_2
100
AcDbLine
 62
8
  6
HIDDEN
 10
71.8852909693
 20
109.8152667184
 11
71.8823020593
 21
109.8081001904
  0
SPLINE
  5
408
100
AcDbEntity
  8
DEFAULT_2
100
AcDbSpline
 62
8
  6
HIDDEN
 70
0
 71
3
 72
11
 73
7
 74
0
 42
0.0000001
 43
0.0000001
 44
0.0000000001
 40
0.0
 40
0.0
 40
0.0
 40
0.0
 40
0.378115506
 40
0.6769497961
 40
0.8836289024
 40
1.0
 40
1.0
 40
1.0
 40
1.0
 10
71.9825976273
 20
110.0465491848
 30
0.0
 10
71.9910170705
 20
110.0663907237
 30
0.0
 10
72.006804786
 20
110.101465145
 30
0.0
 10
72.0312728751
 20
110.146165081
 30
0.0
 10
72.0510322042
 20
110.1743701981
 30
0.0
 10
72.0671041881
 20
110.1873353929
 30
0.0
 10
72.0737377621
 20
110.1873267002
 30
0.0
  0
SPLINE
  5
409
100
AcDbEntity
  8
DEFAULT_2
100
AcDbSpline
 62
8
  6
HIDDEN
 70
0
 71
3
 72
11
 73
7
 74
0
 42
0.0000001
 43
0.0000001
 44
0.0000000001
 40
0.0
 40
0.0
 40
0.0
 40
0.0
 40
0.1163669219
 40
0.323060773
 40
0.6219046798
 40
1.0
 40
1.0
 40
1.0
 40
1.0
 10
72.0737317414
 20
106.1731730434
 30
0.0
 10
72.0670985657
 20
106.1731661886
 30
0.0
 10
72.0510287986
 20
106.1861328269
 30
0.0
 10
72.0312720621
 20
106.2143406043
 30
0.0
 10
72.0068041189
 20
106.2590390222
 30
0.0
 10
71.9910164148
 20
106.2941119017
 30
0.0
 10
71.9825976273
 20
106.3139518955
 30
0.0
  0
SPLINE
  5
40A
100
AcDbEntity
  8
DEFAULT_2
100
AcDbSpline
 62
8
  6
HIDDEN
 70
0
 71
3
 72
9
 73
5
 74
0
 42
0.0000001
 43
0.0000001
 44
0.0000000001
 40
0.0
 40
0.0
 40
0.0
 40
0.0
 40
0.3677647188
 40
1.0
 40
1.0
 40
1.0
 40
1.0
 10
72.0737317414
 20
110.1873280369
 30
0.0
 10
72.06783477
 20
110.1873341309
 30
0.0
 10
72.0534455751
 20
110.1768190199
 30
0.0
 10
72.0442424805
 20
110.1643004001
 30
0.0
 10
72.0385313493
 20
110.1559245286
 30
0.0
  0
SPLINE
  5
40B
100
AcDbEntity
  8
DEFAULT_2
100
AcDbSpline
 62
8
  6
HIDDEN
 70
0
 71
3
 72
9
 73
5
 74
0
 42
0.0000001
 43
0.0000001
 44
0.0000000001
 40
0.0
 40
0.0
 40
0.0
 40
0.0
 40
0.4340013558
 40
1.0
 40
1.0
 40
1.0
 40
1.0
 10
72.0385313493
 20
110.1559245286
 30
0.0
 10
72.0285091095
 20
110.1412260407
 30
0.0
 10
72.0086493692
 20
110.1052153757
 30
0.0
 10
71.9916603969
 20
110.0679068081
 30
0.0
 10
71.9825976273
 20
110.0465491848
 30
0.0
  0
LINE
  5
40C
100
AcDbEntity
  8
DEFAULT_2
100
AcDbLine
 62
8
  6
HIDDEN
 10
71.8790299724
 20
106.5602505384
 11
71.8823821042
 21
106.5522089232
  0
LINE
  5
40D
100
AcDbEntity
  8
DEFAULT_2
100
AcDbLine
 62
8
  6
HIDDEN
 10
71.8823821042
 20
106.5522089232
 11
71.8852733784
 21
106.5452765219
  0
LINE
  5
40E
100
AcDbEntity
  8
DEFAULT_2
100
AcDbLine
 62
8
  6
HIDDEN
 10
71.8852733784
 20
106.5452765219
 11
71.8924597722
 21
106.5280611525
  0
LINE
  5
40F
100
AcDbEntity
  8
DEFAULT_2
100
AcDbLine
 62
8
  6
HIDDEN
 10
71.8924597722
 20
106.5280611525
 11
71.89996831
 21
106.5100967813
  0
LINE
  5
410
100
AcDbEntity
  8
DEFAULT_2
100
AcDbLine
 62
8
  6
HIDDEN
 10
71.89996831
 20
106.5100967813
 11
71.9085441913
 21
106.4896075996
  0
LINE
  5
411
100
AcDbEntity
  8
DEFAULT_2
100
AcDbLine
 62
8
  6
HIDDEN
 10
71.9085441913
 20
106.4896075996
 11
71.9217859592
 21
106.4580306904
  0
LINE
  5
412
100
AcDbEntity
  8
DEFAULT_2
100
AcDbLine
 62
8
  6
HIDDEN
 10
71.9217859592
 20
106.4580306904
 11
71.9293989649
 21
106.439909393
  0
LINE
  5
413
100
AcDbEntity
  8
DEFAULT_2
100
AcDbLine
 62
8
  6
HIDDEN
 10
71.9293989649
 20
106.439909393
 11
71.9478570684
 21
106.3960732841
  0
LINE
  5
414
100
AcDbEntity
  8
DEFAULT_2
100
AcDbLine
 62
8
  6
HIDDEN
 10
71.9478570684
 20
106.3960732841
 11
71.9541654782
 21
106.3811239296
  0
LINE
  5
415
100
AcDbEntity
  8
DEFAULT_2
100
AcDbLine
 62
8
  6
HIDDEN
 10
71.9541654782
 20
106.3811239296
 11
71.9825976273
 21
106.3139518955
  0
LINE
  5
416
100
AcDbEntity
  8
DEFAULT_2
100
AcDbLine
 62
8
  6
HIDDEN
 10
71.8790299724
 20
109.8002505419
 11
71.8823821042
 21
109.8082921571
  0
SPLINE
  5
417
100
AcDbEntity
  8
DEFAULT_2
100
AcDbSpline
 62
8
  6
HIDDEN
 70
0
 71
3
 72
9
 73
5
 74
0
 42
0.0000001
 43
0.0000001
 44
0.0000000001
 40
0.0
 40
0.0
 40
0.0
 40
0.0
 40
0.438307981
 40
1.0
 40
1.0
 40
1.0
 40
1.0
 10
72.0932003817
 20
106.2334983668
 30
0.0
 10
72.0932003827
 20
106.2533355259
 30
0.0
 10
72.0897012378
 20
106.2985596268
 30
0.0
 10
72.0832459887
 20
106.3433621672
 30
0.0
 10
72.0790330375
 20
106.3684319758
 30
0.0
  0
SPLINE
  5
418
100
AcDbEntity
  8
DEFAULT_2
100
AcDbSpline
 62
8
  6
HIDDEN
 70
0
 71
3
 72
17
 73
13
 74
0
 42
0.0000001
 43
0.0000001
 44
0.0000000001
 40
0.0
 40
0.0
 40
0.0
 40
0.0
 40
0.0214851375
 40
0.0432290658
 40
0.0690459369
 40
0.1014671337
 40
0.1889769828
 40
0.306766113
 40
0.4522824728
 40
0.620547553
 40
0.805246921
 40
1.0
 40
1.0
 40
1.0
 40
1.0
 10
70.0641202201
 20
106.1732994389
 30
0.0
 10
70.0670649905
 20
106.1733218535
 30
0.0
 10
70.0731091079
 20
106.1744820388
 30
0.0
 10
70.0807619687
 20
106.180556765
 30
0.0
 10
70.0862207215
 20
106.1902706772
 30
0.0
 10
70.0915405845
 20
106.2096357462
 30
0.0
 10
70.0927214198
 20
106.2425030957
 30
0.0
 10
70.0880871458
 20
106.2903817963
 30
0.0
 10
70.0769821161
 20
106.3485691412
 30
0.0
 10
70.0599102317
 20
106.414752654
 30
0.0
 10
70.0374097388
 20
106.4864082446
 30
0.0
 10
70.0194652279
 20
106.5352469361
 30
0.0
 10
70.009704259
 20
106.5600920929
 30
0.0
  0
SPLINE
  5
419
100
AcDbEntity
  8
DEFAULT_2
100
AcDbSpline
 62
8
  6
HIDDEN
 70
0
 71
3
 72
9
 73
5
 74
0
 42
0.0000001
 43
0.0000001
 44
0.0000000001
 40
0.0
 40
0.0
 40
0.0
 40
0.0
 40
0.2521920203
 40
1.0
 40
1.0
 40
1.0
 40
1.0
 10
70.009704259
 20
106.5600920929
 30
0.0
 10
70.0032147906
 20
106.5766101109
 30
0.0
 10
69.9765092149
 20
106.6417177952
 30
0.0
 10
69.9461864243
 20
106.7053697385
 30
0.0
 10
69.9211916506
 20
106.7516791682
 30
0.0
  0
SPLINE
  5
41A
100
AcDbEntity
  8
DEFAULT_2
100
AcDbSpline
 62
8
  6
HIDDEN
 70
0
 71
3
 72
11
 73
7
 74
0
 42
0.0000001
 43
0.0000001
 44
0.0000000001
 40
0.0
 40
0.0
 40
0.0
 40
0.0
 40
0.1362461096
 40
0.3299253949
 40
0.6155479989
 40
1.0
 40
1.0
 40
1.0
 40
1.0
 10
72.073737762
 20
106.1731743801
 30
0.0
 10
72.0768052074
 20
106.1731783997
 30
0.0
 10
72.0841253032
 20
106.1772513143
 30
0.0
 10
72.0893011875
 20
106.1906017834
 30
0.0
 10
72.0927043949
 20
106.2096800714
 30
0.0
 10
72.093200382
 20
106.2248428058
 30
0.0
 10
72.0932003817
 20
106.2334983668
 30
0.0
  0
SPLINE
  5
41B
100
AcDbEntity
  8
DEFAULT_2
100
AcDbSpline
 62
8
  6
HIDDEN
 70
0
 71
3
 72
13
 73
9
 74
0
 42
0.0000001
 43
0.0000001
 44
0.0000000001
 40
0.0
 40
0.0
 40
0.0
 40
0.0
 40
0.3140071915
 40
0.6132681841
 40
0.7416360375
 40
0.8492723958
 40
0.9345314416
 40
1.0
 40
1.0
 40
1.0
 40
1.0
 10
71.9825976273
 20
106.7516791682
 30
0.0
 10
71.9497311715
 20
106.8538647368
 30
0.0
 10
71.9003235498
 20
107.0583203493
 30
0.0
 10
71.8745115796
 20
107.3117690442
 30
0.0
 10
71.8826321549
 20
107.4948930094
 30
0.0
 10
71.9015823294
 20
107.6035301298
 30
0.0
 10
71.9322661285
 20
107.6869320055
 30
0.0
 10
71.9647149964
 20
107.729066924
 30
0.0
 10
71.9825976273
 20
107.7425232674
 30
0.0
  0
SPLINE
  5
41C
100
AcDbEntity
  8
DEFAULT_2
100
AcDbSpline
 62
8
  6
HIDDEN
 70
0
 71
3
 72
14
 73
10
 74
0
 42
0.0000001
 43
0.0000001
 44
0.0000000001
 40
0.0
 40
0.0
 40
0.0
 40
0.0
 40
0.0805548345
 40
0.1718181522
 40
0.2789163355
 40
0.4032495968
 40
0.5438520818
 40
0.6951195518
 40
1.0
 40
1.0
 40
1.0
 40
1.0
 10
69.9211916506
 20
107.7425232674
 30
0.0
 10
69.8943880534
 20
107.7305041587
 30
0.0
 10
69.8413880303
 20
107.6946269112
 30
0.0
 10
69.7790856844
 20
107.6121685193
 30
0.0
 10
69.7384895052
 20
107.5001610126
 30
0.0
 10
69.7241582349
 20
107.3640366942
 30
0.0
 10
69.7418533921
 20
107.2123754119
 30
0.0
 10
69.7984096409
 20
107.00175292
 30
0.0
 10
69.868386026
 20
106.8495155556
 30
0.0
 10
69.9211916506
 20
106.7516791682
 30
0.0
  0
SPLINE
  5
41D
100
AcDbEntity
  8
DEFAULT_2
100
AcDbSpline
 62
8
  6
HIDDEN
 70
0
 71
3
 72
10
 73
6
 74
0
 42
0.0000001
 43
0.0000001
 44
0.0000000001
 40
0.0
 40
0.0
 40
0.0
 40
0.0
 40
0.3177774129
 40
0.6005475257
 40
1.0
 40
1.0
 40
1.0
 40
1.0
 10
70.0920352299
 20
108.1802497536
 30
0.0
 10
70.0920352819
 20
108.2317650835
 30
0.0
 10
70.0840477652
 20
108.3299935882
 30
0.0
 10
70.0457799921
 20
108.4849798255
 30
0.0
 10
69.9802788612
 20
108.5914822792
 30
0.0
 10
69.9211916506
 20
108.6179778129
 30
0.0
  0
SPLINE
  5
41E
100
AcDbEntity
  8
DEFAULT_2
100
AcDbSpline
 62
8
  6
HIDDEN
 70
0
 71
3
 72
12
 73
8
 74
0
 42
0.0000001
 43
0.0000001
 44
0.0000000001
 40
0.0
 40
0.0
 40
0.0
 40
0.0
 40
0.3263384586
 40
0.6170969124
 40
0.8447382103
 40
0.931291079
 40
1.0
 40
1.0
 40
1.0
 40
1.0
 10
72.0932004016
 20
108.1802502351
 30
0.0
 10
72.0932004168
 20
108.2304119933
 30
0.0
 10
72.0881206069
 20
108.3254023378
 30
0.0
 10
72.0664426727
 20
108.4535871765
 30
0.0
 10
72.0372927676
 20
108.5428239848
 30
0.0
 10
72.0073492671
 20
108.5937064663
 30
0.0
 10
71.9910366107
 20
108.6116276365
 30
0.0
 10
71.9825976273
 20
108.6179778129
 30
0.0
  0
SPLINE
  5
41F
100
AcDbEntity
  8
DEFAULT_2
100
AcDbSpline
 62
8
  6
HIDDEN
 70
0
 71
3
 72
13
 73
9
 74
0
 42
0.0000001
 43
0.0000001
 44
0.0000000001
 40
0.0
 40
0.0
 40
0.0
 40
0.0
 40
0.0654685178
 40
0.1507269095
 40
0.2583625953
 40
0.3867306518
 40
0.6859922318
 40
1.0
 40
1.0
 40
1.0
 40
1.0
 10
71.9825976273
 20
108.6179778129
 30
0.0
 10
71.9647150075
 20
108.631434148
 30
0.0
 10
71.9322662811
 20
108.6735688669
 30
0.0
 10
71.9015825557
 20
108.7569702565
 30
0.0
 10
71.8826322502
 20
108.8656069642
 30
0.0
 10
71.8745115149
 20
109.048730969
 30
0.0
 10
71.9003234152
 20
109.3021801474
 30
0.0
 10
71.9497311112
 20
109.5066361559
 30
0.0
 10
71.9825976273
 20
109.6088219121
 30
0.0
  0
SPLINE
  5
420
100
AcDbEntity
  8
DEFAULT_2
100
AcDbSpline
 62
8
  6
HIDDEN
 70
0
 71
3
 72
14
 73
10
 74
0
 42
0.0000001
 43
0.0000001
 44
0.0000000001
 40
0.0
 40
0.0
 40
0.0
 40
0.0
 40
0.3050067777
 40
0.4563214782
 40
0.5970567825
 40
0.7212702424
 40
0.8282639549
 40
0.9194886548
 40
1.0
 40
1.0
 40
1.0
 40
1.0
 10
69.9211916506
 20
109.6088219121
 30
0.0
 10
69.8683642647
 20
109.5109452062
 30
0.0
 10
69.7982310096
 20
109.3586902462
 30
0.0
 10
69.7419335183
 20
109.1478787347
 30
0.0
 10
69.7241744625
 20
108.9962269125
 30
0.0
 10
69.7383768284
 20
108.8600925274
 30
0.0
 10
69.7792208277
 20
108.7482808771
 30
0.0
 10
69.8414306927
 20
108.6658664843
 30
0.0
 10
69.8944025843
 20
108.6299904058
 30
0.0
 10
69.9211916506
 20
108.6179778129
 30
0.0
  0
SPLINE
  5
421
100
AcDbEntity
  8
DEFAULT_2
100
AcDbSpline
 62
8
  6
HIDDEN
 70
0
 71
3
 72
9
 73
5
 74
0
 42
0.0000001
 43
0.0000001
 44
0.0000000001
 40
0.0
 40
0.0
 40
0.0
 40
0.0
 40
0.5614566155
 40
1.0
 40
1.0
 40
1.0
 40
1.0
 10
72.079229255
 20
109.9932363855
 30
0.0
 10
72.083386077
 20
110.0180803219
 30
0.0
 10
72.0897565984
 20
110.062496892
 30
0.0
 10
72.0932003831
 20
110.1073277918
 30
0.0
 10
72.0932003823
 20
110.1270026807
 30
0.0
  0
SPLINE
  5
422
100
AcDbEntity
  8
DEFAULT_2
100
AcDbSpline
 62
8
  6
HIDDEN
 70
0
 71
3
 72
9
 73
5
 74
0
 42
0.0000001
 43
0.0000001
 44
0.0000000001
 40
0.0
 40
0.0
 40
0.0
 40
0.0
 40
0.2449691492
 40
1.0
 40
1.0
 40
1.0
 40
1.0
 10
69.9211916506
 20
109.6088219121
 30
0.0
 10
69.9293796264
 20
109.6239923031
 30
0.0
 10
69.9617316582
 20
109.6864944355
 30
0.0
 10
69.9902753364
 20
109.7509554761
 30
0.0
 10
70.0097042543
 20
109.800409009
 30
0.0
  0
SPLINE
  5
423
100
AcDbEntity
  8
DEFAULT_2
100
AcDbSpline
 62
8
  6
HIDDEN
 70
0
 71
3
 72
11
 73
7
 74
0
 42
0.0000001
 43
0.0000001
 44
0.0000000001
 40
0.0
 40
0.0
 40
0.0
 40
0.0
 40
0.3844734193
 40
0.6700898657
 40
0.8637544266
 40
1.0
 40
1.0
 40
1.0
 40
1.0
 10
72.0932003823
 20
110.1270026807
 30
0.0
 10
72.0932003829
 20
110.1356594234
 30
0.0
 10
72.092704095
 20
110.150823783
 30
0.0
 10
72.0892994961
 20
110.1699033667
 30
0.0
 10
72.0841211619
 20
110.1832540231
 30
0.0
 10
72.0767994235
 20
110.1873248667
 30
0.0
 10
72.0737317414
 20
110.1873280369
 30
0.0
  0
SPLINE
  5
424
100
AcDbEntity
  8
0
100
AcDbSpline
 62
7
  6
CONTINUOUS
 70
0
 71
3
 72
15
 73
11
 74
0
 42
0.0000001
 43
0.0000001
 44
0.0000000001
 40
0.0
 40
0.0
 40
0.0
 40
0.0
 40
0.1250245363
 40
0.2500293709
 40
0.3750074733
 40
0.4999666607
 40
0.6249397407
 40
0.7499416157
 40
0.8749633898
 40
1.0
 40
1.0
 40
1.0
 40
1.0
 10
75.8543677774
 20
101.1793271051
 30
0.0
 10
75.7660475719
 20
101.3436510127
 30
0.0
 10
75.6017980657
 20
101.6792658569
 30
0.0
 10
75.4109258896
 20
102.2068287741
 30
0.0
 10
75.3001434703
 20
102.7579614572
 30
0.0
 10
75.2922066156
 20
103.3207807265
 30
0.0
 10
75.3891506064
 20
103.8746722121
 30
0.0
 10
75.5700137445
 20
104.4059273942
 30
0.0
 10
75.8095530154
 20
104.912613007
 30
0.0
 10
75.9956736808
 20
105.2363642486
 30
0.0
 10
76.0932003797
 20
105.3954179207
 30
0.0
  0
SPLINE
  5
425
100
AcDbEntity
  8
0
100
AcDbSpline
 62
7
  6
CONTINUOUS
 70
0
 71
3
 72
9
 73
5
 74
0
 42
0.0000001
 43
0.0000001
 44
0.0000000001
 40
0.0
 40
0.0
 40
0.0
 40
0.0
 40
0.5009299054
 40
1.0
 40
1.0
 40
1.0
 40
1.0
 10
75.8541980361
 20
103.3302505402
 30
0.0
 10
75.8653525772
 20
103.4882684419
 30
0.0
 10
75.9205273156
 20
103.8020126896
 30
0.0
 10
76.0294124542
 20
104.1002993296
 30
0.0
 10
76.0932003797
 20
104.2446571944
 30
0.0
  0
SPLINE
  5
426
100
AcDbEntity
  8
0
100
AcDbSpline
 62
7
  6
CONTINUOUS
 70
0
 71
3
 72
9
 73
5
 74
0
 42
0.0000001
 43
0.0000001
 44
0.0000000001
 40
0.0
 40
0.0
 40
0.0
 40
0.0
 40
0.4990716142
 40
1.0
 40
1.0
 40
1.0
 40
1.0
 10
76.0932003797
 20
101.9158438859
 30
0.0
 10
76.0294122607
 20
102.0602021887
 30
0.0
 10
75.9205273058
 20
102.3584889
 30
0.0
 10
75.8653525432
 20
102.6722331194
 30
0.0
 10
75.8541980361
 20
102.8302505402
 30
0.0
  0
SPLINE
  5
427
100
AcDbEntity
  8
A_RUNDUNGEN
100
AcDbSpline
 62
7
  6
CONTINUOUS
 70
0
 71
3
 72
12
 73
8
 74
0
 42
0.0000001
 43
0.0000001
 44
0.0000000001
 40
0.0
 40
0.0
 40
0.0
 40
0.0
 40
0.3016107602
 40
0.5768876568
 40
0.8129482289
 40
0.9127827064
 40
1.0
 40
1.0
 40
1.0
 40
1.0
 10
80.2561846964
 20
61.9537358122
 30
0.0
 10
80.3595043079
 20
61.9042473267
 30
0.0
 10
80.5584158211
 20
61.8120563275
 30
0.0
 10
80.8448753051
 20
61.6968805429
 30
0.0
 10
81.0687360895
 20
61.6308158941
 30
0.0
 10
81.2288463495
 20
61.6127428821
 30
0.0
 10
81.3004785861
 20
61.6175244415
 30
0.0
 10
81.3328708167
 20
61.6244656338
 30
0.0
  0
SPLINE
  5
428
100
AcDbEntity
  8
A_RUNDUNGEN
100
AcDbSpline
 62
7
  6
CONTINUOUS
 70
0
 71
3
 72
14
 73
10
 74
0
 42
0.0000001
 43
0.0000001
 44
0.0000000001
 40
0.0
 40
0.0
 40
0.0
 40
0.0
 40
0.3820312629
 40
0.5547774445
 40
0.7063658421
 40
0.831008064
 40
0.9236945867
 40
0.9807312587
 40
1.0
 40
1.0
 40
1.0
 40
1.0
 10
88.4959865607
 20
64.1802505402
 30
0.0
 10
88.5094655195
 20
64.0530093771
 30
0.0
 10
88.5287450032
 20
63.8682012791
 30
0.0
 10
88.552637148
 20
63.6328282631
 30
0.0
 10
88.5673941847
 20
63.4831797515
 30
0.0
 10
88.5791787324
 20
63.36017945
 30
0.0
 10
88.5877451736
 20
63.2686930613
 30
0.0
 10
88.5920997375
 20
63.2122430409
 30
0.0
 10
88.5930444087
 20
63.186703597
 30
0.0
 10
88.5932003797
 20
63.1802505402
 30
0.0
  0
ENDSEC
  0
SECTION
  2
OBJECTS
  0
DICTIONARY
  5
429
100
AcDbDictionary
  3
ACAD_GROUP
350
42A
  3
ACAD_MLINESTYLE
350
42B
  0
DICTIONARY
  5
42A
102
{ACAD_REACTORS
330
429
102
}
100
AcDbDictionary
  0
DICTIONARY
  5
42B
102
{ACAD_REACTORS
330
429
102
}
100
AcDbDictionary
  3
STANDARD
350
42C
  0
MLINESTYLE
  5
42C
102
{ACAD_REACTORS
330
42B
102
}
100
AcDbMlineStyle
  2
STANDARD
 70
0
  3

 62
256
 51
90.0
 52
90.0
 71
2
 49
0.5
 62
256
  6
BYLAYER
 49
-0.5
 62
256
  6
BYLAYER
  0
ENDSEC
  0
EOF
