  0
SECTION
  2
HEADER
  9
$ACADVER
  1
AC1014
  9
$ACADMAINTVER
 70
     9
  9
$DWGCODEPAGE
  3
ANSI_1252
  9
$INSBASE
 10
0.0
 20
0.0
 30
0.0
  9
$EXTMIN
 10
-1605.18470977237
 20
-1674.749378347296
 30
0.0
  9
$EXTMAX
 10
2655.25820933469
 20
799.9132000000001
 30
0.0
  9
$LIMMIN
 10
0.0
 20
0.0
  9
$LIMMAX
 10
12.0
 20
9.0
  9
$ORTHOMODE
 70
     0
  9
$REGENMODE
 70
     1
  9
$FILLMODE
 70
     1
  9
$QTEXTMODE
 70
     0
  9
$MIRRTEXT
 70
     1
  9
$DRAGMODE
 70
     2
  9
$LTSCALE
 40
1.0
  9
$OSMODE
 70
    37
  9
$ATTMODE
 70
     1
  9
$TEXTSIZE
 40
0.2
  9
$TRACEWID
 40
0.05
  9
$TEXTSTYLE
  7
STANDARD
  9
$CLAYER
  8
0
  9
$CELTYPE
  6
BYLAYER
  9
$CECOLOR
 62
   256
  9
$CELTSCALE
 40
1.0
  9
$DELOBJ
 70
     1
  9
$DISPSILH
 70
     0
  9
$DIMSCALE
 40
1.0
  9
$DIMASZ
 40
0.18
  9
$DIMEXO
 40
0.0625
  9
$DIMDLI
 40
0.38
  9
$DIMRND
 40
0.0
  9
$DIMDLE
 40
0.0
  9
$DIMEXE
 40
0.18
  9
$DIMTP
 40
0.0
  9
$DIMTM
 40
0.0
  9
$DIMTXT
 40
0.18
  9
$DIMCEN
 40
0.09
  9
$DIMTSZ
 40
0.0
  9
$DIMTOL
 70
     0
  9
$DIMLIM
 70
     0
  9
$DIMTIH
 70
     1
  9
$DIMTOH
 70
     1
  9
$DIMSE1
 70
     0
  9
$DIMSE2
 70
     0
  9
$DIMTAD
 70
     0
  9
$DIMZIN
 70
     0
  9
$DIMBLK
  1

  9
$DIMASO
 70
     1
  9
$DIMSHO
 70
     1
  9
$DIMPOST
  1

  9
$DIMAPOST
  1

  9
$DIMALT
 70
     0
  9
$DIMALTD
 70
     2
  9
$DIMALTF
 40
25.4
  9
$DIMLFAC
 40
1.0
  9
$DIMTOFL
 70
     0
  9
$DIMTVP
 40
0.0
  9
$DIMTIX
 70
     0
  9
$DIMSOXD
 70
     0
  9
$DIMSAH
 70
     0
  9
$DIMBLK1
  1

  9
$DIMBLK2
  1

  9
$DIMSTYLE
  2
STANDARD
  9
$DIMCLRD
 70
     0
  9
$DIMCLRE
 70
     0
  9
$DIMCLRT
 70
     0
  9
$DIMTFAC
 40
1.0
  9
$DIMGAP
 40
0.09
  9
$DIMJUST
 70
     0
  9
$DIMSD1
 70
     0
  9
$DIMSD2
 70
     0
  9
$DIMTOLJ
 70
     1
  9
$DIMTZIN
 70
     0
  9
$DIMALTZ
 70
     0
  9
$DIMALTTZ
 70
     0
  9
$DIMFIT
 70
     3
  9
$DIMUPT
 70
     0
  9
$DIMUNIT
 70
     2
  9
$DIMDEC
 70
     4
  9
$DIMTDEC
 70
     4
  9
$DIMALTU
 70
     2
  9
$DIMALTTD
 70
     2
  9
$DIMTXSTY
  7
STANDARD
  9
$DIMAUNIT
 70
     0
  9
$LUNITS
 70
     2
  9
$LUPREC
 70
     4
  9
$SKETCHINC
 40
0.1
  9
$FILLETRAD
 40
0.5
  9
$AUNITS
 70
     0
  9
$AUPREC
 70
     0
  9
$MENU
  1
.
  9
$ELEVATION
 40
0.0
  9
$PELEVATION
 40
0.0
  9
$THICKNESS
 40
0.0
  9
$LIMCHECK
 70
     0
  9
$CHAMFERA
 40
0.5
  9
$CHAMFERB
 40
0.5
  9
$CHAMFERC
 40
1.0
  9
$CHAMFERD
 40
0.0
  9
$SKPOLY
 70
     0
  9
$TDCREATE
 40
2458788.855674502
  9
$TDUPDATE
 40
2458788.855675405
  9
$TDINDWG
 40
0.0000000116
  9
$TDUSRTIMER
 40
0.0000000116
  9
$USRTIMER
 70
     1
  9
$ANGBASE
 50
0.0
  9
$ANGDIR
 70
     0
  9
$PDMODE
 70
     0
  9
$PDSIZE
 40
0.0
  9
$PLINEWID
 40
0.0
  9
$COORDS
 70
     1
  9
$SPLFRAME
 70
     0
  9
$SPLINETYPE
 70
     6
  9
$SPLINESEGS
 70
     8
  9
$ATTDIA
 70
     0
  9
$ATTREQ
 70
     1
  9
$HANDLING
 70
     1
  9
$HANDSEED
  5
6A5
  9
$SURFTAB1
 70
     6
  9
$SURFTAB2
 70
     6
  9
$SURFTYPE
 70
     6
  9
$SURFU
 70
     6
  9
$SURFV
 70
     6
  9
$UCSNAME
  2

  9
$UCSORG
 10
0.0
 20
0.0
 30
0.0
  9
$UCSXDIR
 10
1.0
 20
0.0
 30
0.0
  9
$UCSYDIR
 10
0.0
 20
1.0
 30
0.0
  9
$PUCSNAME
  2

  9
$PUCSORG
 10
0.0
 20
0.0
 30
0.0
  9
$PUCSXDIR
 10
1.0
 20
0.0
 30
0.0
  9
$PUCSYDIR
 10
0.0
 20
1.0
 30
0.0
  9
$USERI1
 70
     0
  9
$USERI2
 70
     0
  9
$USERI3
 70
     0
  9
$USERI4
 70
     0
  9
$USERI5
 70
     0
  9
$USERR1
 40
18.1
  9
$USERR2
 40
0.0
  9
$USERR3
 40
0.0
  9
$USERR4
 40
0.0
  9
$USERR5
 40
0.0
  9
$WORLDVIEW
 70
     1
  9
$SHADEDGE
 70
     3
  9
$SHADEDIF
 70
    70
  9
$TILEMODE
 70
     1
  9
$MAXACTVP
 70
    64
  9
$PINSBASE
 10
0.0
 20
0.0
 30
0.0
  9
$PLIMCHECK
 70
     0
  9
$PEXTMIN
 10
1.00000000000000E+20
 20
1.00000000000000E+20
 30
1.00000000000000E+20
  9
$PEXTMAX
 10
-1.00000000000000E+20
 20
-1.00000000000000E+20
 30
-1.00000000000000E+20
  9
$PLIMMIN
 10
0.0
 20
0.0
  9
$PLIMMAX
 10
12.0
 20
9.0
  9
$UNITMODE
 70
     0
  9
$VISRETAIN
 70
     1
  9
$PLINEGEN
 70
     0
  9
$PSLTSCALE
 70
     1
  9
$TREEDEPTH
 70
  3020
  9
$PICKSTYLE
 70
     1
  9
$CMLSTYLE
  2
STANDARD
  9
$CMLJUST
 70
     0
  9
$CMLSCALE
 40
1.0
  9
$PROXYGRAPHICS
 70
     1
  9
$MEASUREMENT
 70
     1
  0
ENDSEC
  0
SECTION
  2
CLASSES
  0
CLASS
  1
ACDBDICTIONARYWDFLT
  2
AcDbDictionaryWithDefault
  3
ObjectDBX Classes
 90
        0
280
     0
281
     0
  0
CLASS
  1
VISUALSTYLE
  2
AcDbVisualStyle
  3
ObjectDBX Classes
 90
     4095
280
     0
281
     0
  0
CLASS
  1
MATERIAL
  2
AcDbMaterial
  3
ObjectDBX Classes
 90
     1153
280
     0
281
     0
  0
CLASS
  1
IMAGEDEF
  2
AcDbRasterImageDef
  3
ISM
 90
        0
280
     0
281
     0
  0
CLASS
  1
IMAGE
  2
AcDbRasterImage
  3
ISM
 90
      127
280
     0
281
     1
  0
CLASS
  1
IMAGEDEF_REACTOR
  2
AcDbRasterImageDefReactor
  3
ISM
 90
        1
280
     0
281
     0
  0
CLASS
  1
DICTIONARYVAR
  2
AcDbDictionaryVar
  3
ObjectDBX Classes
 90
        0
280
     0
281
     0
  0
CLASS
  1
XRECORD
  2
AcDbXrecord
  3
AutoCAD 2000
 90
        0
280
     0
281
     0
  0
CLASS
  1
LWPOLYLINE
  2
AcDbPolyline
  3
AutoCAD 2000
 90
        0
280
     0
281
     1
  0
CLASS
  1
HATCH
  2
AcDbHatch
  3
AutoCAD 2000
 90
        0
280
     0
281
     1
  0
CLASS
  1
ACDBPLACEHOLDER
  2
AcDbPlaceHolder
  3
ObjectDBX Classes
 90
        0
280
     0
281
     0
  0
CLASS
  1
LAYOUT
  2
AcDbLayout
  3
ObjectDBX Classes
 90
        0
280
     0
281
     0
  0
ENDSEC
  0
SECTION
  2
TABLES
  0
TABLE
  2
VPORT
  5
8
330
0
100
AcDbSymbolTable
 70
     1
  0
VPORT
  5
29
330
8
100
AcDbSymbolTableRecord
100
AcDbViewportTableRecord
  2
*ACTIVE
 70
     0
 10
0.0
 20
0.0
 11
1.0
 21
1.0
 12
525.03674978116
 22
-437.418089173648
 13
0.0
 23
0.0
 14
0.5
 24
0.5
 15
0.5
 25
0.5
 16
0.0
 26
0.0
 36
1.0
 17
0.0
 27
0.0
 37
0.0
 40
2924.15915116429
 41
1.60267857142857
 42
50.0
 43
0.0
 44
0.0
 50
0.0
 51
0.0
 71
     0
 72
   100
 73
     1
 74
     3
 75
     0
 76
     0
 77
     0
 78
     0
  0
ENDTAB
  0
TABLE
  2
LTYPE
  5
5
330
0
100
AcDbSymbolTable
 70
     8
  0
LTYPE
  5
14
330
5
100
AcDbSymbolTableRecord
100
AcDbLinetypeTableRecord
  2
BYBLOCK
 70
     0
  3

 72
    65
 73
     0
 40
0.0
  0
LTYPE
  5
15
330
5
100
AcDbSymbolTableRecord
100
AcDbLinetypeTableRecord
  2
BYLAYER
 70
     0
  3

 72
    65
 73
     0
 40
0.0
  0
LTYPE
  5
16
330
5
100
AcDbSymbolTableRecord
100
AcDbLinetypeTableRecord
  2
CONTINUOUS
 70
     0
  3
Solid line
 72
    65
 73
     0
 40
0.0
  0
LTYPE
  5
3F
330
5
100
AcDbSymbolTableRecord
100
AcDbLinetypeTableRecord
  2
DASHED
 70
     0
  3
Dashed
 72
    65
 73
     2
 40
15.0
 49
7.0
 74
     0
 49
-8.0
 74
     0
  0
LTYPE
  5
40
330
5
100
AcDbSymbolTableRecord
100
AcDbLinetypeTableRecord
  2
DOTTED
 70
     0
  3
Dotted
 72
    65
 73
     2
 40
1.0
 49
0.0
 74
     0
 49
-1.0
 74
     0
  0
LTYPE
  5
41
330
5
100
AcDbSymbolTableRecord
100
AcDbLinetypeTableRecord
  2
DOT_CENTER
 70
     0
  3
Dot_Center
 72
    65
 73
     4
 40
14.0
 49
12.0
 74
     0
 49
-1.0
 74
     0
 49
0.0
 74
     0
 49
-1.0
 74
     0
  0
LTYPE
  5
42
330
5
100
AcDbSymbolTableRecord
100
AcDbLinetypeTableRecord
  2
LONG_DASHED
 70
     0
  3
Long_Dashed
 72
    65
 73
     2
 40
15.0
 49
10.0
 74
     0
 49
-5.0
 74
     0
  0
LTYPE
  5
43
330
5
100
AcDbSymbolTableRecord
100
AcDbLinetypeTableRecord
  2
DASH_CENTER
 70
     0
  3
Dash_Center
 72
    65
 73
     4
 40
14.0
 49
11.0
 74
     0
 49
-1.0
 74
     0
 49
1.0
 74
     0
 49
-1.0
 74
     0
  0
LTYPE
  5
44
330
5
100
AcDbSymbolTableRecord
100
AcDbLinetypeTableRecord
  2
PHANTOM
 70
     0
  3
Phantom
 72
    65
 73
     6
 40
13.0
 49
10.0
 74
     0
 49
-1.0
 74
     0
 49
0.0
 74
     0
 49
-1.0
 74
     0
 49
0.0
 74
     0
 49
-1.0
 74
     0
  0
LTYPE
  5
45
330
5
100
AcDbSymbolTableRecord
100
AcDbLinetypeTableRecord
  2
CENTER_DASH_DASH
 70
     0
  3
Center_Dash_Dash
 72
    65
 73
     6
 40
14.0
 49
9.0
 74
     0
 49
-1.0
 74
     0
 49
1.0
 74
     0
 49
-1.0
 74
     0
 49
1.0
 74
     0
 49
-1.0
 74
     0
  0
ENDTAB
  0
TABLE
  2
LAYER
  5
2
330
0
100
AcDbSymbolTable
 70
     2
  0
LAYER
  5
10
330
2
100
AcDbSymbolTableRecord
100
AcDbLayerTableRecord
  2
0
 70
     0
 62
     7
  6
CONTINUOUS
  0
LAYER
  5
46
330
2
100
AcDbSymbolTableRecord
100
AcDbLayerTableRecord
  2
1
 70
     0
 62
     7
  6
CONTINUOUS
  0
ENDTAB
  0
TABLE
  2
STYLE
  5
3
330
0
100
AcDbSymbolTable
 70
     4
  0
STYLE
  5
11
330
3
100
AcDbSymbolTableRecord
100
AcDbTextStyleTableRecord
  2
STANDARD
 70
     0
 40
0.0
 41
1.0
 50
0.0
 71
     0
 42
0.2
  3
txt
  4

  0
STYLE
  5
334
330
3
100
AcDbSymbolTableRecord
100
AcDbTextStyleTableRecord
  2
CONVERTER_11
 70
     0
 40
0.0
 41
1.188
 50
0.0
 71
     0
 42
0.2
  3
ARIAL.TTF
  4

  0
STYLE
  5
33E
330
3
100
AcDbSymbolTableRecord
100
AcDbTextStyleTableRecord
  2
CONVERTER_12
 70
     0
 40
0.0
 41
0.95
 50
0.0
 71
     0
 42
0.2
  3
complex.shx
  4

  0
STYLE
  5
3AD
330
3
100
AcDbSymbolTableRecord
100
AcDbTextStyleTableRecord
  2
CONVERTER_13
 70
     0
 40
0.0
 41
0.9
 50
0.0
 71
     0
 42
0.2
  3
txt.shx
  4

  0
ENDTAB
  0
TABLE
  2
VIEW
  5
6
330
0
100
AcDbSymbolTable
 70
     0
  0
ENDTAB
  0
TABLE
  2
UCS
  5
7
330
0
100
AcDbSymbolTable
 70
     0
  0
ENDTAB
  0
TABLE
  2
APPID
  5
9
330
0
100
AcDbSymbolTable
 70
     1
  0
APPID
  5
12
330
9
100
AcDbSymbolTableRecord
100
AcDbRegAppTableRecord
  2
ACAD
 70
     0
  0
ENDTAB
  0
TABLE
  2
DIMSTYLE
  5
A
330
0
100
AcDbSymbolTable
 70
     8
  0
DIMSTYLE
105
27
330
A
100
AcDbSymbolTableRecord
100
AcDbDimStyleTableRecord
  2
STANDARD
 70
     0
  3

  4

  5

  6

  7

 40
1.0
 41
0.18
 42
0.0625
 43
0.38
 44
0.18
 45
0.0
 46
0.0
 47
0.0
 48
0.0
140
0.18
141
0.09
142
0.0
143
25.4
144
1.0
145
0.0
146
1.0
147
0.09
 71
     0
 72
     0
 73
     1
 74
     1
 75
     0
 76
     0
 77
     0
 78
     0
170
     0
171
     2
172
     0
173
     0
174
     0
175
     0
176
     0
177
     0
178
     0
270
     2
271
     4
272
     4
273
     2
274
     2
340
11
275
     0
280
     0
281
     0
282
     0
283
     1
284
     0
285
     0
286
     0
287
     3
288
     0
  0
DIMSTYLE
105
3BA
102
{ACAD_REACTORS
330
3BB
102
}
330
A
100
AcDbSymbolTableRecord
100
AcDbDimStyleTableRecord
  2
ME10_DIM_10
 70
     0
  3

  4

  5

  6

  7

 40
1.0
 41
3.5
 42
1.5
 43
0.38
 44
1.0
 45
0.0
 46
0.0
 47
3.0
 48
2.0
140
3.5
141
0.09
142
0.0
143
25.4
144
1.0
145
0.0
146
0.6
147
2.0
 71
     1
 72
     0
 73
     0
 74
     0
 75
     0
 76
     0
 77
     1
 78
     8
170
     0
171
     2
172
     1
173
     1
174
     1
175
     1
176
     1
177
     1
178
     3
270
     2
271
     3
272
     0
273
     2
274
     2
340
3AD
275
     0
280
     0
281
     0
282
     0
283
     1
284
     0
285
     0
286
     0
287
     3
288
     0
  0
DIMSTYLE
105
3C5
102
{ACAD_REACTORS
330
3C6
102
}
330
A
100
AcDbSymbolTableRecord
100
AcDbDimStyleTableRecord
  2
ME10_DIM_11
 70
     0
  3

  4

  5

  6

  7

 40
1.0
 41
3.5
 42
1.5
 43
0.38
 44
1.0
 45
0.0
 46
0.0
 47
0.0
 48
0.0
140
3.5
141
0.09
142
0.0
143
25.4
144
1.0
145
0.0
146
1.0
147
2.0
 71
     0
 72
     0
 73
     0
 74
     0
 75
     0
 76
     0
 77
     1
 78
     8
170
     0
171
     2
172
     1
173
     1
174
     1
175
     1
176
     1
177
     1
178
     3
270
     2
271
     3
272
     4
273
     2
274
     2
340
3AD
275
     0
280
     0
281
     0
282
     0
283
     1
284
     0
285
     0
286
     0
287
     3
288
     0
  0
DIMSTYLE
105
458
102
{ACAD_REACTORS
330
459
102
}
330
A
100
AcDbSymbolTableRecord
100
AcDbDimStyleTableRecord
  2
ME10_DIM_12
 70
     0
  3

  4

  5

  6

  7

 40
1.0
 41
3.5
 42
1.5
 43
0.38
 44
1.0
 45
0.0
 46
0.0
 47
0.0
 48
0.0
140
3.5
141
0.09
142
0.0
143
25.4
144
1.0
145
0.0
146
1.0
147
2.0
 71
     0
 72
     0
 73
     0
 74
     0
 75
     0
 76
     0
 77
     1
 78
     8
170
     0
171
     2
172
     1
173
     1
174
     1
175
     1
176
     1
177
     1
178
     3
270
     2
271
     3
272
     4
273
     2
274
     2
340
3AD
275
     0
280
     0
281
     0
282
     0
283
     1
284
     0
285
     0
286
     0
287
     3
288
     0
  0
DIMSTYLE
105
4F6
102
{ACAD_REACTORS
330
4F7
102
}
330
A
100
AcDbSymbolTableRecord
100
AcDbDimStyleTableRecord
  2
ME10_DIM_13
 70
     0
  3

  4

  5

  6

  7

 40
1.0
 41
3.5
 42
1.5
 43
0.38
 44
1.0
 45
0.0
 46
0.0
 47
0.0
 48
0.0
140
3.5
141
0.09
142
0.0
143
25.4
144
1.0
145
0.0
146
1.0
147
2.0
 71
     0
 72
     0
 73
     0
 74
     0
 75
     0
 76
     0
 77
     1
 78
     8
170
     0
171
     2
172
     1
173
     1
174
     1
175
     1
176
     1
177
     1
178
     3
270
     2
271
     1
272
     4
273
     2
274
     2
340
3AD
275
     0
280
     0
281
     0
282
     0
283
     1
284
     0
285
     0
286
     0
287
     3
288
     0
  0
DIMSTYLE
105
4FF
102
{ACAD_REACTORS
330
500
102
}
330
A
100
AcDbSymbolTableRecord
100
AcDbDimStyleTableRecord
  2
ME10_DIM_14
 70
     0
  3

  4

  5

  6

  7

 40
1.0
 41
3.5
 42
1.5
 43
0.38
 44
1.0
 45
0.0
 46
0.0
 47
0.0
 48
0.0
140
3.5
141
0.09
142
0.0
143
25.4
144
1.0
145
0.0
146
1.0
147
2.0
 71
     0
 72
     0
 73
     0
 74
     0
 75
     1
 76
     1
 77
     1
 78
     8
170
     0
171
     2
172
     1
173
     1
174
     1
175
     1
176
     1
177
     1
178
     3
270
     2
271
     3
272
     4
273
     2
274
     2
340
3AD
275
     0
280
     0
281
     0
282
     0
283
     1
284
     0
285
     0
286
     0
287
     3
288
     0
  0
DIMSTYLE
105
59D
102
{ACAD_REACTORS
330
59E
102
}
330
A
100
AcDbSymbolTableRecord
100
AcDbDimStyleTableRecord
  2
ME10_DIM_15
 70
     0
  3

  4

  5

  6

  7

 40
1.0
 41
3.5
 42
1.5
 43
0.38
 44
1.0
 45
0.0
 46
0.0
 47
1.0
 48
1.0
140
3.5
141
0.09
142
0.0
143
25.4
144
1.0
145
0.0
146
0.6
147
2.0
 71
     1
 72
     0
 73
     0
 74
     0
 75
     0
 76
     0
 77
     1
 78
     8
170
     0
171
     2
172
     1
173
     1
174
     1
175
     1
176
     1
177
     1
178
     3
270
     2
271
     2
272
     0
273
     2
274
     2
340
3AD
275
     0
280
     0
281
     0
282
     0
283
     1
284
     0
285
     0
286
     0
287
     3
288
     0
  0
DIMSTYLE
105
674
102
{ACAD_REACTORS
330
675
102
}
330
A
100
AcDbSymbolTableRecord
100
AcDbDimStyleTableRecord
  2
ME10_DIM_16
 70
     0
  3

  4

  5

  6

  7

 40
1.0
 41
3.5
 42
1.5
 43
0.38
 44
1.0
 45
0.0
 46
0.0
 47
0.0
 48
0.0
140
3.5
141
0.09
142
0.0
143
25.4
144
1.0
145
0.0
146
1.0
147
2.0
 71
     0
 72
     0
 73
     0
 74
     0
 75
     1
 76
     1
 77
     1
 78
     8
170
     0
171
     2
172
     1
173
     1
174
     1
175
     1
176
     1
177
     1
178
     3
270
     2
271
     3
272
     4
273
     2
274
     2
340
3AD
275
     0
280
     0
281
     0
282
     0
283
     1
284
     0
285
     0
286
     0
287
     3
288
     0
  0
ENDTAB
  0
TABLE
  2
BLOCK_RECORD
  5
1
330
0
100
AcDbSymbolTable
 70
   185
  0
BLOCK_RECORD
  5
1F
330
1
100
AcDbSymbolTableRecord
100
AcDbBlockTableRecord
  2
*MODEL_SPACE
  0
BLOCK_RECORD
  5
1B
330
1
100
AcDbSymbolTableRecord
100
AcDbBlockTableRecord
  2
*PAPER_SPACE
  0
BLOCK_RECORD
  5
47
330
1
100
AcDbSymbolTableRecord
100
AcDbBlockTableRecord
  2
_TECNICI__1
  0
BLOCK_RECORD
  5
4A
330
1
100
AcDbSymbolTableRecord
100
AcDbBlockTableRecord
  2
CORPO_REG_Y_CERN__S0060__2
  0
BLOCK_RECORD
  5
4D
330
1
100
AcDbSymbolTableRecord
100
AcDbBlockTableRecord
  2
PD00700A24600_CORPO_RE0__3
  0
BLOCK_RECORD
  5
51
330
1
100
AcDbSymbolTableRecord
100
AcDbBlockTableRecord
  2
BIELLA_INTERNA_PORTA_S0__4
  0
BLOCK_RECORD
  5
54
330
1
100
AcDbSymbolTableRecord
100
AcDbBlockTableRecord
  2
PD05300A09100_BIELLA_I0__5
  0
BLOCK_RECORD
  5
58
330
1
100
AcDbSymbolTableRecord
100
AcDbBlockTableRecord
  2
BIELLA_INTERNA_MONTANT0__6
  0
BLOCK_RECORD
  5
5B
330
1
100
AcDbSymbolTableRecord
100
AcDbBlockTableRecord
  2
PD05300A09200_BIELLA_I0__7
  0
BLOCK_RECORD
  5
5F
330
1
100
AcDbSymbolTableRecord
100
AcDbBlockTableRecord
  2
GFS00600A00100_GRUPPO_0__8
  0
BLOCK_RECORD
  5
64
330
1
100
AcDbSymbolTableRecord
100
AcDbBlockTableRecord
  2
PD02100A09500_SPINA_Ø30__9
  0
BLOCK_RECORD
  5
67
330
1
100
AcDbSymbolTableRecord
100
AcDbBlockTableRecord
  2
GFS00600A00200_GRUPPO___10
  0
BLOCK_RECORD
  5
6C
330
1
100
AcDbSymbolTableRecord
100
AcDbBlockTableRecord
  2
GFS00600A00300_GRUPPO___11
  0
BLOCK_RECORD
  5
71
330
1
100
AcDbSymbolTableRecord
100
AcDbBlockTableRecord
  2
GFS0060A00400_GRUPPO_B__12
  0
BLOCK_RECORD
  5
75
330
1
100
AcDbSymbolTableRecord
100
AcDbBlockTableRecord
  2
GFS0060A00500_GRUPPO_C__13
  0
BLOCK_RECORD
  5
79
330
1
100
AcDbSymbolTableRecord
100
AcDbBlockTableRecord
  2
GFS0060A00700_GRUPPO_C__14
  0
BLOCK_RECORD
  5
7D
330
1
100
AcDbSymbolTableRecord
100
AcDbBlockTableRecord
  2
00S0060A00100_CERNIERA__15
  0
BLOCK_RECORD
  5
81
330
1
100
AcDbSymbolTableRecord
100
AcDbBlockTableRecord
  2
PX001697_STIPITE_MONTA__16
  0
BLOCK_RECORD
  5
84
330
1
100
AcDbSymbolTableRecord
100
AcDbBlockTableRecord
  2
TELAIO__17
  0
BLOCK_RECORD
  5
88
330
1
100
AcDbSymbolTableRecord
100
AcDbBlockTableRecord
  2
SCASSO_MONTANTE_S0043___18
  0
BLOCK_RECORD
  5
8B
330
1
100
AcDbSymbolTableRecord
100
AcDbBlockTableRecord
  2
PX004196_GRUPPO_N_3_SC__19
  0
BLOCK_RECORD
  5
8F
330
1
100
AcDbSymbolTableRecord
100
AcDbBlockTableRecord
  2
FRESATE_CERNIERE_TELAI__20
  0
BLOCK_RECORD
  5
93
330
1
100
AcDbSymbolTableRecord
100
AcDbBlockTableRecord
  2
TELAIO_BATTENTE_L1000X__21
  0
BLOCK_RECORD
  5
98
330
1
100
AcDbSymbolTableRecord
100
AcDbBlockTableRecord
  2
STIPITE_MONTANTE_SX_1___22
  0
BLOCK_RECORD
  5
9B
330
1
100
AcDbSymbolTableRecord
100
AcDbBlockTableRecord
  2
SCASSO_PORTA_S0043_3__23
  0
BLOCK_RECORD
  5
9E
330
1
100
AcDbSymbolTableRecord
100
AcDbBlockTableRecord
  2
PX004194_GRUPPO_N_3_SC__24
  0
BLOCK_RECORD
  5
A2
330
1
100
AcDbSymbolTableRecord
100
AcDbBlockTableRecord
  2
FRESATE_CERNIERE_TELAI__25
  0
BLOCK_RECORD
  5
A6
330
1
100
AcDbSymbolTableRecord
100
AcDbBlockTableRecord
  2
PX000466_1__26
  0
BLOCK_RECORD
  5
A9
330
1
100
AcDbSymbolTableRecord
100
AcDbBlockTableRecord
  2
PX000467_1__27
  0
BLOCK_RECORD
  5
AC
330
1
100
AcDbSymbolTableRecord
100
AcDbBlockTableRecord
  2
CM06100A01100_MANIGLIA__28
  0
BLOCK_RECORD
  5
B1
330
1
100
AcDbSymbolTableRecord
100
AcDbBlockTableRecord
  2
PX001595_PX001297_1187__29
  0
BLOCK_RECORD
  5
B4
330
1
100
AcDbSymbolTableRecord
100
AcDbBlockTableRecord
  2
PX001681_PANNELLO_1015__30
  0
BLOCK_RECORD
  5
B8
330
1
100
AcDbSymbolTableRecord
100
AcDbBlockTableRecord
  2
PX000466_1__31
  0
BLOCK_RECORD
  5
BB
330
1
100
AcDbSymbolTableRecord
100
AcDbBlockTableRecord
  2
PX000467_1__32
  0
BLOCK_RECORD
  5
BE
330
1
100
AcDbSymbolTableRecord
100
AcDbBlockTableRecord
  2
CM06100A01100_MANIGLIA__33
  0
BLOCK_RECORD
  5
C3
330
1
100
AcDbSymbolTableRecord
100
AcDbBlockTableRecord
  2
PANNELLO__34
  0
BLOCK_RECORD
  5
C9
330
1
100
AcDbSymbolTableRecord
100
AcDbBlockTableRecord
  2
PX001593_GRUPPO_ANTA_L__35
  0
BLOCK_RECORD
  5
CE
330
1
100
AcDbSymbolTableRecord
100
AcDbBlockTableRecord
  2
TKKZ0TEC43200_TECNICO___36
  0
BLOCK_RECORD
  5
D5
330
1
100
AcDbSymbolTableRecord
100
AcDbBlockTableRecord
  2
GEN11
  0
BLOCK_RECORD
  5
D9
330
1
100
AcDbSymbolTableRecord
100
AcDbBlockTableRecord
  2
CORPO_REG_Y_CERN__S006__37
  0
BLOCK_RECORD
  5
DC
330
1
100
AcDbSymbolTableRecord
100
AcDbBlockTableRecord
  2
PD00700A24600_CORPO_RE__38
  0
BLOCK_RECORD
  5
E0
330
1
100
AcDbSymbolTableRecord
100
AcDbBlockTableRecord
  2
PD02100A09500_SPINA_Ø3__39
  0
BLOCK_RECORD
  5
E3
330
1
100
AcDbSymbolTableRecord
100
AcDbBlockTableRecord
  2
BIELLA_INTERNA_PORTA_S__40
  0
BLOCK_RECORD
  5
E6
330
1
100
AcDbSymbolTableRecord
100
AcDbBlockTableRecord
  2
PD05300A09100_BIELLA_I__41
  0
BLOCK_RECORD
  5
EA
330
1
100
AcDbSymbolTableRecord
100
AcDbBlockTableRecord
  2
BIELLA_INTERNA_MONTANT__42
  0
BLOCK_RECORD
  5
ED
330
1
100
AcDbSymbolTableRecord
100
AcDbBlockTableRecord
  2
PD05300A09200_BIELLA_I__43
  0
BLOCK_RECORD
  5
F1
330
1
100
AcDbSymbolTableRecord
100
AcDbBlockTableRecord
  2
GFS00600A00100_GRUPPO___44
  0
BLOCK_RECORD
  5
F6
330
1
100
AcDbSymbolTableRecord
100
AcDbBlockTableRecord
  2
GFS00600A00200_GRUPPO___45
  0
BLOCK_RECORD
  5
FB
330
1
100
AcDbSymbolTableRecord
100
AcDbBlockTableRecord
  2
GFS00600A00300_GRUPPO___46
  0
BLOCK_RECORD
  5
100
330
1
100
AcDbSymbolTableRecord
100
AcDbBlockTableRecord
  2
GFS0060A00400_GRUPPO_B__47
  0
BLOCK_RECORD
  5
104
330
1
100
AcDbSymbolTableRecord
100
AcDbBlockTableRecord
  2
GFS0060A00500_GRUPPO_C__48
  0
BLOCK_RECORD
  5
108
330
1
100
AcDbSymbolTableRecord
100
AcDbBlockTableRecord
  2
GFS0060A00700_GRUPPO_C__49
  0
BLOCK_RECORD
  5
10C
330
1
100
AcDbSymbolTableRecord
100
AcDbBlockTableRecord
  2
00S0060A00100_CERNIERA__50
  0
BLOCK_RECORD
  5
110
330
1
100
AcDbSymbolTableRecord
100
AcDbBlockTableRecord
  2
STIPITE_MONTANTE_SX_1___51
  0
BLOCK_RECORD
  5
113
330
1
100
AcDbSymbolTableRecord
100
AcDbBlockTableRecord
  2
SCASSO_MONTANTE_S0043___52
  0
BLOCK_RECORD
  5
116
330
1
100
AcDbSymbolTableRecord
100
AcDbBlockTableRecord
  2
PX004196_GRUPPO_N_3_SC__53
  0
BLOCK_RECORD
  5
11A
330
1
100
AcDbSymbolTableRecord
100
AcDbBlockTableRecord
  2
FRESATE_CERNIERE_TELAI__54
  0
BLOCK_RECORD
  5
11E
330
1
100
AcDbSymbolTableRecord
100
AcDbBlockTableRecord
  2
PX001697_STIPITE_MONTA__55
  0
BLOCK_RECORD
  5
121
330
1
100
AcDbSymbolTableRecord
100
AcDbBlockTableRecord
  2
TELAIO__56
  0
BLOCK_RECORD
  5
125
330
1
100
AcDbSymbolTableRecord
100
AcDbBlockTableRecord
  2
TELAIO_BATTENTE_L1000X__57
  0
BLOCK_RECORD
  5
12A
330
1
100
AcDbSymbolTableRecord
100
AcDbBlockTableRecord
  2
SCASSO_PORTA_S0043_3__58
  0
BLOCK_RECORD
  5
12D
330
1
100
AcDbSymbolTableRecord
100
AcDbBlockTableRecord
  2
PX004194_GRUPPO_N_3_SC__59
  0
BLOCK_RECORD
  5
131
330
1
100
AcDbSymbolTableRecord
100
AcDbBlockTableRecord
  2
FRESATE_CERNIERE_TELAI__60
  0
BLOCK_RECORD
  5
135
330
1
100
AcDbSymbolTableRecord
100
AcDbBlockTableRecord
  2
PX000467_1__61
  0
BLOCK_RECORD
  5
138
330
1
100
AcDbSymbolTableRecord
100
AcDbBlockTableRecord
  2
PX000466_1__62
  0
BLOCK_RECORD
  5
13B
330
1
100
AcDbSymbolTableRecord
100
AcDbBlockTableRecord
  2
CM06100A01100_MANIGLIA__63
  0
BLOCK_RECORD
  5
140
330
1
100
AcDbSymbolTableRecord
100
AcDbBlockTableRecord
  2
PX000467_1__64
  0
BLOCK_RECORD
  5
143
330
1
100
AcDbSymbolTableRecord
100
AcDbBlockTableRecord
  2
PX000466_1__65
  0
BLOCK_RECORD
  5
146
330
1
100
AcDbSymbolTableRecord
100
AcDbBlockTableRecord
  2
CM06100A01100_MANIGLIA__66
  0
BLOCK_RECORD
  5
14B
330
1
100
AcDbSymbolTableRecord
100
AcDbBlockTableRecord
  2
PX001595_PX001297_1187__67
  0
BLOCK_RECORD
  5
14E
330
1
100
AcDbSymbolTableRecord
100
AcDbBlockTableRecord
  2
PX001681_PANNELLO_1015__68
  0
BLOCK_RECORD
  5
152
330
1
100
AcDbSymbolTableRecord
100
AcDbBlockTableRecord
  2
PANNELLO__69
  0
BLOCK_RECORD
  5
158
330
1
100
AcDbSymbolTableRecord
100
AcDbBlockTableRecord
  2
PX001593_GRUPPO_ANTA_L__70
  0
BLOCK_RECORD
  5
15D
330
1
100
AcDbSymbolTableRecord
100
AcDbBlockTableRecord
  2
TKKZ0TEC43200_TECNICO___71
  0
BLOCK_RECORD
  5
164
330
1
100
AcDbSymbolTableRecord
100
AcDbBlockTableRecord
  2
GEN9
  0
BLOCK_RECORD
  5
168
330
1
100
AcDbSymbolTableRecord
100
AcDbBlockTableRecord
  2
STIPITE_MONTANTE_SX_1___72
  0
BLOCK_RECORD
  5
16B
330
1
100
AcDbSymbolTableRecord
100
AcDbBlockTableRecord
  2
SCASSO_MONTANTE_S0043___73
  0
BLOCK_RECORD
  5
16E
330
1
100
AcDbSymbolTableRecord
100
AcDbBlockTableRecord
  2
PX004196_GRUPPO_N_3_SC__74
  0
BLOCK_RECORD
  5
172
330
1
100
AcDbSymbolTableRecord
100
AcDbBlockTableRecord
  2
FRESATE_CERNIERE_TELAI__75
  0
BLOCK_RECORD
  5
176
330
1
100
AcDbSymbolTableRecord
100
AcDbBlockTableRecord
  2
PX001697_STIPITE_MONTA__76
  0
BLOCK_RECORD
  5
179
330
1
100
AcDbSymbolTableRecord
100
AcDbBlockTableRecord
  2
TELAIO__77
  0
BLOCK_RECORD
  5
17D
330
1
100
AcDbSymbolTableRecord
100
AcDbBlockTableRecord
  2
TELAIO_BATTENTE_L1000X__78
  0
BLOCK_RECORD
  5
182
330
1
100
AcDbSymbolTableRecord
100
AcDbBlockTableRecord
  2
CORPO_REG_Y_CERN__S006__79
  0
BLOCK_RECORD
  5
185
330
1
100
AcDbSymbolTableRecord
100
AcDbBlockTableRecord
  2
PD00700A24600_CORPO_RE__80
  0
BLOCK_RECORD
  5
189
330
1
100
AcDbSymbolTableRecord
100
AcDbBlockTableRecord
  2
PD02100A09500_SPINA_Ø3__81
  0
BLOCK_RECORD
  5
18C
330
1
100
AcDbSymbolTableRecord
100
AcDbBlockTableRecord
  2
BIELLA_INTERNA_MONTANT__82
  0
BLOCK_RECORD
  5
18F
330
1
100
AcDbSymbolTableRecord
100
AcDbBlockTableRecord
  2
PD05300A09200_BIELLA_I__83
  0
BLOCK_RECORD
  5
193
330
1
100
AcDbSymbolTableRecord
100
AcDbBlockTableRecord
  2
BIELLA_INTERNA_PORTA_S__84
  0
BLOCK_RECORD
  5
196
330
1
100
AcDbSymbolTableRecord
100
AcDbBlockTableRecord
  2
PD05300A09100_BIELLA_I__85
  0
BLOCK_RECORD
  5
19A
330
1
100
AcDbSymbolTableRecord
100
AcDbBlockTableRecord
  2
GFS00600A00100_GRUPPO___86
  0
BLOCK_RECORD
  5
19F
330
1
100
AcDbSymbolTableRecord
100
AcDbBlockTableRecord
  2
GFS00600A00200_GRUPPO___87
  0
BLOCK_RECORD
  5
1A4
330
1
100
AcDbSymbolTableRecord
100
AcDbBlockTableRecord
  2
GFS00600A00300_GRUPPO___88
  0
BLOCK_RECORD
  5
1A9
330
1
100
AcDbSymbolTableRecord
100
AcDbBlockTableRecord
  2
GFS0060A00400_GRUPPO_B__89
  0
BLOCK_RECORD
  5
1AD
330
1
100
AcDbSymbolTableRecord
100
AcDbBlockTableRecord
  2
GFS0060A00500_GRUPPO_C__90
  0
BLOCK_RECORD
  5
1B1
330
1
100
AcDbSymbolTableRecord
100
AcDbBlockTableRecord
  2
GFS0060A00700_GRUPPO_C__91
  0
BLOCK_RECORD
  5
1B5
330
1
100
AcDbSymbolTableRecord
100
AcDbBlockTableRecord
  2
00S0060A00100_CERNIERA__92
  0
BLOCK_RECORD
  5
1B9
330
1
100
AcDbSymbolTableRecord
100
AcDbBlockTableRecord
  2
SCASSO_PORTA_S0043_3__93
  0
BLOCK_RECORD
  5
1BC
330
1
100
AcDbSymbolTableRecord
100
AcDbBlockTableRecord
  2
PX004194_GRUPPO_N_3_SC__94
  0
BLOCK_RECORD
  5
1C0
330
1
100
AcDbSymbolTableRecord
100
AcDbBlockTableRecord
  2
FRESATE_CERNIERE_TELAI__95
  0
BLOCK_RECORD
  5
1C4
330
1
100
AcDbSymbolTableRecord
100
AcDbBlockTableRecord
  2
PX000467_1__96
  0
BLOCK_RECORD
  5
1C7
330
1
100
AcDbSymbolTableRecord
100
AcDbBlockTableRecord
  2
PX000466_1__97
  0
BLOCK_RECORD
  5
1CA
330
1
100
AcDbSymbolTableRecord
100
AcDbBlockTableRecord
  2
CM06100A01100_MANIGLIA__98
  0
BLOCK_RECORD
  5
1CF
330
1
100
AcDbSymbolTableRecord
100
AcDbBlockTableRecord
  2
PX001595_PX001297_1187__99
  0
BLOCK_RECORD
  5
1D2
330
1
100
AcDbSymbolTableRecord
100
AcDbBlockTableRecord
  2
PX001681_PANNELLO_1015_100
  0
BLOCK_RECORD
  5
1D6
330
1
100
AcDbSymbolTableRecord
100
AcDbBlockTableRecord
  2
PX000466_1__101
  0
BLOCK_RECORD
  5
1D9
330
1
100
AcDbSymbolTableRecord
100
AcDbBlockTableRecord
  2
PX000467_1__102
  0
BLOCK_RECORD
  5
1DC
330
1
100
AcDbSymbolTableRecord
100
AcDbBlockTableRecord
  2
CM06100A01100_MANIGLIA_103
  0
BLOCK_RECORD
  5
1E1
330
1
100
AcDbSymbolTableRecord
100
AcDbBlockTableRecord
  2
PANNELLO__104
  0
BLOCK_RECORD
  5
1E7
330
1
100
AcDbSymbolTableRecord
100
AcDbBlockTableRecord
  2
PX001593_GRUPPO_ANTA_L_105
  0
BLOCK_RECORD
  5
1EC
330
1
100
AcDbSymbolTableRecord
100
AcDbBlockTableRecord
  2
TKKZ0TEC43200_TECNICO__106
  0
BLOCK_RECORD
  5
1F3
330
1
100
AcDbSymbolTableRecord
100
AcDbBlockTableRecord
  2
GEN8
  0
BLOCK_RECORD
  5
1F7
330
1
100
AcDbSymbolTableRecord
100
AcDbBlockTableRecord
  2
SCASSO_MONTANTE_S0043__107
  0
BLOCK_RECORD
  5
1FA
330
1
100
AcDbSymbolTableRecord
100
AcDbBlockTableRecord
  2
PX004196_GRUPPO_N_3_SC_108
  0
BLOCK_RECORD
  5
1FE
330
1
100
AcDbSymbolTableRecord
100
AcDbBlockTableRecord
  2
FRESATE_CERNIERE_TELAI_109
  0
BLOCK_RECORD
  5
202
330
1
100
AcDbSymbolTableRecord
100
AcDbBlockTableRecord
  2
PX001697_STIPITE_MONTA_110
  0
BLOCK_RECORD
  5
205
330
1
100
AcDbSymbolTableRecord
100
AcDbBlockTableRecord
  2
TELAIO__111
  0
BLOCK_RECORD
  5
209
330
1
100
AcDbSymbolTableRecord
100
AcDbBlockTableRecord
  2
TELAIO_BATTENTE_L1000X_112
  0
BLOCK_RECORD
  5
20E
330
1
100
AcDbSymbolTableRecord
100
AcDbBlockTableRecord
  2
STIPITE_MONTANTE_SX_1__113
  0
BLOCK_RECORD
  5
211
330
1
100
AcDbSymbolTableRecord
100
AcDbBlockTableRecord
  2
PD02100A09500_SPINA_Ø3_114
  0
BLOCK_RECORD
  5
214
330
1
100
AcDbSymbolTableRecord
100
AcDbBlockTableRecord
  2
BIELLA_INTERNA_MONTANT_115
  0
BLOCK_RECORD
  5
217
330
1
100
AcDbSymbolTableRecord
100
AcDbBlockTableRecord
  2
PD05300A09200_BIELLA_I_116
  0
BLOCK_RECORD
  5
21B
330
1
100
AcDbSymbolTableRecord
100
AcDbBlockTableRecord
  2
BIELLA_INTERNA_PORTA_S_117
  0
BLOCK_RECORD
  5
21E
330
1
100
AcDbSymbolTableRecord
100
AcDbBlockTableRecord
  2
PD05300A09100_BIELLA_I_118
  0
BLOCK_RECORD
  5
222
330
1
100
AcDbSymbolTableRecord
100
AcDbBlockTableRecord
  2
GFS00600A00100_GRUPPO__119
  0
BLOCK_RECORD
  5
227
330
1
100
AcDbSymbolTableRecord
100
AcDbBlockTableRecord
  2
GFS00600A00200_GRUPPO__120
  0
BLOCK_RECORD
  5
22C
330
1
100
AcDbSymbolTableRecord
100
AcDbBlockTableRecord
  2
GFS00600A00300_GRUPPO__121
  0
BLOCK_RECORD
  5
230
330
1
100
AcDbSymbolTableRecord
100
AcDbBlockTableRecord
  2
GFS0060A00400_GRUPPO_B_122
  0
BLOCK_RECORD
  5
234
330
1
100
AcDbSymbolTableRecord
100
AcDbBlockTableRecord
  2
GFS0060A00500_GRUPPO_C_123
  0
BLOCK_RECORD
  5
238
330
1
100
AcDbSymbolTableRecord
100
AcDbBlockTableRecord
  2
GFS0060A00700_GRUPPO_C_124
  0
BLOCK_RECORD
  5
23C
330
1
100
AcDbSymbolTableRecord
100
AcDbBlockTableRecord
  2
00S0060A00100_CERNIERA_125
  0
BLOCK_RECORD
  5
240
330
1
100
AcDbSymbolTableRecord
100
AcDbBlockTableRecord
  2
SCASSO_PORTA_S0043_3__126
  0
BLOCK_RECORD
  5
243
330
1
100
AcDbSymbolTableRecord
100
AcDbBlockTableRecord
  2
PX004194_GRUPPO_N_3_SC_127
  0
BLOCK_RECORD
  5
247
330
1
100
AcDbSymbolTableRecord
100
AcDbBlockTableRecord
  2
FRESATE_CERNIERE_TELAI_128
  0
BLOCK_RECORD
  5
24B
330
1
100
AcDbSymbolTableRecord
100
AcDbBlockTableRecord
  2
PX000467_1__129
  0
BLOCK_RECORD
  5
24E
330
1
100
AcDbSymbolTableRecord
100
AcDbBlockTableRecord
  2
PX000466_1__130
  0
BLOCK_RECORD
  5
251
330
1
100
AcDbSymbolTableRecord
100
AcDbBlockTableRecord
  2
CM06100A01100_MANIGLIA_131
  0
BLOCK_RECORD
  5
256
330
1
100
AcDbSymbolTableRecord
100
AcDbBlockTableRecord
  2
PX001595_PX001297_1187_132
  0
BLOCK_RECORD
  5
259
330
1
100
AcDbSymbolTableRecord
100
AcDbBlockTableRecord
  2
PX001681_PANNELLO_1015_133
  0
BLOCK_RECORD
  5
25D
330
1
100
AcDbSymbolTableRecord
100
AcDbBlockTableRecord
  2
PX000466_1__134
  0
BLOCK_RECORD
  5
260
330
1
100
AcDbSymbolTableRecord
100
AcDbBlockTableRecord
  2
PX000467_1__135
  0
BLOCK_RECORD
  5
263
330
1
100
AcDbSymbolTableRecord
100
AcDbBlockTableRecord
  2
CM06100A01100_MANIGLIA_136
  0
BLOCK_RECORD
  5
268
330
1
100
AcDbSymbolTableRecord
100
AcDbBlockTableRecord
  2
PANNELLO__137
  0
BLOCK_RECORD
  5
26E
330
1
100
AcDbSymbolTableRecord
100
AcDbBlockTableRecord
  2
PX001593_GRUPPO_ANTA_L_138
  0
BLOCK_RECORD
  5
273
330
1
100
AcDbSymbolTableRecord
100
AcDbBlockTableRecord
  2
TKKZ0TEC43200_TECNICO__139
  0
BLOCK_RECORD
  5
27A
330
1
100
AcDbSymbolTableRecord
100
AcDbBlockTableRecord
  2
GEN7
  0
BLOCK_RECORD
  5
27E
330
1
100
AcDbSymbolTableRecord
100
AcDbBlockTableRecord
  2
STIPITE_MONTANTE_SX_1__140
  0
BLOCK_RECORD
  5
281
330
1
100
AcDbSymbolTableRecord
100
AcDbBlockTableRecord
  2
SCASSO_MONTANTE_S0043__141
  0
BLOCK_RECORD
  5
284
330
1
100
AcDbSymbolTableRecord
100
AcDbBlockTableRecord
  2
PX004196_GRUPPO_N_3_SC_142
  0
BLOCK_RECORD
  5
288
330
1
100
AcDbSymbolTableRecord
100
AcDbBlockTableRecord
  2
FRESATE_CERNIERE_TELAI_143
  0
BLOCK_RECORD
  5
28C
330
1
100
AcDbSymbolTableRecord
100
AcDbBlockTableRecord
  2
PX001697_STIPITE_MONTA_144
  0
BLOCK_RECORD
  5
28F
330
1
100
AcDbSymbolTableRecord
100
AcDbBlockTableRecord
  2
TELAIO__145
  0
BLOCK_RECORD
  5
293
330
1
100
AcDbSymbolTableRecord
100
AcDbBlockTableRecord
  2
TELAIO_BATTENTE_L1000X_146
  0
BLOCK_RECORD
  5
298
330
1
100
AcDbSymbolTableRecord
100
AcDbBlockTableRecord
  2
CORPO_REG_Y_CERN__S006_147
  0
BLOCK_RECORD
  5
29B
330
1
100
AcDbSymbolTableRecord
100
AcDbBlockTableRecord
  2
PD00700A24600_CORPO_RE_148
  0
BLOCK_RECORD
  5
29F
330
1
100
AcDbSymbolTableRecord
100
AcDbBlockTableRecord
  2
BIELLA_INTERNA_PORTA_S_149
  0
BLOCK_RECORD
  5
2A2
330
1
100
AcDbSymbolTableRecord
100
AcDbBlockTableRecord
  2
PD05300A09100_BIELLA_I_150
  0
BLOCK_RECORD
  5
2A6
330
1
100
AcDbSymbolTableRecord
100
AcDbBlockTableRecord
  2
BIELLA_INTERNA_MONTANT_151
  0
BLOCK_RECORD
  5
2A9
330
1
100
AcDbSymbolTableRecord
100
AcDbBlockTableRecord
  2
PD05300A09200_BIELLA_I_152
  0
BLOCK_RECORD
  5
2AD
330
1
100
AcDbSymbolTableRecord
100
AcDbBlockTableRecord
  2
GFS00600A00100_GRUPPO__153
  0
BLOCK_RECORD
  5
2B2
330
1
100
AcDbSymbolTableRecord
100
AcDbBlockTableRecord
  2
PD02100A09500_SPINA_Ø3_154
  0
BLOCK_RECORD
  5
2B5
330
1
100
AcDbSymbolTableRecord
100
AcDbBlockTableRecord
  2
GFS00600A00200_GRUPPO__155
  0
BLOCK_RECORD
  5
2BA
330
1
100
AcDbSymbolTableRecord
100
AcDbBlockTableRecord
  2
GFS00600A00300_GRUPPO__156
  0
BLOCK_RECORD
  5
2BF
330
1
100
AcDbSymbolTableRecord
100
AcDbBlockTableRecord
  2
GFS0060A00400_GRUPPO_B_157
  0
BLOCK_RECORD
  5
2C3
330
1
100
AcDbSymbolTableRecord
100
AcDbBlockTableRecord
  2
GFS0060A00500_GRUPPO_C_158
  0
BLOCK_RECORD
  5
2C7
330
1
100
AcDbSymbolTableRecord
100
AcDbBlockTableRecord
  2
GFS0060A00700_GRUPPO_C_159
  0
BLOCK_RECORD
  5
2CB
330
1
100
AcDbSymbolTableRecord
100
AcDbBlockTableRecord
  2
00S0060A00100_CERNIERA_160
  0
BLOCK_RECORD
  5
2CF
330
1
100
AcDbSymbolTableRecord
100
AcDbBlockTableRecord
  2
PX001595_PX001297_1187_161
  0
BLOCK_RECORD
  5
2D2
330
1
100
AcDbSymbolTableRecord
100
AcDbBlockTableRecord
  2
PX001681_PANNELLO_1015_162
  0
BLOCK_RECORD
  5
2D6
330
1
100
AcDbSymbolTableRecord
100
AcDbBlockTableRecord
  2
PX000467_1__163
  0
BLOCK_RECORD
  5
2D9
330
1
100
AcDbSymbolTableRecord
100
AcDbBlockTableRecord
  2
PX000466_1__164
  0
BLOCK_RECORD
  5
2DC
330
1
100
AcDbSymbolTableRecord
100
AcDbBlockTableRecord
  2
CM06100A01100_MANIGLIA_165
  0
BLOCK_RECORD
  5
2E1
330
1
100
AcDbSymbolTableRecord
100
AcDbBlockTableRecord
  2
PX000467_1__166
  0
BLOCK_RECORD
  5
2E4
330
1
100
AcDbSymbolTableRecord
100
AcDbBlockTableRecord
  2
PX000466_1__167
  0
BLOCK_RECORD
  5
2E7
330
1
100
AcDbSymbolTableRecord
100
AcDbBlockTableRecord
  2
CM06100A01100_MANIGLIA_168
  0
BLOCK_RECORD
  5
2EC
330
1
100
AcDbSymbolTableRecord
100
AcDbBlockTableRecord
  2
PANNELLO__169
  0
BLOCK_RECORD
  5
2F2
330
1
100
AcDbSymbolTableRecord
100
AcDbBlockTableRecord
  2
PX001593_GRUPPO_ANTA_L_170
  0
BLOCK_RECORD
  5
2F6
330
1
100
AcDbSymbolTableRecord
100
AcDbBlockTableRecord
  2
TKKZ0TEC43200_TECNICO__171
  0
BLOCK_RECORD
  5
2FD
330
1
100
AcDbSymbolTableRecord
100
AcDbBlockTableRecord
  2
GEN10
  0
BLOCK_RECORD
  5
3AF
330
1
100
AcDbSymbolTableRecord
100
AcDbBlockTableRecord
  2
*D177
  0
BLOCK_RECORD
  5
3BC
330
1
100
AcDbSymbolTableRecord
100
AcDbBlockTableRecord
  2
*D178
  0
BLOCK_RECORD
  5
44F
330
1
100
AcDbSymbolTableRecord
100
AcDbBlockTableRecord
  2
*D179
  0
BLOCK_RECORD
  5
4EB
330
1
100
AcDbSymbolTableRecord
100
AcDbBlockTableRecord
  2
*D180
  0
BLOCK_RECORD
  5
4F8
330
1
100
AcDbSymbolTableRecord
100
AcDbBlockTableRecord
  2
*D181
  0
BLOCK_RECORD
  5
592
330
1
100
AcDbSymbolTableRecord
100
AcDbBlockTableRecord
  2
*D182
  0
BLOCK_RECORD
  5
59F
330
1
100
AcDbSymbolTableRecord
100
AcDbBlockTableRecord
  2
*D183
  0
BLOCK_RECORD
  5
66D
330
1
100
AcDbSymbolTableRecord
100
AcDbBlockTableRecord
  2
*D184
  0
ENDTAB
  0
ENDSEC
  0
SECTION
  2
BLOCKS
  0
BLOCK
  5
20
330
1F
100
AcDbEntity
  8
0
100
AcDbBlockBegin
  2
*MODEL_SPACE
 70
     0
 10
0.0
 20
0.0
 30
0.0
  3
*MODEL_SPACE
  1

  0
ENDBLK
  5
21
330
1F
100
AcDbEntity
  8
0
100
AcDbBlockEnd
  0
BLOCK
  5
1C
330
1B
100
AcDbEntity
 67
     1
  8
0
100
AcDbBlockBegin
  2
*PAPER_SPACE
 70
     0
 10
0.0
 20
0.0
 30
0.0
  3
*PAPER_SPACE
  1

  0
ENDBLK
  5
1D
330
1B
100
AcDbEntity
 67
     1
  8
0
100
AcDbBlockEnd
  0
BLOCK
  5
48
330
47
100
AcDbEntity
  8
0
100
AcDbBlockBegin
  2
_TECNICI__1
 70
     0
 10
1327.629104667345
 20
-837.3746891736482
 30
0.0
  3
_TECNICI__1
  1

  0
POINT
  5
307
330
47
100
AcDbEntity
  8
1
 62
     7
100
AcDbPoint
 10
2542.995504495552
 20
-1674.07126889456
 30
0.0
  0
LINE
  5
308
330
47
100
AcDbEntity
  8
1
  6
CONTINUOUS
 62
     7
100
AcDbLine
 10
2655.25820933469
 20
-1602.89916889456
 30
0.0
 11
2577.484378258336
 21
-1602.89916889456
 31
0.0
  0
LINE
  5
309
330
47
100
AcDbEntity
  8
1
  6
CONTINUOUS
 62
     7
100
AcDbLine
 10
2655.25820933469
 20
-1649.69066889456
 30
0.0
 11
2535.29930933469
 21
-1649.69066889456
 31
0.0
  0
LINE
  5
30A
330
47
100
AcDbEntity
  8
1
  6
CONTINUOUS
 62
     7
100
AcDbLine
 10
2655.25820933469
 20
-1597.69066889456
 30
0.0
 11
2655.25820933469
 21
-1674.69066889456
 31
0.0
  0
LINE
  5
30B
330
47
100
AcDbEntity
  8
1
  6
CONTINUOUS
 62
     7
100
AcDbLine
 10
2626.848807274681
 20
-1613.53176889456
 30
0.0
 11
2626.848807274681
 21
-1649.69066889456
 31
0.0
  0
LINE
  5
30C
330
47
100
AcDbEntity
  8
1
  6
CONTINUOUS
 62
     7
100
AcDbLine
 10
2655.25820933469
 20
-1613.53176889456
 30
0.0
 11
2577.484378258336
 21
-1613.53176889456
 31
0.0
  0
LINE
  5
30D
330
47
100
AcDbEntity
  8
1
  6
CONTINUOUS
 62
     7
100
AcDbLine
 10
2626.848807274681
 20
-1619.508197533014
 30
0.0
 11
2655.25820933469
 21
-1619.508197533014
 31
0.0
  0
LINE
  5
30E
330
47
100
AcDbEntity
  8
1
  6
CONTINUOUS
 62
     7
100
AcDbLine
 10
2642.954235535661
 20
-1635.10226889456
 30
0.0
 11
2642.954235535661
 21
-1613.508197533014
 31
0.0
  0
LINE
  5
30F
330
47
100
AcDbEntity
  8
1
  6
DOT_CENTER
 62
     6
100
AcDbLine
 10
2654.865580759051
 20
-1642.497441135184
 30
0.0
 11
2627.54636265588
 21
-1642.497441135184
 31
0.0
  0
LINE
  5
310
330
47
100
AcDbEntity
  8
1
  6
CONTINUOUS
 62
     7
100
AcDbLine
 10
2628.327704893854
 20
-1645.497441135184
 30
0.0
 11
2640.327704893854
 21
-1647.497441135184
 31
0.0
  0
LINE
  5
311
330
47
100
AcDbEntity
  8
1
  6
CONTINUOUS
 62
     7
100
AcDbLine
 10
2628.327704893854
 20
-1639.497441135184
 30
0.0
 11
2628.327704893854
 21
-1645.497441135184
 31
0.0
  0
LINE
  5
312
330
47
100
AcDbEntity
  8
1
  6
CONTINUOUS
 62
     7
100
AcDbLine
 10
2640.327704893854
 20
-1637.497441135184
 30
0.0
 11
2628.327704893854
 21
-1639.497441135184
 31
0.0
  0
LINE
  5
313
330
47
100
AcDbEntity
  8
1
  6
CONTINUOUS
 62
     7
100
AcDbLine
 10
2640.327704893854
 20
-1637.497441135184
 30
0.0
 11
2640.327704893854
 21
-1647.497441135184
 31
0.0
  0
LINE
  5
314
330
47
100
AcDbEntity
  8
1
  6
DOT_CENTER
 62
     6
100
AcDbLine
 10
2648.327704893854
 20
-1649.134819778567
 30
0.0
 11
2648.327704893854
 21
-1636.079896058012
 31
0.0
  0
LINE
  5
315
330
47
100
AcDbEntity
  8
1
  6
CONTINUOUS
 62
     7
100
AcDbLine
 10
2535.29930933469
 20
-1597.69066889456
 30
0.0
 11
2535.29930933469
 21
-1674.69066889456
 31
0.0
  0
LINE
  5
316
330
47
100
AcDbEntity
  8
1
  6
CONTINUOUS
 62
     7
100
AcDbLine
 10
2577.484378258336
 20
-1597.69066889456
 30
0.0
 11
2577.484378258336
 21
-1649.69066889456
 31
0.0
  0
LINE
  5
317
330
47
100
AcDbEntity
  8
1
  6
CONTINUOUS
 62
     7
100
AcDbLine
 10
2655.25820933469
 20
-1635.10226889456
 30
0.0
 11
2577.484378258336
 21
-1635.10226889456
 31
0.0
  0
LINE
  5
318
330
47
100
AcDbEntity
  8
1
  6
CONTINUOUS
 62
     7
100
AcDbLine
 10
2535.29930933469
 20
-1674.69066889456
 30
0.0
 11
2655.25820933469
 21
-1674.69066889456
 31
0.0
  0
LINE
  5
319
330
47
100
AcDbEntity
  8
1
  6
CONTINUOUS
 62
     7
100
AcDbLine
 10
2535.29930933469
 20
-1669.69066889456
 30
0.0
 11
2655.25820933469
 21
-1669.69066889456
 31
0.0
  0
LINE
  5
31A
330
47
100
AcDbEntity
  8
1
  6
CONTINUOUS
 62
     7
100
AcDbLine
 10
2535.29930933469
 20
-1664.69066889456
 30
0.0
 11
2655.25820933469
 21
-1664.69066889456
 31
0.0
  0
LINE
  5
31B
330
47
100
AcDbEntity
  8
1
  6
CONTINUOUS
 62
     7
100
AcDbLine
 10
2535.29930933469
 20
-1659.69066889456
 30
0.0
 11
2655.25820933469
 21
-1659.69066889456
 31
0.0
  0
LINE
  5
31C
330
47
100
AcDbEntity
  8
1
  6
CONTINUOUS
 62
     7
100
AcDbLine
 10
2535.29930933469
 20
-1654.69066889456
 30
0.0
 11
2655.25820933469
 21
-1654.69066889456
 31
0.0
  0
LINE
  5
31D
330
47
100
AcDbEntity
  8
1
  6
CONTINUOUS
 62
     7
100
AcDbLine
 10
2655.25820933469
 20
-1597.69066889456
 30
0.0
 11
2535.29930933469
 21
-1597.69066889456
 31
0.0
  0
CIRCLE
  5
31E
330
47
100
AcDbEntity
  8
1
  6
CONTINUOUS
 62
     7
100
AcDbCircle
 10
2648.327704893854
 20
-1642.497441135184
 30
0.0
 40
5.0
  0
CIRCLE
  5
31F
330
47
100
AcDbEntity
  8
1
  6
CONTINUOUS
 62
     7
100
AcDbCircle
 10
2648.327704893854
 20
-1642.497441135184
 30
0.0
 40
3.0
  0
CIRCLE
  5
320
330
47
100
AcDbEntity
  8
1
  6
CONTINUOUS
 62
     7
100
AcDbCircle
 10
2575.180787106845
 20
-1601.856546370563
 30
0.0
 40
1.5
  0
IMAGE
  5
323
330
47
100
AcDbEntity
  8
0
 92
      140
310
8C000000010000008400000006000000050000001504FDB1D6D1A34079036B428AB399C000000000000000001504FDB1D61BA44079036B428AB399C000000000000000001504FDB1D61BA440E559E8F0400E99C000000000000000001504FDB1D6D1A340E559E8F0400E99C000000000000000001504FDB1D6D1A34079036B
310
428AB399C00000000000000000
100
AcDbRasterImage
 90
        0
 10
2536.919326693295
 20
-1644.885018989646
 30
0.0
 11
0.05929487179487177
 21
0.0
 31
0.0
 12
0.0
 22
0.05920000000000033
 32
0.0
 13
624.0
 23
698.0
340
322
 70
     3
280
     0
281
    50
282
    50
283
     0
360
324
 71
     1
 91
        2
 14
-0.5
 24
-0.5
 14
623.5
 24
697.5
  0
IMAGE
  5
326
330
47
100
AcDbEntity
  8
0
 92
      140
310
8C000000010000008400000006000000050000001564698D37D3A3401ECC1CF2F3EB99C000000000000000001564698D37DCA3401ECC1CF2F3EB99C000000000000000001564698D37DCA340A869F57B91DE99C000000000000000001564698D37D3A340A869F57B91DE99C000000000000000001564698D37D3A3401ECC1C
310
F2F3EB99C00000000000000000
100
AcDbRasterImage
 90
        0
 10
2537.608500760524
 20
-1658.988228273352
 30
0.0
 11
0.036
 21
0.0
 31
0.0
 12
0.0
 22
0.03598014888337484
 32
0.0
 13
125.0
 23
93.0
340
325
 70
     3
280
     0
281
    50
282
    50
283
     0
360
327
 71
     1
 91
        2
 14
-0.5
 24
-0.5
 14
124.5
 24
92.5
  0
IMAGE
  5
329
330
47
100
AcDbEntity
  8
0
 92
      140
310
8C00000001000000840000000600000005000000B528CE65FCD2A340A334BCC360009AC00000000000000000B528CE65FCDBA340A334BCC360009AC00000000000000000B528CE65FCDBA3402DD2944DFEF299C00000000000000000B528CE65FCD2A3402DD2944DFEF299C00000000000000000B528CE65FCD2A340A334BC
310
C360009AC00000000000000000
100
AcDbRasterImage
 90
        0
 10
2537.492964212865
 20
-1664.094496670449
 30
0.0
 11
0.03600000000000001
 21
0.0
 31
0.0
 12
0.0
 22
0.0359801488833746
 32
0.0
 13
125.0
 23
93.0
340
328
 70
     3
280
     0
281
    50
282
    50
283
     0
360
32A
 71
     1
 91
        2
 14
-0.5
 24
-0.5
 14
124.5
 24
92.5
  0
IMAGE
  5
32C
330
47
100
AcDbEntity
  8
0
 92
      140
310
8C00000001000000840000000600000005000000442A3F4818D3A340D52A84E888D799C00000000000000000442A3F4818DCA340D52A84E888D799C00000000000000000442A3F4818DCA3405FC85C7226CA99C00000000000000000442A3F4818D3A3405FC85C7226CA99C00000000000000000442A3F4818D3A340D52A84
310
E888D799C00000000000000000
100
AcDbRasterImage
 90
        0
 10
2537.547426198873
 20
-1653.883699479212
 30
0.0
 11
0.036
 21
0.0
 31
0.0
 12
0.0
 22
0.03598014888337484
 32
0.0
 13
125.0
 23
93.0
340
32B
 70
     3
280
     0
281
    50
282
    50
283
     0
360
32D
 71
     1
 91
        2
 14
-0.5
 24
-0.5
 14
124.5
 24
92.5
  0
IMAGE
  5
32F
330
47
100
AcDbEntity
  8
0
 92
      140
310
8C000000010000008400000006000000050000004A7BF28810D3A340DBFBF800E3139AC000000000000000004A7BF28810DCA340DBFBF800E3139AC000000000000000004A7BF28810DCA3406599D18A80069AC000000000000000004A7BF28810D3A3406599D18A80069AC000000000000000004A7BF28810D3A340DBFBF8
310
00E3139AC00000000000000000
100
AcDbRasterImage
 90
        0
 10
2537.532294824171
 20
-1668.971683397648
 30
0.0
 11
0.03600000000000001
 21
0.0
 31
0.0
 12
0.0
 22
0.03598014888337484
 32
0.0
 13
125.0
 23
93.0
340
32E
 70
     3
280
     0
281
    50
282
    50
283
     0
360
330
 71
     1
 91
        2
 14
-0.5
 24
-0.5
 14
124.5
 24
92.5
  0
IMAGE
  5
332
330
47
100
AcDbEntity
  8
0
 92
      140
310
8C00000001000000840000000600000005000000E1552FEA34D3A340564A50AA2B289AC00000000000000000E1552FEA34DCA340564A50AA2B289AC00000000000000000E1552FEA34DCA3408A7D83DD2C1C9AC00000000000000000E1552FEA34D3A3408A7D83DD2C1C9AC00000000000000000E1552FEA34D3A340564A50
310
AA2B289AC00000000000000000
100
AcDbRasterImage
 90
        0
 10
2537.603349189027
 20
-1674.042641882455
 30
0.0
 11
0.003518373729476152
 21
0.0
 31
0.0
 12
0.0
 22
0.00351975132042252
 32
0.0
 13
1279.0
 23
852.0
340
331
 70
     3
280
     0
281
    50
282
    50
283
     0
360
333
 71
     1
 91
        2
 14
-0.5
 24
-0.5
 14
1278.5
 24
851.5
  0
MTEXT
  5
335
330
47
100
AcDbEntity
  8
1
 62
     3
100
AcDbMText
 10
2628.25074348238
 20
-1618.157215203955
 30
0.0
 40
4.0
 41
0.0
 71
     7
 72
     1
  1
REV N\U+00b0
  7
CONVERTER_11
1001
ACAD
1000
MTEXTBEGIN
1070
    44
1040
0.60024009603842
1000
MTEXTEND
  0
TEXT
  5
336
330
47
100
AcDbEntity
  8
1
 62
     3
100
AcDbText
 10
2647.169650330162
 20
-1618.157215203955
 30
0.0
 40
4.0
  1
01
 41
1.188
  7
CONVERTER_11
100
AcDbText
  0
MTEXT
  5
337
330
47
100
AcDbEntity
  8
1
 62
     3
100
AcDbMText
 10
2649.106222435175
 20
-1628.453956605952
 30
0.0
 40
4.0
 41
0.0
 71
     8
 72
     1
  1
1:5
  7
CONVERTER_11
1001
ACAD
1000
MTEXTBEGIN
1070
    44
1040
0.60024009603842
1000
MTEXTEND
  0
MTEXT
  5
338
330
47
100
AcDbEntity
  8
1
 62
     3
100
AcDbMText
 10
2579.877367428479
 20
-1646.51426889456
 30
0.0
 40
2.8
 41
0.0
 71
     7
 72
     1
  1
QUOTE SENZA INDICAZIONE\PDI TOLLERANZA:\PGRADO DI PRECISIONE ISO 2768-mK
  7
CONVERTER_11
1001
ACAD
1000
MTEXTBEGIN
1070
    44
1040
0.60024009603842
1000
MTEXTEND
  0
TEXT
  5
339
330
47
100
AcDbEntity
  8
1
 62
     3
100
AcDbText
 10
2628.755249974904
 20
-1628.453956605952
 30
0.0
 40
4.0
  1
SCALA
 41
1.188
  7
CONVERTER_11
100
AcDbText
  0
TEXT
  5
33A
330
47
100
AcDbEntity
  8
1
 62
     3
100
AcDbText
 10
2543.393102028543
 20
-1653.457535415009
 30
0.0
 40
2.9
  1
ITALY-47853 Coriano (RN)-Tel.+39 0541 657040-Fax+39 0541 658211
 41
1.188
  7
CONVERTER_11
100
AcDbText
  0
TEXT
  5
33B
330
47
100
AcDbEntity
  8
1
 62
     3
100
AcDbText
 10
2608.507893796513
 20
-1601.748430150155
 30
0.0
 40
4.0
  1
CODICE
 41
1.188
  7
CONVERTER_11
100
AcDbText
  0
TEXT
  5
33C
330
47
100
AcDbEntity
  8
1
 62
     3
100
AcDbText
 10
2577.484378258336
 20
-1612.954177589723
 30
0.0
 40
9.5
  1
TKKZ0TEC43200
 41
1.188
  7
CONVERTER_11
100
AcDbText
  0
MTEXT
  5
33D
330
47
100
AcDbEntity
  8
1
 62
     3
100
AcDbMText
 10
2578.973478258336
 20
-1632.530555017157
 30
0.0
 40
2.8
 41
0.0
 71
     7
 72
     1
  1
IL PRESENTE DISEGNO E' DI\PPROPRIETA' DELLA DITTA\PKRONA-KOBLENZ s.p.a. CHE NE\PPUO' RIVENDICARE I DIRITTI NEL\PCASO ESSO VENGA RIPRODOTTO\PO DIVULGATO A TERZI
  7
CONVERTER_11
1001
ACAD
1000
MTEXTBEGIN
1070
    44
1040
0.60024009603842
1000
MTEXTEND
  0
MTEXT
  5
33F
330
47
100
AcDbEntity
  8
1
 62
     7
100
AcDbMText
 10
2575.266785302227
 20
-1601.801179514637
 30
0.0
 40
2.1
 41
0.0
 71
     5
 72
     1
  1
R
  7
CONVERTER_12
1001
ACAD
1000
MTEXTBEGIN
1070
    44
1040
0.96038415366146
1000
MTEXTEND
  0
MTEXT
  5
340
330
47
100
AcDbEntity
  8
1
 62
     3
100
AcDbMText
 10
2543.24715600345
 20
-1668.93856889456
 30
0.0
 40
2.9
 41
0.0
 71
     7
 72
     1
  1
\U+0420\U+041e\U+0421\U+0421\U+0418\U+042f - 109052, \U+0433. \U+041c\U+043e\U+0441\U+043a\U+0432\U+0430 - \U+0422\U+0435\U+043b/\U+0444\U+0430\U+043a\U+0441 +7 (495) 287-16-08
  7
CONVERTER_11
1001
ACAD
1000
MTEXTBEGIN
1070
    44
1040
0.60024009603842
1000
MTEXTEND
  0
TEXT
  5
341
330
47
100
AcDbEntity
  8
1
 62
     3
100
AcDbText
 10
2543.24715600345
 20
-1664.034789038163
 30
0.0
 40
2.9
  1
FRANCE-69830 Saint Georges De Reneins-Tel:+33-474090939-Fax:+33-474090932
 41
1.188
  7
CONVERTER_11
100
AcDbText
  0
TEXT
  5
342
330
47
100
AcDbEntity
  8
1
 62
     3
100
AcDbText
 10
2543.48840933469
 20
-1674.07126889456
 30
0.0
 40
2.9
  1
Koblenz Utturhar Fittings Private Limited-411030 Maharashtra,India,Ph:+91 020-24471422
 41
1.188
  7
CONVERTER_11
100
AcDbText
  0
MTEXT
  5
343
330
47
100
AcDbEntity
  8
1
 62
     3
100
AcDbMText
 10
2543.24715600345
 20
-1658.712527192091
 30
0.0
 40
2.9
 41
0.0
 71
     7
 72
     1
  1
ESPA\U+00d1A-C.P 08291 Ripollet-(Barcelona)-Tel:+34 935910410-Fax:+34 935910498
  7
CONVERTER_11
1001
ACAD
1000
MTEXTBEGIN
1070
    44
1040
0.60024009603842
1000
MTEXTEND
  0
ENDBLK
  5
49
330
47
100
AcDbEntity
  8
0
100
AcDbBlockEnd
  0
BLOCK
  5
4B
330
4A
100
AcDbEntity
  8
0
100
AcDbBlockBegin
  2
CORPO_REG_Y_CERN__S0060__2
 70
     0
 10
-1538.507553785186
 20
659.3376715470904
 30
0.0
  3
CORPO_REG_Y_CERN__S0060__2
  1

  0
LINE
  5
344
330
4A
100
AcDbEntity
  8
0
  6
CONTINUOUS
 62
     7
100
AcDbLine
 10
-1538.13255375922
 20
662.7760889506235
 30
0.0
 11
-1538.132553759215
 21
665.5035939649051
 31
0.0
  0
LINE
  5
345
330
4A
100
AcDbEntity
  8
0
  6
CONTINUOUS
 62
     7
100
AcDbLine
 10
-1538.132553759226
 20
660.5035939649051
 30
0.0
 11
-1538.132553759224
 21
661.5310989791578
 31
0.0
  0
LINE
  5
346
330
4A
100
AcDbEntity
  8
0
  6
CONTINUOUS
 62
     7
100
AcDbLine
 10
-1538.132553759224
 20
661.5310989791578
 30
0.0
 11
-1538.13255375922
 21
662.7760889506235
 31
0.0
  0
ARC
  5
347
330
4A
100
AcDbEntity
  8
0
  6
CONTINUOUS
 62
     7
100
AcDbCircle
 10
-1540.132553759226
 20
660.5035939649097
 30
0.0
 40
2.000000000000939
100
AcDbArc
 50
324.3409110281002
 51
359.9999999998698
  0
ARC
  5
348
330
4A
100
AcDbEntity
  8
0
  6
CONTINUOUS
 62
     7
100
AcDbCircle
 10
-1540.132553759215
 20
665.5035939649079
 30
0.0
 40
2.0
100
AcDbArc
 50
359.9999999999218
 51
35.65908897242461
  0
ENDBLK
  5
4C
330
4A
100
AcDbEntity
  8
0
100
AcDbBlockEnd
  0
BLOCK
  5
4F
330
4D
100
AcDbEntity
  8
0
100
AcDbBlockBegin
  2
PD00700A24600_CORPO_RE0__3
 70
     0
 10
-1538.507553785186
 20
659.3376715470904
 30
0.0
  3
PD00700A24600_CORPO_RE0__3
  1

  0
INSERT
  5
4E
330
4D
100
AcDbEntity
  8
0
100
AcDbBlockReference
  2
CORPO_REG_Y_CERN__S0060__2
 10
-1538.507553785186
 20
659.3376715470904
 30
0.0
  0
ENDBLK
  5
50
330
4D
100
AcDbEntity
  8
0
100
AcDbBlockEnd
  0
BLOCK
  5
52
330
51
100
AcDbEntity
  8
0
100
AcDbBlockBegin
  2
BIELLA_INTERNA_PORTA_S0__4
 70
     0
 10
-1538.50755378461
 20
681.4230456046162
 30
0.0
  3
BIELLA_INTERNA_PORTA_S0__4
  1

  0
ARC
  5
349
330
51
100
AcDbEntity
  8
0
  6
CONTINUOUS
 62
     1
100
AcDbCircle
 10
-1536.432553816063
 20
678.7045065554521
 30
0.0
 40
3.049999985238296
100
AcDbArc
 50
90.77707604658339
 51
116.9598697622644
  0
ARC
  5
34A
330
51
100
AcDbEntity
  8
0
  6
CONTINUOUS
 62
     7
100
AcDbCircle
 10
-1536.432553755054
 20
678.7045065704851
 30
0.0
 40
4.7499999993419
100
AcDbArc
 50
90.77707721461988
 51
115.9025683431703
  0
ENDBLK
  5
53
330
51
100
AcDbEntity
  8
0
100
AcDbBlockEnd
  0
BLOCK
  5
56
330
54
100
AcDbEntity
  8
0
100
AcDbBlockBegin
  2
PD05300A09100_BIELLA_I0__5
 70
     0
 10
-1538.50755378461
 20
681.4230456046162
 30
0.0
  3
PD05300A09100_BIELLA_I0__5
  1

  0
INSERT
  5
55
330
54
100
AcDbEntity
  8
0
100
AcDbBlockReference
  2
BIELLA_INTERNA_PORTA_S0__4
 10
-1538.50755378461
 20
681.4230456046162
 30
0.0
  0
ENDBLK
  5
57
330
54
100
AcDbEntity
  8
0
100
AcDbBlockEnd
  0
BLOCK
  5
59
330
58
100
AcDbEntity
  8
0
100
AcDbBlockBegin
  2
BIELLA_INTERNA_MONTANT0__6
 70
     0
 10
-1538.507553785186
 20
661.5310989791578
 30
0.0
  3
BIELLA_INTERNA_MONTANT0__6
  1

  0
LINE
  5
34B
330
58
100
AcDbEntity
  8
0
  6
CONTINUOUS
 62
     7
100
AcDbLine
 10
-1538.507553785186
 20
669.7061738933244
 30
0.0
 11
-1535.188012228406
 21
671.4468382046362
 31
0.0
  0
LINE
  5
34C
330
58
100
AcDbEntity
  8
0
  6
CONTINUOUS
 62
     1
100
AcDbLine
 10
-1536.473918281154
 20
681.7542260328764
 30
0.0
 11
-1535.007553765947
 21
681.7741149304638
 31
0.0
  0
LINE
  5
34D
330
58
100
AcDbEntity
  8
0
  6
CONTINUOUS
 62
     1
100
AcDbLine
 10
-1536.476630709471
 20
681.9542076671141
 30
0.0
 11
-1536.496973920766
 21
683.4540697120801
 31
0.0
  0
LINE
  5
34E
330
58
100
AcDbEntity
  8
0
  6
CONTINUOUS
 62
     7
100
AcDbLine
 10
-1535.007553765947
 20
683.4742712939778
 30
0.0
 11
-1536.496973920766
 21
683.4540697120801
 31
0.0
  0
LINE
  5
34F
330
58
100
AcDbEntity
  8
0
  6
CONTINUOUS
 62
     7
100
AcDbLine
 10
-1535.007553765945
 20
671.5414650077246
 30
0.0
 11
-1535.188012228406
 21
671.4468382046362
 31
0.0
  0
ARC
  5
350
330
58
100
AcDbEntity
  8
0
  6
CONTINUOUS
 62
     7
100
AcDbCircle
 10
-1541.982553758278
 20
662.1535939649011
 30
0.0
 40
3.899999999998923
100
AcDbArc
 50
350.815502140351
 51
9.18449785933598
  0
ARC
  5
351
330
58
100
AcDbEntity
  8
0
  6
CONTINUOUS
 62
     1
100
AcDbCircle
 10
-1536.432553510584
 20
678.7045067424806
 30
0.0
 40
3.049999957028839
100
AcDbArc
 50
116.9598764700655
 51
132.8692769752301
  0
ARC
  5
352
330
58
100
AcDbEntity
  8
0
  6
CONTINUOUS
 62
     1
100
AcDbCircle
 10
-1536.432553816063
 20
678.7045065554521
 30
0.0
 40
3.049999985238296
100
AcDbArc
 50
90.77707604658339
 51
116.9598697622644
  0
ARC
  5
353
330
58
100
AcDbEntity
  8
0
  6
CONTINUOUS
 62
     7
100
AcDbCircle
 10
-1536.432553755054
 20
678.7045065704851
 30
0.0
 40
4.7499999993419
100
AcDbArc
 50
90.77707721461988
 51
115.9025683431703
  0
SPLINE
  5
354
330
58
100
AcDbEntity
  8
0
  6
CONTINUOUS
 62
     1
100
AcDbSpline
210
0.0
220
0.0
230
1.0
 70
    24
 71
     3
 72
    15
 73
    11
 74
     9
 42
0.000000001
 43
0.0000000001
 44
0.00000001
 40
0.0
 40
0.0
 40
0.0
 40
0.0
 40
0.0070211714121021
 40
0.0140423428248739
 40
0.0344175718152368
 40
0.058578654966797
 40
0.0903888483693279
 40
0.126381079096287
 40
0.1689386167000855
 40
0.2000000282493892
 40
0.2000000282493892
 40
0.2000000282493892
 40
0.2000000282493892
 10
-1536.476630709471
 20
681.9542076671141
 30
0.0
 10
-1536.476598968766
 20
681.9518674918891
 30
0.0
 10
-1536.476535487355
 20
681.9471871414394
 30
0.0
 10
-1536.476379895371
 20
681.9357156726297
 30
0.0
 10
-1536.47614681876
 20
681.9185314253596
 30
0.0
 10
-1536.475801678094
 20
681.8930849307088
 30
0.0
 10
-1536.475385937453
 20
681.8624332475779
 30
0.0
 10
-1536.474887031728
 20
681.8256499769366
 30
0.0
 10
-1536.474391511035
 20
681.7891162772919
 30
0.0
 10
-1536.474058700886
 20
681.7645788844861
 30
0.0
 10
-1536.473918281154
 20
681.7542260328764
 30
0.0
 11
-1536.476630709471
 21
681.9542076671141
 31
0.0
 11
-1536.476535487356
 21
681.9471871414402
 31
0.0
 11
-1536.476440265245
 21
681.9401666157655
 31
0.0
 11
-1536.476163933541
 21
681.9197932606872
 31
0.0
 11
-1536.475836257556
 21
681.8956343996324
 31
0.0
 11
-1536.475404843272
 21
681.8638271318148
 31
0.0
 11
-1536.474916711615
 21
681.827838211294
 31
0.0
 11
-1536.474339540352
 21
681.7852845877073
 31
0.0
 11
-1536.473918281154
 21
681.7542260328764
 31
0.0
  0
ENDBLK
  5
5A
330
58
100
AcDbEntity
  8
0
100
AcDbBlockEnd
  0
BLOCK
  5
5D
330
5B
100
AcDbEntity
  8
0
100
AcDbBlockBegin
  2
PD05300A09200_BIELLA_I0__7
 70
     0
 10
-1538.507553785186
 20
661.5310989791578
 30
0.0
  3
PD05300A09200_BIELLA_I0__7
  1

  0
INSERT
  5
5C
330
5B
100
AcDbEntity
  8
0
100
AcDbBlockReference
  2
BIELLA_INTERNA_MONTANT0__6
 10
-1538.507553785186
 20
661.5310989791578
 30
0.0
  0
ENDBLK
  5
5E
330
5B
100
AcDbEntity
  8
0
100
AcDbBlockEnd
  0
BLOCK
  5
62
330
5F
100
AcDbEntity
  8
0
100
AcDbBlockBegin
  2
GFS00600A00100_GRUPPO_0__8
 70
     0
 10
-1538.507553785186
 20
661.5310989791578
 30
0.0
  3
GFS00600A00100_GRUPPO_0__8
  1

  0
INSERT
  5
60
330
5F
100
AcDbEntity
  8
0
100
AcDbBlockReference
  2
PD05300A09100_BIELLA_I0__5
 10
-1538.50755378461
 20
681.4230456046162
 30
0.0
  0
INSERT
  5
61
330
5F
100
AcDbEntity
  8
0
100
AcDbBlockReference
  2
PD05300A09200_BIELLA_I0__7
 10
-1538.507553785186
 20
661.5310989791578
 30
0.0
  0
ENDBLK
  5
63
330
5F
100
AcDbEntity
  8
0
100
AcDbBlockEnd
  0
BLOCK
  5
65
330
64
100
AcDbEntity
  8
0
100
AcDbBlockBegin
  2
PD02100A09500_SPINA_Ø30__9
 70
     0
 10
-1538.43255375841
 20
676.7045065697939
 30
0.0
  3
PD02100A09500_SPINA_Ø30__9
  1

  0
ARC
  5
355
330
64
100
AcDbEntity
  8
0
  6
CONTINUOUS
 62
     7
100
AcDbCircle
 10
-1536.43255375841
 20
678.7045065697939
 30
0.0
 40
1.999999999998966
100
AcDbArc
 50
44.56131235126745
 51
101.0544839024121
  0
ARC
  5
356
330
64
100
AcDbEntity
  8
0
  6
CONTINUOUS
 62
     7
100
AcDbCircle
 10
-1536.43255375841
 20
678.7045065697939
 30
0.0
 40
1.999999999999928
100
AcDbArc
 50
101.0544839024121
 51
315.4386876487325
  0
ENDBLK
  5
66
330
64
100
AcDbEntity
  8
0
100
AcDbBlockEnd
  0
BLOCK
  5
6A
330
67
100
AcDbEntity
  8
0
100
AcDbBlockBegin
  2
GFS00600A00200_GRUPPO___10
 70
     0
 10
-1538.507553785186
 20
661.5310989791578
 30
0.0
  3
GFS00600A00200_GRUPPO___10
  1

  0
INSERT
  5
68
330
67
100
AcDbEntity
  8
0
100
AcDbBlockReference
  2
GFS00600A00100_GRUPPO_0__8
 10
-1538.507553785186
 20
661.5310989791578
 30
0.0
  0
INSERT
  5
69
330
67
100
AcDbEntity
  8
0
100
AcDbBlockReference
  2
PD02100A09500_SPINA_Ø30__9
 10
-1538.43255375841
 20
676.7045065697939
 30
0.0
  0
ENDBLK
  5
6B
330
67
100
AcDbEntity
  8
0
100
AcDbBlockEnd
  0
BLOCK
  5
6F
330
6C
100
AcDbEntity
  8
0
100
AcDbBlockBegin
  2
GFS00600A00300_GRUPPO___11
 70
     0
 10
-1538.507553785186
 20
659.3376715470904
 30
0.0
  3
GFS00600A00300_GRUPPO___11
  1

  0
INSERT
  5
6D
330
6C
100
AcDbEntity
  8
0
100
AcDbBlockReference
  2
PD00700A24600_CORPO_RE0__3
 10
-1538.507553785186
 20
659.3376715470904
 30
0.0
  0
INSERT
  5
6E
330
6C
100
AcDbEntity
  8
0
100
AcDbBlockReference
  2
GFS00600A00200_GRUPPO___10
 10
-1538.507553785186
 20
661.5310989791578
 30
0.0
  0
ENDBLK
  5
70
330
6C
100
AcDbEntity
  8
0
100
AcDbBlockEnd
  0
BLOCK
  5
73
330
71
100
AcDbEntity
  8
0
100
AcDbBlockBegin
  2
GFS0060A00400_GRUPPO_B__12
 70
     0
 10
-1538.507553785186
 20
659.3376715470904
 30
0.0
  3
GFS0060A00400_GRUPPO_B__12
  1

  0
INSERT
  5
72
330
71
100
AcDbEntity
  8
0
100
AcDbBlockReference
  2
GFS00600A00300_GRUPPO___11
 10
-1538.507553785186
 20
659.3376715470904
 30
0.0
  0
ENDBLK
  5
74
330
71
100
AcDbEntity
  8
0
100
AcDbBlockEnd
  0
BLOCK
  5
77
330
75
100
AcDbEntity
  8
0
100
AcDbBlockBegin
  2
GFS0060A00500_GRUPPO_C__13
 70
     0
 10
-1538.507553785186
 20
659.3376715470904
 30
0.0
  3
GFS0060A00500_GRUPPO_C__13
  1

  0
INSERT
  5
76
330
75
100
AcDbEntity
  8
0
100
AcDbBlockReference
  2
GFS0060A00400_GRUPPO_B__12
 10
-1538.507553785186
 20
659.3376715470904
 30
0.0
  0
ENDBLK
  5
78
330
75
100
AcDbEntity
  8
0
100
AcDbBlockEnd
  0
BLOCK
  5
7B
330
79
100
AcDbEntity
  8
0
100
AcDbBlockBegin
  2
GFS0060A00700_GRUPPO_C__14
 70
     0
 10
-1538.507553785186
 20
659.3376715470904
 30
0.0
  3
GFS0060A00700_GRUPPO_C__14
  1

  0
INSERT
  5
7A
330
79
100
AcDbEntity
  8
0
100
AcDbBlockReference
  2
GFS0060A00500_GRUPPO_C__13
 10
-1538.507553785186
 20
659.3376715470904
 30
0.0
  0
ENDBLK
  5
7C
330
79
100
AcDbEntity
  8
0
100
AcDbBlockEnd
  0
BLOCK
  5
7F
330
7D
100
AcDbEntity
  8
0
100
AcDbBlockBegin
  2
00S0060A00100_CERNIERA__15
 70
     0
 10
-1538.507553785186
 20
659.3376715470904
 30
0.0
  3
00S0060A00100_CERNIERA__15
  1

  0
INSERT
  5
7E
330
7D
100
AcDbEntity
  8
0
100
AcDbBlockReference
  2
GFS0060A00700_GRUPPO_C__14
 10
-1538.507553785186
 20
659.3376715470904
 30
0.0
  0
ENDBLK
  5
80
330
7D
100
AcDbEntity
  8
0
100
AcDbBlockEnd
  0
BLOCK
  5
82
330
81
100
AcDbEntity
  8
0
100
AcDbBlockBegin
  2
PX001697_STIPITE_MONTA__16
 70
     0
 10
-527.507553783129
 20
653.2035939654506
 30
0.0
  3
PX001697_STIPITE_MONTA__16
  1

  0
LINE
  5
357
330
81
100
AcDbEntity
  8
0
  6
CONTINUOUS
 62
     7
100
AcDbLine
 10
-485.5075537909779
 20
743.2035939655361
 30
0.0
 11
-527.507553783129
 21
743.2035939654124
 31
0.0
  0
LINE
  5
358
330
81
100
AcDbEntity
  8
0
  6
CONTINUOUS
 62
     7
100
AcDbLine
 10
-516.5075537851844
 20
703.2035939654252
 30
0.0
 11
-516.5075537851844
 21
655.2035939654452
 31
0.0
  0
LINE
  5
359
330
81
100
AcDbEntity
  8
0
  6
CONTINUOUS
 62
     7
100
AcDbLine
 10
-516.5075537851844
 20
703.2035939654252
 30
0.0
 11
-525.5075537835037
 21
703.2035939653988
 31
0.0
  0
LINE
  5
35A
330
81
100
AcDbEntity
  8
0
  6
CONTINUOUS
 62
     7
100
AcDbLine
 10
-485.5075537909779
 20
653.2035939655361
 30
0.0
 11
-485.5075537909779
 21
743.2035939655361
 31
0.0
  0
LINE
  5
35B
330
81
100
AcDbEntity
  8
0
  6
CONTINUOUS
 62
     7
100
AcDbLine
 10
-527.507553783129
 20
743.2035939654124
 30
0.0
 11
-527.507553783129
 21
705.2035939653924
 31
0.0
  0
LINE
  5
35C
330
81
100
AcDbEntity
  8
0
  6
CONTINUOUS
 62
     7
100
AcDbLine
 10
-514.5075537855591
 20
653.2035939654506
 30
0.0
 11
-485.5075537909779
 21
653.2035939655361
 31
0.0
  0
ARC
  5
35D
330
81
100
AcDbEntity
  8
0
  6
CONTINUOUS
 62
     7
100
AcDbCircle
 10
-514.5075537853718
 20
655.2035939652633
 30
0.0
 40
1.999999999812644
100
AcDbArc
 50
179.999999994789
 51
269.9999999946327
  0
ARC
  5
35E
330
81
100
AcDbEntity
  8
0
  6
CONTINUOUS
 62
     7
100
AcDbCircle
 10
-525.5075537833163
 20
705.2035939652105
 30
0.0
 40
1.999999999812644
100
AcDbArc
 50
179.999999994789
 51
269.9999999946327
  0
ENDBLK
  5
83
330
81
100
AcDbEntity
  8
0
100
AcDbBlockEnd
  0
BLOCK
  5
86
330
84
100
AcDbEntity
  8
0
100
AcDbBlockBegin
  2
TELAIO__17
 70
     0
 10
-527.507553783129
 20
653.2035939654506
 30
0.0
  3
TELAIO__17
  1

  0
INSERT
  5
85
330
84
100
AcDbEntity
  8
0
100
AcDbBlockReference
  2
PX001697_STIPITE_MONTA__16
 10
-527.507553783129
 20
653.2035939654506
 30
0.0
  0
ENDBLK
  5
87
330
84
100
AcDbEntity
  8
0
100
AcDbBlockEnd
  0
BLOCK
  5
89
330
88
100
AcDbEntity
  8
0
100
AcDbBlockBegin
  2
SCASSO_MONTANTE_S0043___18
 70
     0
 10
-1573.507553765567
 20
653.203593965136
 30
0.0
  3
SCASSO_MONTANTE_S0043___18
  1

  0
LINE
  5
35F
330
88
100
AcDbEntity
  8
0
  6
CONTINUOUS
 62
     7
100
AcDbLine
 10
-1538.507553765567
 20
689.203593965136
 30
0.0
 11
-1538.507553785186
 21
655.2035939654452
 31
0.0
  0
LINE
  5
360
330
88
100
AcDbEntity
  8
0
  6
CONTINUOUS
 62
     7
100
AcDbLine
 10
-1540.507553785559
 20
653.2035939654506
 30
0.0
 11
-1573.507553765567
 21
653.203593965136
 31
0.0
  0
ARC
  5
361
330
88
100
AcDbEntity
  8
0
  6
CONTINUOUS
 62
     7
100
AcDbCircle
 10
-1540.507553785374
 20
655.2035939656371
 30
0.0
 40
2.000000000186446
100
AcDbArc
 50
269.9999999947043
 51
359.9999999945023
  0
ENDBLK
  5
8A
330
88
100
AcDbEntity
  8
0
100
AcDbBlockEnd
  0
BLOCK
  5
8D
330
8B
100
AcDbEntity
  8
0
100
AcDbBlockBegin
  2
PX004196_GRUPPO_N_3_SC__19
 70
     0
 10
-1573.507553765567
 20
653.203593965136
 30
0.0
  3
PX004196_GRUPPO_N_3_SC__19
  1

  0
INSERT
  5
8C
330
8B
100
AcDbEntity
  8
0
100
AcDbBlockReference
  2
SCASSO_MONTANTE_S0043___18
 10
-1573.507553765567
 20
653.203593965136
 30
0.0
  0
ENDBLK
  5
8E
330
8B
100
AcDbEntity
  8
0
100
AcDbBlockEnd
  0
BLOCK
  5
91
330
8F
100
AcDbEntity
  8
0
100
AcDbBlockBegin
  2
FRESATE_CERNIERE_TELAI__20
 70
     0
 10
-1573.507553765567
 20
653.203593965136
 30
0.0
  3
FRESATE_CERNIERE_TELAI__20
  1

  0
INSERT
  5
90
330
8F
100
AcDbEntity
  8
0
100
AcDbBlockReference
  2
PX004196_GRUPPO_N_3_SC__19
 10
-1573.507553765567
 20
653.203593965136
 30
0.0
  0
ENDBLK
  5
92
330
8F
100
AcDbEntity
  8
0
100
AcDbBlockEnd
  0
BLOCK
  5
96
330
93
100
AcDbEntity
  8
0
100
AcDbBlockBegin
  2
TELAIO_BATTENTE_L1000X__21
 70
     0
 10
-1573.507553765567
 20
653.203593965136
 30
0.0
  3
TELAIO_BATTENTE_L1000X__21
  1

  0
INSERT
  5
94
330
93
100
AcDbEntity
  8
0
100
AcDbBlockReference
  2
TELAIO__17
 10
-527.507553783129
 20
653.2035939654506
 30
0.0
  0
INSERT
  5
95
330
93
100
AcDbEntity
  8
0
100
AcDbBlockReference
  2
FRESATE_CERNIERE_TELAI__20
 10
-1573.507553765567
 20
653.203593965136
 30
0.0
  0
ENDBLK
  5
97
330
93
100
AcDbEntity
  8
0
100
AcDbBlockEnd
  0
BLOCK
  5
99
330
98
100
AcDbEntity
  8
0
100
AcDbBlockBegin
  2
STIPITE_MONTANTE_SX_1___22
 70
     0
 10
-1574.507553791913
 20
653.203593965136
 30
0.0
  3
STIPITE_MONTANTE_SX_1___22
  1

  0
LINE
  5
362
330
98
100
AcDbEntity
  8
0
  6
CONTINUOUS
 62
     7
100
AcDbLine
 10
-1574.507553791913
 20
743.2035939655516
 30
0.0
 11
-1527.507553783131
 21
743.2035939654124
 31
0.0
  0
LINE
  5
363
330
98
100
AcDbEntity
  8
0
  6
CONTINUOUS
 62
     7
100
AcDbLine
 10
-1538.507553785186
 20
703.2035939654452
 30
0.0
 11
-1529.507553783504
 21
703.2035939654188
 31
0.0
  0
LINE
  5
364
330
98
100
AcDbEntity
  8
0
  6
CONTINUOUS
 62
     7
100
AcDbLine
 10
-1574.507553791913
 20
743.2035939655516
 30
0.0
 11
-1574.507553791913
 21
653.2035939655516
 31
0.0
  0
LINE
  5
365
330
98
100
AcDbEntity
  8
0
  6
CONTINUOUS
 62
     7
100
AcDbLine
 10
-1538.507553785186
 20
703.2035939654452
 30
0.0
 11
-1538.507553765567
 21
689.203593965136
 31
0.0
  0
LINE
  5
366
330
98
100
AcDbEntity
  8
0
  6
CONTINUOUS
 62
     7
100
AcDbLine
 10
-1538.507553765567
 20
689.203593965136
 30
0.0
 11
-1538.507553785186
 21
655.2035939654452
 31
0.0
  0
LINE
  5
367
330
98
100
AcDbEntity
  8
0
  6
CONTINUOUS
 62
     7
100
AcDbLine
 10
-1527.507553783131
 20
705.2035939654124
 30
0.0
 11
-1527.507553783131
 21
743.2035939654124
 31
0.0
  0
LINE
  5
368
330
98
100
AcDbEntity
  8
0
  6
CONTINUOUS
 62
     7
100
AcDbLine
 10
-1573.507553765567
 20
653.203593965136
 30
0.0
 11
-1574.507553791913
 21
653.2035939655516
 31
0.0
  0
LINE
  5
369
330
98
100
AcDbEntity
  8
0
  6
CONTINUOUS
 62
     7
100
AcDbLine
 10
-1540.507553785559
 20
653.2035939654506
 30
0.0
 11
-1573.507553765567
 21
653.203593965136
 31
0.0
  0
ARC
  5
36A
330
98
100
AcDbEntity
  8
0
  6
CONTINUOUS
 62
     7
100
AcDbCircle
 10
-1529.507553783316
 20
705.2035939656053
 30
0.0
 40
2.000000000186446
100
AcDbArc
 50
269.9999999946196
 51
359.9999999944763
  0
ARC
  5
36B
330
98
100
AcDbEntity
  8
0
  6
CONTINUOUS
 62
     7
100
AcDbCircle
 10
-1540.507553785374
 20
655.2035939656371
 30
0.0
 40
2.000000000186446
100
AcDbArc
 50
269.9999999947043
 51
359.9999999945023
  0
ENDBLK
  5
9A
330
98
100
AcDbEntity
  8
0
100
AcDbBlockEnd
  0
BLOCK
  5
9C
330
9B
100
AcDbEntity
  8
0
100
AcDbBlockBegin
  2
SCASSO_PORTA_S0043_3__23
 70
     0
 10
-1535.007553765947
 20
653.203593964975
 30
0.0
  3
SCASSO_PORTA_S0043_3__23
  1

  0
LINE
  5
36C
330
9B
100
AcDbEntity
  8
0
  6
CONTINUOUS
 62
     7
100
AcDbLine
 10
-1535.007553765943
 20
671.2035939649741
 30
0.0
 11
-1535.007553765943
 21
655.203593964975
 31
0.0
  0
LINE
  5
36D
330
9B
100
AcDbEntity
  8
0
  6
CONTINUOUS
 62
     7
100
AcDbLine
 10
-1535.007553765947
 20
689.203593964975
 30
0.0
 11
-1535.007553765943
 21
671.2035939649741
 31
0.0
  0
LINE
  5
36E
330
9B
100
AcDbEntity
  8
0
  6
CONTINUOUS
 62
     7
100
AcDbLine
 10
-1497.007553765941
 20
653.2035939649804
 30
0.0
 11
-1533.007553765941
 21
653.203593964975
 31
0.0
  0
ARC
  5
36F
330
9B
100
AcDbEntity
  8
0
  6
CONTINUOUS
 62
     7
100
AcDbCircle
 10
-1533.007553765943
 20
655.203593964975
 30
0.0
 40
2.0
100
AcDbArc
 50
180.0
 51
270.0000000000521
  0
ENDBLK
  5
9D
330
9B
100
AcDbEntity
  8
0
100
AcDbBlockEnd
  0
BLOCK
  5
A0
330
9E
100
AcDbEntity
  8
0
100
AcDbBlockBegin
  2
PX004194_GRUPPO_N_3_SC__24
 70
     0
 10
-1535.007553765947
 20
653.203593964975
 30
0.0
  3
PX004194_GRUPPO_N_3_SC__24
  1

  0
INSERT
  5
9F
330
9E
100
AcDbEntity
  8
0
100
AcDbBlockReference
  2
SCASSO_PORTA_S0043_3__23
 10
-1535.007553765947
 20
653.203593964975
 30
0.0
  0
ENDBLK
  5
A1
330
9E
100
AcDbEntity
  8
0
100
AcDbBlockEnd
  0
BLOCK
  5
A4
330
A2
100
AcDbEntity
  8
0
100
AcDbBlockBegin
  2
FRESATE_CERNIERE_TELAI__25
 70
     0
 10
-1535.007553765947
 20
653.203593964975
 30
0.0
  3
FRESATE_CERNIERE_TELAI__25
  1

  0
INSERT
  5
A3
330
A2
100
AcDbEntity
  8
0
100
AcDbBlockReference
  2
PX004194_GRUPPO_N_3_SC__24
 10
-1535.007553765947
 20
653.203593964975
 30
0.0
  0
ENDBLK
  5
A5
330
A2
100
AcDbEntity
  8
0
100
AcDbBlockEnd
  0
BLOCK
  5
A7
330
A6
100
AcDbEntity
  8
0
100
AcDbBlockBegin
  2
PX000466_1__26
 70
     0
 10
-636.0075537659468
 20
699.2035939651187
 30
0.0
  3
PX000466_1__26
  1

  0
LINE
  5
370
330
A6
100
AcDbEntity
  8
0
  6
CONTINUOUS
 62
     1
100
AcDbLine
 10
-634.0075537659468
 20
701.2035939651178
 30
0.0
 11
-634.0075537659468
 21
699.2035939651187
 31
0.0
  0
LINE
  5
371
330
A6
100
AcDbEntity
  8
0
  6
CONTINUOUS
 62
     7
100
AcDbLine
 10
-636.0075537659468
 20
699.2035939651196
 30
0.0
 11
-634.0075537659468
 21
699.2035939651187
 31
0.0
  0
LINE
  5
372
330
A6
100
AcDbEntity
  8
0
  6
CONTINUOUS
 62
     7
100
AcDbLine
 10
-634.0075537659468
 20
699.2035939651187
 30
0.0
 11
-633.0075537659468
 21
699.2035939651187
 31
0.0
  0
LINE
  5
373
330
A6
100
AcDbEntity
  8
0
  6
CONTINUOUS
 62
     7
100
AcDbLine
 10
-600.0075537659468
 20
701.2035939651241
 30
0.0
 11
-602.0075537659468
 21
701.2035939651232
 31
0.0
  0
LINE
  5
374
330
A6
100
AcDbEntity
  8
0
  6
CONTINUOUS
 62
     7
100
AcDbLine
 10
-600.0075537659468
 20
701.2035939651241
 30
0.0
 11
-600.0075537659468
 21
699.203593965125
 31
0.0
  0
LINE
  5
375
330
A6
100
AcDbEntity
  8
0
  6
CONTINUOUS
 62
     7
100
AcDbLine
 10
-603.0075537659468
 20
699.2035939651241
 30
0.0
 11
-602.0075537659468
 21
699.2035939651241
 31
0.0
  0
LINE
  5
376
330
A6
100
AcDbEntity
  8
0
  6
CONTINUOUS
 62
     7
100
AcDbLine
 10
-634.0075537659468
 20
701.2035939651178
 30
0.0
 11
-602.0075537659468
 21
701.2035939651232
 31
0.0
  0
LINE
  5
377
330
A6
100
AcDbEntity
  8
0
  6
CONTINUOUS
 62
     1
100
AcDbLine
 10
-602.0075537659468
 20
701.2035939651232
 30
0.0
 11
-602.0075537659468
 21
699.2035939651241
 31
0.0
  0
LINE
  5
378
330
A6
100
AcDbEntity
  8
0
  6
CONTINUOUS
 62
     7
100
AcDbLine
 10
-633.0075537659468
 20
699.2035939651187
 30
0.0
 11
-627.0075537659468
 21
699.2035939651205
 31
0.0
  0
LINE
  5
379
330
A6
100
AcDbEntity
  8
0
  6
CONTINUOUS
 62
     7
100
AcDbLine
 10
-636.0075537659468
 20
701.2035939651205
 30
0.0
 11
-634.0075537659468
 21
701.2035939651178
 31
0.0
  0
LINE
  5
37A
330
A6
100
AcDbEntity
  8
0
  6
CONTINUOUS
 62
     7
100
AcDbLine
 10
-636.0075537659468
 20
701.2035939651205
 30
0.0
 11
-636.0075537659468
 21
699.2035939651196
 31
0.0
  0
LINE
  5
37B
330
A6
100
AcDbEntity
  8
0
  6
CONTINUOUS
 62
     7
100
AcDbLine
 10
-627.0075537659468
 20
699.2035939651205
 30
0.0
 11
-609.0075537659468
 21
699.2035939651232
 31
0.0
  0
LINE
  5
37C
330
A6
100
AcDbEntity
  8
0
  6
CONTINUOUS
 62
     7
100
AcDbLine
 10
-609.0075537659468
 20
699.2035939651232
 30
0.0
 11
-603.0075537659468
 21
699.2035939651241
 31
0.0
  0
LINE
  5
37D
330
A6
100
AcDbEntity
  8
0
  6
CONTINUOUS
 62
     7
100
AcDbLine
 10
-600.0075537659468
 20
699.203593965125
 30
0.0
 11
-602.0075537659468
 21
699.2035939651241
 31
0.0
  0
ENDBLK
  5
A8
330
A6
100
AcDbEntity
  8
0
100
AcDbBlockEnd
  0
BLOCK
  5
AA
330
A9
100
AcDbEntity
  8
0
100
AcDbBlockBegin
  2
PX000467_1__27
 70
     0
 10
-633.5934743270373
 20
701.2035939651196
 30
0.0
  3
PX000467_1__27
  1

  0
LINE
  5
37E
330
A9
100
AcDbEntity
  8
0
  6
CONTINUOUS
 62
     7
100
AcDbLine
 10
-632.7482378035565
 20
708.9054181928159
 30
0.0
 11
-633.5934743270373
 21
707.0928026187439
 31
0.0
  0
LINE
  5
37F
330
A9
100
AcDbEntity
  8
0
  6
CONTINUOUS
 62
     7
100
AcDbLine
 10
-620.9640256129987
 20
701.2035939651196
 30
0.0
 11
-633.5934743270373
 21
707.0928026187439
 31
0.0
  0
LINE
  5
380
330
A9
100
AcDbEntity
  8
0
  6
CONTINUOUS
 62
     7
100
AcDbLine
 10
-616.231622446694
 20
701.2035939651205
 30
0.0
 11
-632.7482378035565
 21
708.9054181928159
 31
0.0
  0
ENDBLK
  5
AB
330
A9
100
AcDbEntity
  8
0
100
AcDbBlockEnd
  0
BLOCK
  5
AF
330
AC
100
AcDbEntity
  8
0
100
AcDbBlockBegin
  2
CM06100A01100_MANIGLIA__28
 70
     0
 10
-636.0075537659468
 20
699.2035939651187
 30
0.0
  3
CM06100A01100_MANIGLIA__28
  1

  0
INSERT
  5
AD
330
AC
100
AcDbEntity
  8
0
100
AcDbBlockReference
  2
PX000466_1__26
 10
-636.0075537659468
 20
699.2035939651187
 30
0.0
  0
INSERT
  5
AE
330
AC
100
AcDbEntity
  8
0
100
AcDbBlockReference
  2
PX000467_1__27
 10
-633.5934743270373
 20
701.2035939651196
 30
0.0
  0
ENDBLK
  5
B0
330
AC
100
AcDbEntity
  8
0
100
AcDbBlockEnd
  0
BLOCK
  5
B2
330
B1
100
AcDbEntity
  8
0
100
AcDbBlockBegin
  2
PX001595_PX001297_1187__29
 70
     0
 10
-1535.00755376595
 20
653.203593964975
 30
0.0
  3
PX001595_PX001297_1187__29
  1

  0
LINE
  5
381
330
B1
100
AcDbEntity
  8
0
  6
CONTINUOUS
 62
     7
100
AcDbLine
 10
-1533.00755376595
 20
699.203593964975
 30
0.0
 11
-636.0075537659468
 21
699.2035939651196
 31
0.0
  0
LINE
  5
382
330
B1
100
AcDbEntity
  8
0
  6
CONTINUOUS
 62
     7
100
AcDbLine
 10
-602.0075537659377
 20
653.203593965125
 30
0.0
 11
-600.0075537659377
 21
653.203593965126
 31
0.0
  0
LINE
  5
383
330
B1
100
AcDbEntity
  8
0
  6
CONTINUOUS
 62
     7
100
AcDbLine
 10
-602.0075537659377
 20
653.203593965125
 30
0.0
 11
-603.0075537659377
 21
653.203593965125
 31
0.0
  0
LINE
  5
384
330
B1
100
AcDbEntity
  8
0
  6
CONTINUOUS
 62
     7
100
AcDbLine
 10
-633.0075537659377
 20
653.2035939651196
 30
0.0
 11
-634.0075537659395
 21
653.2035939651196
 31
0.0
  0
LINE
  5
385
330
B1
100
AcDbEntity
  8
0
  6
CONTINUOUS
 62
     7
100
AcDbLine
 10
-627.0075537659395
 20
653.2035939651214
 30
0.0
 11
-633.0075537659377
 21
653.2035939651196
 31
0.0
  0
LINE
  5
386
330
B1
100
AcDbEntity
  8
0
  6
CONTINUOUS
 62
     7
100
AcDbLine
 10
-634.0075537659395
 20
653.2035939651196
 30
0.0
 11
-636.0075537659377
 21
653.2035939651187
 31
0.0
  0
LINE
  5
387
330
B1
100
AcDbEntity
  8
0
  6
CONTINUOUS
 62
     7
100
AcDbLine
 10
-609.0075537659377
 20
653.2035939651241
 30
0.0
 11
-627.0075537659395
 21
653.2035939651214
 31
0.0
  0
LINE
  5
388
330
B1
100
AcDbEntity
  8
0
  6
CONTINUOUS
 62
     7
100
AcDbLine
 10
-603.0075537659377
 20
653.203593965125
 30
0.0
 11
-609.0075537659377
 21
653.2035939651241
 31
0.0
  0
LINE
  5
389
330
B1
100
AcDbEntity
  8
0
  6
CONTINUOUS
 62
     7
100
AcDbLine
 10
-636.0075537659468
 20
699.2035939651196
 30
0.0
 11
-634.0075537659468
 21
699.2035939651187
 31
0.0
  0
LINE
  5
38A
330
B1
100
AcDbEntity
  8
0
  6
CONTINUOUS
 62
     7
100
AcDbLine
 10
-634.0075537659468
 20
699.2035939651187
 30
0.0
 11
-633.0075537659468
 21
699.2035939651187
 31
0.0
  0
LINE
  5
38B
330
B1
100
AcDbEntity
  8
0
  6
CONTINUOUS
 62
     7
100
AcDbLine
 10
-520.0075537659486
 20
697.2035939651469
 30
0.0
 11
-520.0075537659413
 21
655.2035939651469
 31
0.0
  0
LINE
  5
38C
330
B1
100
AcDbEntity
  8
0
  6
CONTINUOUS
 62
     7
100
AcDbLine
 10
-603.0075537659468
 20
699.2035939651241
 30
0.0
 11
-602.0075537659468
 21
699.2035939651241
 31
0.0
  0
LINE
  5
38D
330
B1
100
AcDbEntity
  8
0
  6
CONTINUOUS
 62
     7
100
AcDbLine
 10
-633.0075537659468
 20
699.2035939651187
 30
0.0
 11
-627.0075537659468
 21
699.2035939651205
 31
0.0
  0
LINE
  5
38E
330
B1
100
AcDbEntity
  8
0
  6
CONTINUOUS
 62
     7
100
AcDbLine
 10
-627.0075537659468
 20
699.2035939651205
 30
0.0
 11
-609.0075537659468
 21
699.2035939651232
 31
0.0
  0
LINE
  5
38F
330
B1
100
AcDbEntity
  8
0
  6
CONTINUOUS
 62
     7
100
AcDbLine
 10
-609.0075537659468
 20
699.2035939651232
 30
0.0
 11
-603.0075537659468
 21
699.2035939651241
 31
0.0
  0
LINE
  5
390
330
B1
100
AcDbEntity
  8
0
  6
CONTINUOUS
 62
     7
100
AcDbLine
 10
-600.0075537659468
 20
699.203593965125
 30
0.0
 11
-602.0075537659468
 21
699.2035939651241
 31
0.0
  0
LINE
  5
391
330
B1
100
AcDbEntity
  8
0
  6
CONTINUOUS
 62
     7
100
AcDbLine
 10
-600.0075537659468
 20
699.203593965125
 30
0.0
 11
-522.0075537659504
 21
699.203593965146
 31
0.0
  0
LINE
  5
392
330
B1
100
AcDbEntity
  8
0
  6
CONTINUOUS
 62
     7
100
AcDbLine
 10
-1535.00755376595
 20
697.203593964975
 30
0.0
 11
-1535.007553765947
 21
689.203593964975
 31
0.0
  0
LINE
  5
393
330
B1
100
AcDbEntity
  8
0
  6
CONTINUOUS
 62
     7
100
AcDbLine
 10
-1535.007553765943
 20
671.2035939649741
 30
0.0
 11
-1535.007553765943
 21
655.203593964975
 31
0.0
  0
LINE
  5
394
330
B1
100
AcDbEntity
  8
0
  6
CONTINUOUS
 62
     7
100
AcDbLine
 10
-1535.007553765947
 20
689.203593964975
 30
0.0
 11
-1535.007553765943
 21
671.2035939649741
 31
0.0
  0
LINE
  5
395
330
B1
100
AcDbEntity
  8
0
  6
CONTINUOUS
 62
     7
100
AcDbLine
 10
-1497.007553765941
 20
653.2035939649804
 30
0.0
 11
-1533.007553765941
 21
653.203593964975
 31
0.0
  0
LINE
  5
396
330
B1
100
AcDbEntity
  8
0
  6
CONTINUOUS
 62
     7
100
AcDbLine
 10
-522.0075537659413
 20
653.203593965146
 30
0.0
 11
-600.0075537659377
 21
653.203593965126
 31
0.0
  0
LINE
  5
397
330
B1
100
AcDbEntity
  8
0
  6
CONTINUOUS
 62
     7
100
AcDbLine
 10
-636.0075537659377
 20
653.2035939651187
 30
0.0
 11
-1497.007553765941
 21
653.2035939649804
 31
0.0
  0
ARC
  5
398
330
B1
100
AcDbEntity
  8
0
  6
CONTINUOUS
 62
     7
100
AcDbCircle
 10
-1533.00755376595
 20
697.203593964975
 30
0.0
 40
2.0
100
AcDbArc
 50
90.0
 51
180.0
  0
ARC
  5
399
330
B1
100
AcDbEntity
  8
0
  6
CONTINUOUS
 62
     7
100
AcDbCircle
 10
-522.0075537659413
 20
655.203593965146
 30
0.0
 40
2.0
100
AcDbArc
 50
270.0
 51
0.00000000002606
  0
ARC
  5
39A
330
B1
100
AcDbEntity
  8
0
  6
CONTINUOUS
 62
     7
100
AcDbCircle
 10
-522.0075537659486
 20
697.203593965146
 30
0.0
 40
2.0
100
AcDbArc
 50
0.00000000002606
 51
90.00000000005213
  0
ARC
  5
39B
330
B1
100
AcDbEntity
  8
0
  6
CONTINUOUS
 62
     7
100
AcDbCircle
 10
-1533.007553765943
 20
655.203593964975
 30
0.0
 40
2.0
100
AcDbArc
 50
180.0
 51
270.0000000000521
  0
ENDBLK
  5
B3
330
B1
100
AcDbEntity
  8
0
100
AcDbBlockEnd
  0
BLOCK
  5
B6
330
B4
100
AcDbEntity
  8
0
100
AcDbBlockBegin
  2
PX001681_PANNELLO_1015__30
 70
     0
 10
-1535.00755376595
 20
653.203593964975
 30
0.0
  3
PX001681_PANNELLO_1015__30
  1

  0
INSERT
  5
B5
330
B4
100
AcDbEntity
  8
0
100
AcDbBlockReference
  2
PX001595_PX001297_1187__29
 10
-1535.00755376595
 20
653.203593964975
 30
0.0
  0
ENDBLK
  5
B7
330
B4
100
AcDbEntity
  8
0
100
AcDbBlockEnd
  0
BLOCK
  5
B9
330
B8
100
AcDbEntity
  8
0
100
AcDbBlockBegin
  2
PX000466_1__31
 70
     0
 10
-636.0075537659377
 20
651.2035939651196
 30
0.0
  3
PX000466_1__31
  1

  0
LINE
  5
39C
330
B8
100
AcDbEntity
  8
0
  6
CONTINUOUS
 62
     7
100
AcDbLine
 10
-602.0075537659377
 20
651.203593965126
 30
0.0
 11
-600.0075537659377
 21
651.2035939651269
 31
0.0
  0
LINE
  5
39D
330
B8
100
AcDbEntity
  8
0
  6
CONTINUOUS
 62
     7
100
AcDbLine
 10
-602.0075537659377
 20
653.203593965125
 30
0.0
 11
-600.0075537659377
 21
653.203593965126
 31
0.0
  0
LINE
  5
39E
330
B8
100
AcDbEntity
  8
0
  6
CONTINUOUS
 62
     7
100
AcDbLine
 10
-600.0075537659377
 20
651.2035939651269
 30
0.0
 11
-600.0075537659377
 21
653.203593965126
 31
0.0
  0
LINE
  5
39F
330
B8
100
AcDbEntity
  8
0
  6
CONTINUOUS
 62
     7
100
AcDbLine
 10
-634.0075537659377
 20
651.2035939651205
 30
0.0
 11
-636.0075537659377
 21
651.2035939651196
 31
0.0
  0
LINE
  5
3A0
330
B8
100
AcDbEntity
  8
0
  6
CONTINUOUS
 62
     7
100
AcDbLine
 10
-636.0075537659377
 20
653.2035939651187
 30
0.0
 11
-636.0075537659377
 21
651.2035939651196
 31
0.0
  0
LINE
  5
3A1
330
B8
100
AcDbEntity
  8
0
  6
CONTINUOUS
 62
     7
100
AcDbLine
 10
-602.0075537659377
 20
651.203593965126
 30
0.0
 11
-634.0075537659377
 21
651.2035939651205
 31
0.0
  0
LINE
  5
3A2
330
B8
100
AcDbEntity
  8
0
  6
CONTINUOUS
 62
     7
100
AcDbLine
 10
-602.0075537659377
 20
653.203593965125
 30
0.0
 11
-603.0075537659377
 21
653.203593965125
 31
0.0
  0
LINE
  5
3A3
330
B8
100
AcDbEntity
  8
0
  6
CONTINUOUS
 62
     1
100
AcDbLine
 10
-602.0075537659377
 20
651.203593965126
 30
0.0
 11
-602.0075537659377
 21
653.203593965125
 31
0.0
  0
LINE
  5
3A4
330
B8
100
AcDbEntity
  8
0
  6
CONTINUOUS
 62
     7
100
AcDbLine
 10
-633.0075537659377
 20
653.2035939651196
 30
0.0
 11
-634.0075537659395
 21
653.2035939651196
 31
0.0
  0
LINE
  5
3A5
330
B8
100
AcDbEntity
  8
0
  6
CONTINUOUS
 62
     7
100
AcDbLine
 10
-627.0075537659395
 20
653.2035939651214
 30
0.0
 11
-633.0075537659377
 21
653.2035939651196
 31
0.0
  0
LINE
  5
3A6
330
B8
100
AcDbEntity
  8
0
  6
CONTINUOUS
 62
     7
100
AcDbLine
 10
-634.0075537659395
 20
653.2035939651196
 30
0.0
 11
-636.0075537659377
 21
653.2035939651187
 31
0.0
  0
LINE
  5
3A7
330
B8
100
AcDbEntity
  8
0
  6
CONTINUOUS
 62
     1
100
AcDbLine
 10
-634.0075537659377
 20
651.2035939651205
 30
0.0
 11
-634.0075537659395
 21
653.2035939651196
 31
0.0
  0
LINE
  5
3A8
330
B8
100
AcDbEntity
  8
0
  6
CONTINUOUS
 62
     7
100
AcDbLine
 10
-609.0075537659377
 20
653.2035939651241
 30
0.0
 11
-627.0075537659395
 21
653.2035939651214
 31
0.0
  0
LINE
  5
3A9
330
B8
100
AcDbEntity
  8
0
  6
CONTINUOUS
 62
     7
100
AcDbLine
 10
-603.0075537659377
 20
653.203593965125
 30
0.0
 11
-609.0075537659377
 21
653.2035939651241
 31
0.0
  0
ENDBLK
  5
BA
330
B8
100
AcDbEntity
  8
0
100
AcDbBlockEnd
  0
BLOCK
  5
BC
330
BB
100
AcDbEntity
  8
0
100
AcDbBlockBegin
  2
PX000467_1__32
 70
     0
 10
-633.5934743270263
 20
643.5017697374224
 30
0.0
  3
PX000467_1__32
  1

  0
LINE
  5
3AA
330
BB
100
AcDbEntity
  8
0
  6
CONTINUOUS
 62
     7
100
AcDbLine
 10
-633.5934743270263
 20
645.3143853114934
 30
0.0
 11
-620.9640256129896
 21
651.2035939651232
 31
0.0
  0
LINE
  5
3AB
330
BB
100
AcDbEntity
  8
0
  6
CONTINUOUS
 62
     7
100
AcDbLine
 10
-632.7482378035475
 20
643.5017697374224
 30
0.0
 11
-633.5934743270263
 21
645.3143853114934
 31
0.0
  0
LINE
  5
3AC
330
BB
100
AcDbEntity
  8
0
  6
CONTINUOUS
 62
     7
100
AcDbLine
 10
-632.7482378035475
 20
643.5017697374224
 30
0.0
 11
-616.2316224466867
 21
651.2035939651241
 31
0.0
  0
ENDBLK
  5
BD
330
BB
100
AcDbEntity
  8
0
100
AcDbBlockEnd
  0
BLOCK
  5
C1
330
BE
100
AcDbEntity
  8
0
100
AcDbBlockBegin
  2
CM06100A01100_MANIGLIA__33
 70
     0
 10
-636.0075537659377
 20
643.5017697374224
 30
0.0
  3
CM06100A01100_MANIGLIA__33
  1

  0
INSERT
  5
BF
330
BE
100
AcDbEntity
  8
0
100
AcDbBlockReference
  2
PX000466_1__31
 10
-636.0075537659377
 20
651.2035939651196
 30
0.0
  0
INSERT
  5
C0
330
BE
100
AcDbEntity
  8
0
100
AcDbBlockReference
  2
PX000467_1__32
 10
-633.5934743270263
 20
643.5017697374224
 30
0.0
  0
ENDBLK
  5
C2
330
BE
100
AcDbEntity
  8
0
100
AcDbBlockEnd
  0
BLOCK
  5
C7
330
C3
100
AcDbEntity
  8
0
100
AcDbBlockBegin
  2
PANNELLO__34
 70
     0
 10
-1535.00755376595
 20
643.5017697374224
 30
0.0
  3
PANNELLO__34
  1

  0
INSERT
  5
C4
330
C3
100
AcDbEntity
  8
0
100
AcDbBlockReference
  2
CM06100A01100_MANIGLIA__28
 10
-636.0075537659468
 20
699.2035939651187
 30
0.0
  0
INSERT
  5
C5
330
C3
100
AcDbEntity
  8
0
100
AcDbBlockReference
  2
PX001681_PANNELLO_1015__30
 10
-1535.00755376595
 20
653.203593964975
 30
0.0
  0
INSERT
  5
C6
330
C3
100
AcDbEntity
  8
0
100
AcDbBlockReference
  2
CM06100A01100_MANIGLIA__33
 10
-636.0075537659377
 20
643.5017697374224
 30
0.0
  0
ENDBLK
  5
C8
330
C3
100
AcDbEntity
  8
0
100
AcDbBlockEnd
  0
BLOCK
  5
CC
330
C9
100
AcDbEntity
  8
0
100
AcDbBlockBegin
  2
PX001593_GRUPPO_ANTA_L__35
 70
     0
 10
-1535.00755376595
 20
643.5017697374224
 30
0.0
  3
PX001593_GRUPPO_ANTA_L__35
  1

  0
INSERT
  5
CA
330
C9
100
AcDbEntity
  8
0
100
AcDbBlockReference
  2
FRESATE_CERNIERE_TELAI__25
 10
-1535.007553765947
 20
653.203593964975
 30
0.0
  0
INSERT
  5
CB
330
C9
100
AcDbEntity
  8
0
100
AcDbBlockReference
  2
PANNELLO__34
 10
-1535.00755376595
 20
643.5017697374224
 30
0.0
  0
ENDBLK
  5
CD
330
C9
100
AcDbEntity
  8
0
100
AcDbBlockEnd
  0
BLOCK
  5
D3
330
CE
100
AcDbEntity
  8
0
100
AcDbBlockBegin
  2
TKKZ0TEC43200_TECNICO___36
 70
     0
 10
-1574.507553791913
 20
643.5017697374224
 30
0.0
  3
TKKZ0TEC43200_TECNICO___36
  1

  0
INSERT
  5
CF
330
CE
100
AcDbEntity
  8
0
100
AcDbBlockReference
  2
00S0060A00100_CERNIERA__15
 10
-1538.507553785186
 20
659.3376715470904
 30
0.0
  0
INSERT
  5
D0
330
CE
100
AcDbEntity
  8
0
100
AcDbBlockReference
  2
TELAIO_BATTENTE_L1000X__21
 10
-1573.507553765567
 20
653.203593965136
 30
0.0
  0
INSERT
  5
D1
330
CE
100
AcDbEntity
  8
0
100
AcDbBlockReference
  2
STIPITE_MONTANTE_SX_1___22
 10
-1574.507553791913
 20
653.203593965136
 30
0.0
  0
INSERT
  5
D2
330
CE
100
AcDbEntity
  8
0
100
AcDbBlockReference
  2
PX001593_GRUPPO_ANTA_L__35
 10
-1535.00755376595
 20
643.5017697374224
 30
0.0
  0
ENDBLK
  5
D4
330
CE
100
AcDbEntity
  8
0
100
AcDbBlockEnd
  0
BLOCK
  5
D7
330
D5
100
AcDbEntity
  8
0
100
AcDbBlockBegin
  2
GEN11
 70
     0
 10
-1027.507499999998
 20
672.4379000000017
 30
0.0
  3
GEN11
  1

  0
INSERT
  5
D6
330
D5
100
AcDbEntity
  8
0
100
AcDbBlockReference
  2
TKKZ0TEC43200_TECNICO___36
 10
-1574.507553791913
 20
643.5017697374224
 30
0.0
  0
MTEXT
  5
3AE
330
D5
100
AcDbEntity
  8
1
 62
     3
100
AcDbMText
 10
-1030.007554071932
 20
593.2896526711766
 30
0.0
 40
5.0
 41
0.0
 71
     5
 72
     1
  1
APERTURA 0\U+00b0
  7
CONVERTER_13
1001
ACAD
1000
MTEXTBEGIN
1070
    44
1040
0.96038415366146
1000
MTEXTEND
  0
DIMENSION
  5
3BB
330
D5
100
AcDbEntity
  8
1
100
AcDbDimension
  2
*D177
 10
-1538.507553785188
 20
635.9500112793571
 30
0.0
 11
-1554.837965146713
 21
640.5750112793571
 31
0.0
 70
    32
  1
<>
 53
0.00013888888889
  3
ME10_DIM_10
100
AcDbAlignedDimension
 13
-1535.007553765943
 23
655.203593964975
 33
0.0
 14
-1538.507553785186
 24
655.2035939654452
 34
0.0
100
AcDbRotatedDimension
  0
DIMENSION
  5
3C6
330
D5
100
AcDbEntity
  8
1
100
AcDbDimension
  2
*D178
 10
-1335.436118931001
 20
653.203593965146
 30
0.0
 11
-1339.186118931001
 21
676.203593965146
 31
0.0
 70
    32
  1
SP
 53
90.0
  3
ME10_DIM_11
100
AcDbAlignedDimension
 13
-522.0075537659504
 23
699.203593965146
 33
0.0
 14
-522.0075537659413
 24
653.203593965146
 34
0.0
 50
90.0
100
AcDbRotatedDimension
  0
ENDBLK
  5
D8
330
D5
100
AcDbEntity
  8
0
100
AcDbBlockEnd
  0
BLOCK
  5
DA
330
D9
100
AcDbEntity
  8
0
100
AcDbBlockBegin
  2
CORPO_REG_Y_CERN__S006__37
 70
     0
 10
53.48784621480809
 20
659.3376715470922
 30
0.0
  3
CORPO_REG_Y_CERN__S006__37
  1

  0
LINE
  5
3C7
330
D9
100
AcDbEntity
  8
0
  6
CONTINUOUS
 62
     7
100
AcDbLine
 10
53.86284624077007
 20
661.5310989791601
 30
0.0
 11
53.8628462407778
 21
665.503593964906
 31
0.0
  0
LINE
  5
3C8
330
D9
100
AcDbEntity
  8
0
  6
CONTINUOUS
 62
     7
100
AcDbLine
 10
53.86284624076779
 20
660.503593964906
 30
0.0
 11
53.86284624077007
 21
661.5310989791601
 31
0.0
  0
ARC
  5
3C9
330
D9
100
AcDbEntity
  8
0
  6
CONTINUOUS
 62
     7
100
AcDbCircle
 10
51.8628462407778
 20
665.5035939649101
 30
0.0
 40
2.0
100
AcDbArc
 50
359.9999999998827
 51
35.65908897235948
  0
ARC
  5
3CA
330
D9
100
AcDbEntity
  8
0
  6
CONTINUOUS
 62
     7
100
AcDbCircle
 10
51.86284624076779
 20
660.5035939649101
 30
0.0
 40
2.000000000000334
100
AcDbArc
 50
324.3409110281358
 51
359.9999999998827
  0
ENDBLK
  5
DB
330
D9
100
AcDbEntity
  8
0
100
AcDbBlockEnd
  0
BLOCK
  5
DE
330
DC
100
AcDbEntity
  8
0
100
AcDbBlockBegin
  2
PD00700A24600_CORPO_RE__38
 70
     0
 10
53.48784621480809
 20
659.3376715470922
 30
0.0
  3
PD00700A24600_CORPO_RE__38
  1

  0
INSERT
  5
DD
330
DC
100
AcDbEntity
  8
0
100
AcDbBlockReference
  2
CORPO_REG_Y_CERN__S006__37
 10
53.48784621480809
 20
659.3376715470922
 30
0.0
  0
ENDBLK
  5
DF
330
DC
100
AcDbEntity
  8
0
100
AcDbBlockEnd
  0
BLOCK
  5
E1
330
E0
100
AcDbEntity
  8
0
100
AcDbBlockBegin
  2
PD02100A09500_SPINA_Ø3__39
 70
     0
 10
61.12010222366689
 20
671.6833402186371
 30
0.0
  3
PD02100A09500_SPINA_Ø3__39
  1

  0
CIRCLE
  5
3CB
330
E0
100
AcDbEntity
  8
0
  6
CONTINUOUS
 62
     7
100
AcDbCircle
 10
63.12010222366689
 20
673.6833402186371
 30
0.0
 40
2.000000000000102
  0
ENDBLK
  5
E2
330
E0
100
AcDbEntity
  8
0
100
AcDbBlockEnd
  0
BLOCK
  5
E4
330
E3
100
AcDbEntity
  8
0
100
AcDbBlockBegin
  2
BIELLA_INTERNA_PORTA_S__40
 70
     0
 10
53.48784621480809
 20
663.5901667729772
 30
0.0
  3
BIELLA_INTERNA_PORTA_S__40
  1

  0
LINE
  5
3CC
330
E3
100
AcDbEntity
  8
0
  6
CONTINUOUS
 62
     1
100
AcDbLine
 10
59.01992158270787
 20
676.918119600984
 30
0.0
 11
53.48784621480809
 21
678.356287096442
 31
0.0
  0
LINE
  5
3CD
330
E3
100
AcDbEntity
  8
0
  6
CONTINUOUS
 62
     1
100
AcDbLine
 10
66.64703217435681
 20
664.8873488368922
 30
0.0
 11
66.21273921540978
 21
664.4406663976761
 31
0.0
  0
LINE
  5
3CE
330
E3
100
AcDbEntity
  8
0
  6
CONTINUOUS
 62
     1
100
AcDbLine
 10
69.10451528906287
 20
668.4816026607309
 30
0.0
 11
69.85380045767988
 21
666.970847710495
 31
0.0
  0
LINE
  5
3CF
330
E3
100
AcDbEntity
  8
0
  6
CONTINUOUS
 62
     1
100
AcDbLine
 10
60.23663619201579
 20
678.3583187708591
 30
0.0
 11
59.99190838507275
 21
677.4169453384211
 31
0.0
  0
LINE
  5
3D0
330
E3
100
AcDbEntity
  8
0
  6
CONTINUOUS
 62
     7
100
AcDbLine
 10
53.48784621480809
 20
680.112794213333
 30
0.0
 11
60.23663619201579
 21
678.3583187708591
 31
0.0
  0
LINE
  5
3D1
330
E3
100
AcDbEntity
  8
0
  6
CONTINUOUS
 62
     7
100
AcDbLine
 10
53.48784621480809
 20
675.270168431246
 30
0.0
 11
54.32977016376481
 21
674.9059854322209
 31
0.0
  0
LINE
  5
3D2
330
E3
100
AcDbEntity
  8
0
  6
CONTINUOUS
 62
     7
100
AcDbLine
 10
71.04334022692683
 20
668.3984860947239
 30
0.0
 11
71.1222785428381
 21
668.2393257956533
 31
0.0
  0
LINE
  5
3D3
330
E3
100
AcDbEntity
  8
0
  6
CONTINUOUS
 62
     7
100
AcDbLine
 10
66.01877138446889
 20
664.6715233740711
 30
0.0
 11
63.90939476435187
 21
666.7223929258071
 31
0.0
  0
ARC
  5
3D4
330
E3
100
AcDbEntity
  8
0
  6
CONTINUOUS
 62
     1
100
AcDbCircle
 10
63.12010218704018
 20
673.6833402241537
 30
0.0
 40
3.049999986062322
100
AcDbArc
 50
60.65121638132017
 51
102.387323590037
  0
ARC
  5
3D5
330
E3
100
AcDbEntity
  8
0
  6
CONTINUOUS
 62
     7
100
AcDbCircle
 10
63.1201022250084
 20
673.6833402184925
 30
0.0
 40
4.749999999663367
100
AcDbArc
 50
60.65121708271807
 51
102.3873242712281
  0
ARC
  5
3D6
330
E3
100
AcDbEntity
  8
0
  6
CONTINUOUS
 62
     1
100
AcDbCircle
 10
63.96938899248744
 20
661.7824773434822
 30
0.0
 40
4.100000000000151
100
AcDbArc
 50
38.10542870606764
 51
49.22549462521005
  0
ARC
  5
3D7
330
E3
100
AcDbEntity
  8
0
  6
CONTINUOUS
 62
     7
100
AcDbCircle
 10
61.24305878965879
 20
682.2296381267051
 30
0.0
 40
3.999999999999322
100
AcDbArc
 50
255.4274533950253
 51
282.3873242948756
  0
ARC
  5
3D8
330
E3
100
AcDbEntity
  8
0
  6
CONTINUOUS
 62
     7
100
AcDbCircle
 10
52.2256164663404
 20
670.0415700287413
 30
0.0
 40
5.299999999999471
100
AcDbArc
 50
61.84810006309318
 51
66.60860007169407
  0
ARC
  5
3D9
330
E3
100
AcDbEntity
  8
0
  6
CONTINUOUS
 62
     7
100
AcDbCircle
 10
64.97313106703132
 20
663.5960530994016
 30
0.0
 40
1.499999995049446
100
AcDbArc
 50
34.2687594030044
 51
45.80571847401688
  0
ARC
  5
3DA
330
E3
100
AcDbEntity
  8
0
  6
CONTINUOUS
 62
     7
100
AcDbCircle
 10
64.97313107246646
 20
663.596053087414
 30
0.0
 40
1.499999997307801
100
AcDbArc
 50
359.775158773113
 51
34.26875989830762
  0
SPLINE
  5
3DB
330
E3
100
AcDbEntity
  8
0
  6
CONTINUOUS
 62
     7
100
AcDbSpline
210
0.0
220
0.0
230
1.0
 70
     8
 71
     3
 72
    11
 73
     7
 74
     5
 42
0.000000001
 43
0.0000000001
 44
0.00000001
 40
0.0
 40
0.0
 40
0.0
 40
0.0
 40
0.2694848446472943
 40
0.5461105950085867
 40
0.8359807585692658
 40
1.133848604727734
 40
1.133848604727734
 40
1.133848604727734
 40
1.133848604727734
 10
66.6370444071431
 20
663.754091659956
 30
0.0
 10
66.6423009063769
 20
663.8437732087261
 30
0.0
 10
66.652953178389
 20
664.0255127207565
 30
0.0
 10
66.65876100216153
 20
664.304164773824
 30
0.0
 10
66.65790328065465
 20
664.5923274119316
 30
0.0
 10
66.65068860621254
 20
664.7881202740816
 30
0.0
 10
66.64703217435681
 20
664.8873488368922
 30
0.0
 11
66.6370444071431
 21
663.754091659956
 31
0.0
 11
66.65114387888099
 21
664.0232074091949
 31
0.0
 11
66.65759651987582
 21
664.299757891667
 31
0.0
 11
66.65629817562171
 21
664.5896251478096
 31
0.0
 11
66.64703217435681
 21
664.8873488368922
 31
0.0
  0
ENDBLK
  5
E5
330
E3
100
AcDbEntity
  8
0
100
AcDbBlockEnd
  0
BLOCK
  5
E8
330
E6
100
AcDbEntity
  8
0
100
AcDbBlockBegin
  2
PD05300A09100_BIELLA_I__41
 70
     0
 10
53.48784621480809
 20
663.5901667729772
 30
0.0
  3
PD05300A09100_BIELLA_I__41
  1

  0
INSERT
  5
E7
330
E6
100
AcDbEntity
  8
0
100
AcDbBlockReference
  2
BIELLA_INTERNA_PORTA_S__40
 10
53.48784621480809
 20
663.5901667729772
 30
0.0
  0
ENDBLK
  5
E9
330
E6
100
AcDbEntity
  8
0
100
AcDbBlockEnd
  0
BLOCK
  5
EB
330
EA
100
AcDbEntity
  8
0
100
AcDbBlockBegin
  2
BIELLA_INTERNA_MONTANT__42
 70
     0
 10
53.48784621480809
 20
661.5310989791601
 30
0.0
  3
BIELLA_INTERNA_MONTANT__42
  1

  0
LINE
  5
3DC
330
EA
100
AcDbEntity
  8
0
  6
CONTINUOUS
 62
     7
100
AcDbLine
 10
75.19502171634895
 20
672.312068969165
 30
0.0
 11
75.13185446017269
 21
672.3619242825371
 31
0.0
  0
LINE
  5
3DD
330
EA
100
AcDbEntity
  8
0
  6
CONTINUOUS
 62
     1
100
AcDbLine
 10
64.61498277253804
 20
676.34187966341
 30
0.0
 11
73.96651999091682
 21
671.083567243732
 31
0.0
  0
LINE
  5
3DE
330
EA
100
AcDbEntity
  8
0
  6
CONTINUOUS
 62
     7
100
AcDbLine
 10
74.97655573781276
 20
672.4659492757019
 30
0.0
 11
65.44819489991687
 21
677.8236885726578
 31
0.0
  0
LINE
  5
3DF
330
EA
100
AcDbEntity
  8
0
  6
CONTINUOUS
 62
     1
100
AcDbLine
 10
61.63619943280173
 20
676.5747987569689
 30
0.0
 11
60.95132120849075
 21
677.9093180825621
 31
0.0
  0
LINE
  5
3E0
330
EA
100
AcDbEntity
  8
0
  6
CONTINUOUS
 62
     1
100
AcDbLine
 10
64.7130077411257
 20
676.5162101450392
 30
0.0
 11
65.44819489991687
 21
677.8236885726578
 31
0.0
  0
LINE
  5
3E1
330
EA
100
AcDbEntity
  8
0
  6
CONTINUOUS
 62
     1
100
AcDbLine
 10
61.63619943280173
 20
676.5747987569689
 30
0.0
 11
61.72751652137094
 21
676.396862847017
 31
0.0
  0
LINE
  5
3E2
330
EA
100
AcDbEntity
  8
0
  6
CONTINUOUS
 62
     1
100
AcDbLine
 10
56.08635108259796
 20
666.8428815923812
 30
0.0
 11
56.03975023267185
 21
666.9748845353761
 31
0.0
  0
LINE
  5
3E3
330
EA
100
AcDbEntity
  8
0
  6
CONTINUOUS
 62
     7
100
AcDbLine
 10
56.76265404465812
 20
666.943893969345
 30
0.0
 11
55.62525437156774
 21
666.992653789282
 31
0.0
  0
LINE
  5
3E4
330
EA
100
AcDbEntity
  8
0
  6
CONTINUOUS
 62
     7
100
AcDbLine
 10
68.99036589988009
 20
668.4864961944672
 30
0.0
 11
71.27165124953308
 21
668.3886985023482
 31
0.0
  0
LINE
  5
3E5
330
EA
100
AcDbEntity
  8
0
  6
CONTINUOUS
 62
     7
100
AcDbLine
 10
62.82005287064976
 20
666.684215965649
 30
0.0
 11
60.55390505821606
 21
666.7813647182561
 31
0.0
  0
LINE
  5
3E6
330
EA
100
AcDbEntity
  8
0
  6
CONTINUOUS
 62
     7
100
AcDbLine
 10
53.90926746588912
 20
661.986556113493
 30
0.0
 11
54.06238549634509
 21
665.5582755689861
 31
0.0
  0
LINE
  5
3E7
330
EA
100
AcDbEntity
  8
0
  6
CONTINUOUS
 62
     7
100
AcDbLine
 10
60.95132120849075
 20
677.9093180825621
 30
0.0
 11
53.48784621480809
 21
674.079046510446
 31
0.0
  0
LINE
  5
3E8
330
EA
100
AcDbEntity
  8
0
  6
CONTINUOUS
 62
     1
100
AcDbLine
 10
53.48784621480809
 20
672.1682461549881
 30
0.0
 11
61.72751652137094
 21
676.396862847017
 31
0.0
  0
LINE
  5
3E9
330
EA
100
AcDbEntity
  8
0
  6
CONTINUOUS
 62
     7
100
AcDbLine
 10
56.76265404465812
 20
666.943893969345
 30
0.0
 11
60.55390505821606
 21
666.7813647182561
 31
0.0
  0
LINE
  5
3EA
330
EA
100
AcDbEntity
  8
0
  6
CONTINUOUS
 62
     7
100
AcDbLine
 10
54.2311678241299
 20
666.1879483416301
 30
0.0
 11
56.08635108259796
 21
666.8428815923812
 31
0.0
  0
ARC
  5
3EB
330
EA
100
AcDbEntity
  8
0
  6
CONTINUOUS
 62
     7
100
AcDbCircle
 10
74.38840600906678
 20
671.4199665334322
 30
0.0
 40
1.200000000229359
100
AcDbArc
 50
51.71742195634149
 51
60.65121707208768
  0
ARC
  5
3EC
330
EA
100
AcDbEntity
  8
0
  6
CONTINUOUS
 62
     7
100
AcDbCircle
 10
63.12010222186336
 20
673.6833402170687
 30
0.0
 40
4.750000000379512
100
AcDbArc
 50
102.3873242304907
 51
117.166993060761
  0
ARC
  5
3ED
330
EA
100
AcDbEntity
  8
0
  6
CONTINUOUS
 62
     1
100
AcDbCircle
 10
63.12010222564322
 20
673.6833402184284
 30
0.0
 40
3.049999999935409
100
AcDbArc
 50
102.3873242752602
 51
117.1669930837673
  0
ARC
  5
3EE
330
EA
100
AcDbEntity
  8
0
  6
CONTINUOUS
 62
     1
100
AcDbCircle
 10
63.12010218707928
 20
673.6833402244188
 30
0.0
 40
3.049999985812067
100
AcDbArc
 50
60.65121637951943
 51
102.3873235918228
  0
ARC
  5
3EF
330
EA
100
AcDbEntity
  8
0
  6
CONTINUOUS
 62
     7
100
AcDbCircle
 10
63.12010222504796
 20
673.6833402187572
 30
0.0
 40
4.749999999413286
100
AcDbArc
 50
60.65121708156928
 51
102.3873242723789
  0
ARC
  5
3F0
330
EA
100
AcDbEntity
  8
0
  6
CONTINUOUS
 62
     7
100
AcDbCircle
 10
56.68555965170071
 20
665.1455457120342
 30
0.0
 40
1.799999999999581
100
AcDbArc
 50
87.54525835714628
 51
109.4445026553698
  0
ARC
  5
3F1
330
EA
100
AcDbEntity
  8
0
  6
CONTINUOUS
 62
     7
100
AcDbCircle
 10
68.8618752449529
 20
665.4892490989491
 30
0.0
 40
2.999999999999223
100
AcDbArc
 50
87.54525835718121
 51
125.0197418880753
  0
ARC
  5
3F2
330
EA
100
AcDbEntity
  8
0
  6
CONTINUOUS
 62
     7
100
AcDbCircle
 10
63.12010222611571
 20
673.683340218598
 30
0.0
 40
7.005552792173881
100
AcDbArc
 50
267.5452583571698
 51
305.0197418880593
  0
ARC
  5
3F3
330
EA
100
AcDbEntity
  8
0
  6
CONTINUOUS
 62
     7
100
AcDbCircle
 10
55.56100904410369
 20
665.4940302415221
 30
0.0
 40
1.50000000000054
100
AcDbArc
 50
87.54525835716535
 51
177.5452583571631
  0
ARC
  5
3F4
330
EA
100
AcDbEntity
  8
0
  6
CONTINUOUS
 62
     7
100
AcDbCircle
 10
50.01284624171422
 20
662.1535939649025
 30
0.0
 40
3.900000000000567
100
AcDbArc
 50
350.8155021403685
 51
357.5452583571206
  0
SPLINE
  5
3F5
330
EA
100
AcDbEntity
  8
0
  6
CONTINUOUS
 62
     1
100
AcDbSpline
210
0.0
220
0.0
230
1.0
 70
    24
 71
     3
 72
    14
 73
    10
 74
     8
 42
0.000000001
 43
0.0000000001
 44
0.00000001
 40
0.0
 40
0.0
 40
0.0
 40
0.0
 40
0.0415058226787666
 40
0.0724510601042155
 40
0.1875521559597513
 40
0.3182760070805895
 40
0.4420262371116411
 40
0.5069391936035857
 40
0.5718521500956749
 40
0.5718521500956749
 40
0.5718521500956749
 40
0.5718521500956749
 10
74.78797354287781
 20
671.9050207956939
 30
0.0
 10
74.79629332761546
 20
671.9160750254199
 30
0.0
 10
74.81081604238531
 20
671.9353708882802
 30
0.0
 10
74.84841061258777
 20
671.9853215815535
 30
0.0
 10
74.90388881316366
 20
672.0590336778938
 30
0.0
 10
74.97796964612833
 20
672.1574624920723
 30
0.0
 10
75.04199033601344
 20
672.242524718455
 30
0.0
 10
75.09281932313174
 20
672.31005955467
 30
0.0
 10
75.11884274782368
 20
672.3446360399163
 30
0.0
 10
75.13185446017269
 20
672.3619242825371
 30
0.0
 11
74.78797354287781
 21
671.9050207956939
 31
0.0
 11
74.81293289709049
 21
671.9381834848718
 31
0.0
 11
74.83154168718875
 21
671.9629083842729
 31
0.0
 11
74.90075725349817
 21
672.0548728755049
 31
0.0
 11
74.97936749885446
 21
672.159319773864
 31
0.0
 11
75.05378418611781
 21
672.2581948267821
 31
0.0
 11
75.09281932313178
 21
672.3100595546696
 31
0.0
 11
75.13185446017269
 21
672.3619242825371
 31
0.0
  0
SPLINE
  5
3F6
330
EA
100
AcDbEntity
  8
0
  6
CONTINUOUS
 62
     1
100
AcDbSpline
210
0.0
220
0.0
230
1.0
 70
    24
 71
     3
 72
    21
 73
    17
 74
    15
 42
0.000000001
 43
0.0000000001
 44
0.00000001
 40
0.0
 40
0.0
 40
0.0
 40
0.0
 40
0.0069823969911354
 40
0.0139522990287078
 40
0.1531538703634193
 40
0.2736735673253769
 40
0.3752647859598177
 40
0.4576809223112898
 40
0.5206753724245479
 40
0.5640015323437158
 40
0.6529817551432117
 40
0.7494502967211959
 40
0.8455882503584278
 40
0.9335767093352962
 40
0.9984896658215664
 40
1.063402622308056
 40
1.063402622308056
 40
1.063402622308056
 40
1.063402622308056
 10
74.43420150985185
 20
671.5512487626679
 30
0.0
 10
74.43538855868552
 20
671.5532507645368
 30
0.0
 10
74.4377605321365
 20
671.5572511857048
 30
0.0
 10
74.4637975969742
 20
671.6011636608994
 30
0.0
 10
74.50913667509849
 20
671.6776296971412
 30
0.0
 10
74.57056193733243
 20
671.781225679286
 30
0.0
 10
74.62233333937715
 20
671.8685400682874
 30
0.0
 10
74.66432510883422
 20
671.9393607443358
 30
0.0
 10
74.69641147330371
 20
671.9934755876184
 30
0.0
 10
74.72961377134045
 20
672.0494724942301
 30
0.0
 10
74.76850686314403
 20
672.1150671355055
 30
0.0
 10
74.81637827260947
 20
672.1958040423658
 30
0.0
 10
74.86408107636258
 20
672.2762565894185
 30
0.0
 10
74.90641924380385
 20
672.3476614784208
 30
0.0
 10
74.94344897683779
 20
672.4101134959765
 30
0.0
 10
74.96552015082027
 20
672.4473373491271
 30
0.0
 10
74.97655573781276
 20
672.4659492757019
 30
0.0
 11
74.43420150985185
 21
671.5512487626679
 31
0.0
 11
74.43776265635285
 21
671.5572547682734
 31
0.0
 11
74.44131743020671
 21
671.5632500261709
 31
0.0
 11
74.51231270438298
 21
671.6829861882325
 31
0.0
 11
74.57377989076488
 21
671.7866528769691
 31
0.0
 11
74.62559321695335
 21
671.8740379725682
 31
0.0
 11
74.66762691054947
 21
671.944929355217
 31
0.0
 11
74.6997551991543
 21
671.9991149051036
 31
0.0
 11
74.72185231036883
 21
672.0363825024151
 31
0.0
 11
74.7672338046639
 21
672.1129200750527
 31
0.0
 11
74.81643447456293
 21
672.1958988289359
 31
0.0
 11
74.86546653874315
 21
672.2785932230148
 31
0.0
 11
74.91034221588188
 21
672.3542777162393
 31
0.0
 11
74.94344897683914
 21
672.4101134959756
 31
0.0
 11
74.97655573781276
 21
672.4659492757019
 31
0.0
  0
SPLINE
  5
3F7
330
EA
100
AcDbEntity
  8
0
  6
CONTINUOUS
 62
     1
100
AcDbSpline
210
0.0
220
0.0
230
1.0
 70
    24
 71
     3
 72
    15
 73
    11
 74
     9
 42
0.000000001
 43
0.0000000001
 44
0.00000001
 40
0.0
 40
0.0
 40
0.0
 40
0.0
 40
0.0070211714080602
 40
0.0140423428155714
 40
0.0380900551829167
 40
0.0585786549482474
 40
0.088059975250895
 40
0.1263810790761777
 40
0.1655756553554005
 40
0.2000000282291194
 40
0.2000000282291194
 40
0.2000000282291194
 40
0.2000000282291194
 10
64.7130077411257
 20
676.5162101450392
 30
0.0
 10
64.71186065777857
 20
676.5141701383374
 30
0.0
 10
64.70956649108402
 20
676.5100901249339
 30
0.0
 10
64.70334353120059
 20
676.4990230303817
 30
0.0
 10
64.69492033122378
 20
676.4840429642627
 30
0.0
 10
64.68282770611208
 20
676.4625370847759
 30
0.0
 10
64.6684031667407
 20
676.4368840605325
 30
0.0
 10
64.65092253985893
 20
676.4057960005696
 30
0.0
 10
64.63263434213307
 20
676.3732717329184
 30
0.0
 10
64.62060685186134
 20
676.351881691169
 30
0.0
 10
64.61498277253804
 20
676.34187966341
 30
0.0
 11
64.7130077411257
 21
676.5162101450392
 31
0.0
 11
64.70956649108342
 21
676.5100901249338
 31
0.0
 11
64.70612524103808
 21
676.5039701048308
 31
0.0
 11
64.69433886145697
 21
676.4830088613924
 31
0.0
 11
64.68429689113282
 21
676.4651499265879
 31
0.0
 11
64.66984736568804
 21
676.4394524663787
 31
0.0
 11
64.65106524334306
 21
676.406049788663
 31
0.0
 11
64.6318550105081
 21
676.3718857466874
 31
0.0
 11
64.61498277253804
 21
676.34187966341
 31
0.0
  0
ENDBLK
  5
EC
330
EA
100
AcDbEntity
  8
0
100
AcDbBlockEnd
  0
BLOCK
  5
EF
330
ED
100
AcDbEntity
  8
0
100
AcDbBlockBegin
  2
PD05300A09200_BIELLA_I__43
 70
     0
 10
53.48784621480809
 20
661.5310989791601
 30
0.0
  3
PD05300A09200_BIELLA_I__43
  1

  0
INSERT
  5
EE
330
ED
100
AcDbEntity
  8
0
100
AcDbBlockReference
  2
BIELLA_INTERNA_MONTANT__42
 10
53.48784621480809
 20
661.5310989791601
 30
0.0
  0
ENDBLK
  5
F0
330
ED
100
AcDbEntity
  8
0
100
AcDbBlockEnd
  0
BLOCK
  5
F4
330
F1
100
AcDbEntity
  8
0
100
AcDbBlockBegin
  2
GFS00600A00100_GRUPPO___44
 70
     0
 10
53.48784621480809
 20
661.5310989791601
 30
0.0
  3
GFS00600A00100_GRUPPO___44
  1

  0
INSERT
  5
F2
330
F1
100
AcDbEntity
  8
0
100
AcDbBlockReference
  2
PD05300A09100_BIELLA_I__41
 10
53.48784621480809
 20
663.5901667729772
 30
0.0
  0
INSERT
  5
F3
330
F1
100
AcDbEntity
  8
0
100
AcDbBlockReference
  2
PD05300A09200_BIELLA_I__43
 10
53.48784621480809
 20
661.5310989791601
 30
0.0
  0
ENDBLK
  5
F5
330
F1
100
AcDbEntity
  8
0
100
AcDbBlockEnd
  0
BLOCK
  5
F9
330
F6
100
AcDbEntity
  8
0
100
AcDbBlockBegin
  2
GFS00600A00200_GRUPPO___45
 70
     0
 10
53.48784621480809
 20
661.5310989791601
 30
0.0
  3
GFS00600A00200_GRUPPO___45
  1

  0
INSERT
  5
F7
330
F6
100
AcDbEntity
  8
0
100
AcDbBlockReference
  2
PD02100A09500_SPINA_Ø3__39
 10
61.12010222366689
 20
671.6833402186371
 30
0.0
  0
INSERT
  5
F8
330
F6
100
AcDbEntity
  8
0
100
AcDbBlockReference
  2
GFS00600A00100_GRUPPO___44
 10
53.48784621480809
 20
661.5310989791601
 30
0.0
  0
ENDBLK
  5
FA
330
F6
100
AcDbEntity
  8
0
100
AcDbBlockEnd
  0
BLOCK
  5
FE
330
FB
100
AcDbEntity
  8
0
100
AcDbBlockBegin
  2
GFS00600A00300_GRUPPO___46
 70
     0
 10
53.48784621480809
 20
659.3376715470922
 30
0.0
  3
GFS00600A00300_GRUPPO___46
  1

  0
INSERT
  5
FC
330
FB
100
AcDbEntity
  8
0
100
AcDbBlockReference
  2
PD00700A24600_CORPO_RE__38
 10
53.48784621480809
 20
659.3376715470922
 30
0.0
  0
INSERT
  5
FD
330
FB
100
AcDbEntity
  8
0
100
AcDbBlockReference
  2
GFS00600A00200_GRUPPO___45
 10
53.48784621480809
 20
661.5310989791601
 30
0.0
  0
ENDBLK
  5
FF
330
FB
100
AcDbEntity
  8
0
100
AcDbBlockEnd
  0
BLOCK
  5
102
330
100
100
AcDbEntity
  8
0
100
AcDbBlockBegin
  2
GFS0060A00400_GRUPPO_B__47
 70
     0
 10
53.48784621480809
 20
659.3376715470922
 30
0.0
  3
GFS0060A00400_GRUPPO_B__47
  1

  0
INSERT
  5
101
330
100
100
AcDbEntity
  8
0
100
AcDbBlockReference
  2
GFS00600A00300_GRUPPO___46
 10
53.48784621480809
 20
659.3376715470922
 30
0.0
  0
ENDBLK
  5
103
330
100
100
AcDbEntity
  8
0
100
AcDbBlockEnd
  0
BLOCK
  5
106
330
104
100
AcDbEntity
  8
0
100
AcDbBlockBegin
  2
GFS0060A00500_GRUPPO_C__48
 70
     0
 10
53.48784621480809
 20
659.3376715470922
 30
0.0
  3
GFS0060A00500_GRUPPO_C__48
  1

  0
INSERT
  5
105
330
104
100
AcDbEntity
  8
0
100
AcDbBlockReference
  2
GFS0060A00400_GRUPPO_B__47
 10
53.48784621480809
 20
659.3376715470922
 30
0.0
  0
ENDBLK
  5
107
330
104
100
AcDbEntity
  8
0
100
AcDbBlockEnd
  0
BLOCK
  5
10A
330
108
100
AcDbEntity
  8
0
100
AcDbBlockBegin
  2
GFS0060A00700_GRUPPO_C__49
 70
     0
 10
53.48784621480809
 20
659.3376715470922
 30
0.0
  3
GFS0060A00700_GRUPPO_C__49
  1

  0
INSERT
  5
109
330
108
100
AcDbEntity
  8
0
100
AcDbBlockReference
  2
GFS0060A00500_GRUPPO_C__48
 10
53.48784621480809
 20
659.3376715470922
 30
0.0
  0
ENDBLK
  5
10B
330
108
100
AcDbEntity
  8
0
100
AcDbBlockEnd
  0
BLOCK
  5
10E
330
10C
100
AcDbEntity
  8
0
100
AcDbBlockBegin
  2
00S0060A00100_CERNIERA__50
 70
     0
 10
53.48784621480809
 20
659.3376715470922
 30
0.0
  3
00S0060A00100_CERNIERA__50
  1

  0
INSERT
  5
10D
330
10C
100
AcDbEntity
  8
0
100
AcDbBlockReference
  2
GFS0060A00700_GRUPPO_C__49
 10
53.48784621480809
 20
659.3376715470922
 30
0.0
  0
ENDBLK
  5
10F
330
10C
100
AcDbEntity
  8
0
100
AcDbBlockEnd
  0
BLOCK
  5
111
330
110
100
AcDbEntity
  8
0
100
AcDbBlockBegin
  2
STIPITE_MONTANTE_SX_1___51
 70
     0
 10
17.48784620808101
 20
653.2035939651369
 30
0.0
  3
STIPITE_MONTANTE_SX_1___51
  1

  0
LINE
  5
3F8
330
110
100
AcDbEntity
  8
0
  6
CONTINUOUS
 62
     7
100
AcDbLine
 10
53.48784621480672
 20
703.2035939654461
 30
0.0
 11
62.48784621648883
 21
703.2035939654193
 31
0.0
  0
LINE
  5
3F9
330
110
100
AcDbEntity
  8
0
  6
CONTINUOUS
 62
     7
100
AcDbLine
 10
51.48784621443383
 20
653.203593965452
 30
0.0
 11
18.48784623442589
 21
653.2035939651369
 31
0.0
  0
LINE
  5
3FA
330
110
100
AcDbEntity
  8
0
  6
CONTINUOUS
 62
     7
100
AcDbLine
 10
18.48784623442589
 20
653.2035939651369
 30
0.0
 11
17.48784620808101
 21
653.203593965552
 31
0.0
  0
LINE
  5
3FB
330
110
100
AcDbEntity
  8
0
  6
CONTINUOUS
 62
     7
100
AcDbLine
 10
17.48784620808101
 20
743.203593965552
 30
0.0
 11
17.48784620808101
 21
653.203593965552
 31
0.0
  0
LINE
  5
3FC
330
110
100
AcDbEntity
  8
0
  6
CONTINUOUS
 62
     7
100
AcDbLine
 10
64.48784621686309
 20
705.2035939654129
 30
0.0
 11
64.48784621686309
 21
743.2035939654129
 31
0.0
  0
LINE
  5
3FD
330
110
100
AcDbEntity
  8
0
  6
CONTINUOUS
 62
     7
100
AcDbLine
 10
53.48784623442589
 20
689.2035939651369
 30
0.0
 11
53.48784621480809
 21
655.2035939654461
 31
0.0
  0
LINE
  5
3FE
330
110
100
AcDbEntity
  8
0
  6
CONTINUOUS
 62
     7
100
AcDbLine
 10
53.48784621480672
 20
703.2035939654461
 30
0.0
 11
53.48784623442589
 21
689.2035939651369
 31
0.0
  0
LINE
  5
3FF
330
110
100
AcDbEntity
  8
0
  6
CONTINUOUS
 62
     7
100
AcDbLine
 10
17.48784620808101
 20
743.203593965552
 30
0.0
 11
64.48784621686309
 21
743.2035939654129
 31
0.0
  0
ARC
  5
400
330
110
100
AcDbEntity
  8
0
  6
CONTINUOUS
 62
     7
100
AcDbCircle
 10
51.48784621462073
 20
655.2035939656389
 30
0.0
 40
2.000000000186901
100
AcDbArc
 50
269.9999999946457
 51
359.9999999944763
  0
ARC
  5
401
330
110
100
AcDbEntity
  8
0
  6
CONTINUOUS
 62
     7
100
AcDbCircle
 10
62.48784621667573
 20
705.2035939656062
 30
0.0
 40
2.000000000186901
100
AcDbArc
 50
269.9999999946459
 51
359.9999999944633
  0
ENDBLK
  5
112
330
110
100
AcDbEntity
  8
0
100
AcDbBlockEnd
  0
BLOCK
  5
114
330
113
100
AcDbEntity
  8
0
100
AcDbBlockBegin
  2
SCASSO_MONTANTE_S0043___52
 70
     0
 10
18.48784623442589
 20
653.2035939651369
 30
0.0
  3
SCASSO_MONTANTE_S0043___52
  1

  0
LINE
  5
402
330
113
100
AcDbEntity
  8
0
  6
CONTINUOUS
 62
     7
100
AcDbLine
 10
51.48784621443383
 20
653.203593965452
 30
0.0
 11
18.48784623442589
 21
653.2035939651369
 31
0.0
  0
LINE
  5
403
330
113
100
AcDbEntity
  8
0
  6
CONTINUOUS
 62
     7
100
AcDbLine
 10
53.48784623442589
 20
689.2035939651369
 30
0.0
 11
53.48784621480809
 21
655.2035939654461
 31
0.0
  0
ARC
  5
404
330
113
100
AcDbEntity
  8
0
  6
CONTINUOUS
 62
     7
100
AcDbCircle
 10
51.48784621462073
 20
655.2035939656389
 30
0.0
 40
2.000000000186901
100
AcDbArc
 50
269.9999999946457
 51
359.9999999944763
  0
ENDBLK
  5
115
330
113
100
AcDbEntity
  8
0
100
AcDbBlockEnd
  0
BLOCK
  5
118
330
116
100
AcDbEntity
  8
0
100
AcDbBlockBegin
  2
PX004196_GRUPPO_N_3_SC__53
 70
     0
 10
18.48784623442589
 20
653.2035939651369
 30
0.0
  3
PX004196_GRUPPO_N_3_SC__53
  1

  0
INSERT
  5
117
330
116
100
AcDbEntity
  8
0
100
AcDbBlockReference
  2
SCASSO_MONTANTE_S0043___52
 10
18.48784623442589
 20
653.2035939651369
 30
0.0
  0
ENDBLK
  5
119
330
116
100
AcDbEntity
  8
0
100
AcDbBlockEnd
  0
BLOCK
  5
11C
330
11A
100
AcDbEntity
  8
0
100
AcDbBlockBegin
  2
FRESATE_CERNIERE_TELAI__54
 70
     0
 10
18.48784623442589
 20
653.2035939651369
 30
0.0
  3
FRESATE_CERNIERE_TELAI__54
  1

  0
INSERT
  5
11B
330
11A
100
AcDbEntity
  8
0
100
AcDbBlockReference
  2
PX004196_GRUPPO_N_3_SC__53
 10
18.48784623442589
 20
653.2035939651369
 30
0.0
  0
ENDBLK
  5
11D
330
11A
100
AcDbEntity
  8
0
100
AcDbBlockEnd
  0
BLOCK
  5
11F
330
11E
100
AcDbEntity
  8
0
100
AcDbBlockBegin
  2
PX001697_STIPITE_MONTA__55
 70
     0
 10
1064.487846216863
 20
653.203593965452
 30
0.0
  3
PX001697_STIPITE_MONTA__55
  1

  0
LINE
  5
405
330
11E
100
AcDbEntity
  8
0
  6
CONTINUOUS
 62
     7
100
AcDbLine
 10
1077.487846214434
 20
653.203593965452
 30
0.0
 11
1106.487846209015
 21
653.203593965537
 31
0.0
  0
LINE
  5
406
330
11E
100
AcDbEntity
  8
0
  6
CONTINUOUS
 62
     7
100
AcDbLine
 10
1075.487846214808
 20
703.2035939654261
 30
0.0
 11
1075.487846214808
 21
655.2035939654461
 31
0.0
  0
LINE
  5
407
330
11E
100
AcDbEntity
  8
0
  6
CONTINUOUS
 62
     7
100
AcDbLine
 10
1075.487846214808
 20
703.2035939654261
 30
0.0
 11
1066.487846216489
 21
703.2035939653993
 31
0.0
  0
LINE
  5
408
330
11E
100
AcDbEntity
  8
0
  6
CONTINUOUS
 62
     7
100
AcDbLine
 10
1106.487846209015
 20
653.203593965537
 30
0.0
 11
1106.487846209015
 21
743.203593965537
 31
0.0
  0
LINE
  5
409
330
11E
100
AcDbEntity
  8
0
  6
CONTINUOUS
 62
     7
100
AcDbLine
 10
1064.487846216863
 20
743.2035939654129
 30
0.0
 11
1064.487846216863
 21
705.2035939653929
 31
0.0
  0
LINE
  5
40A
330
11E
100
AcDbEntity
  8
0
  6
CONTINUOUS
 62
     7
100
AcDbLine
 10
1106.487846209015
 20
743.203593965537
 30
0.0
 11
1064.487846216863
 21
743.2035939654129
 31
0.0
  0
ARC
  5
40B
330
11E
100
AcDbEntity
  8
0
  6
CONTINUOUS
 62
     7
100
AcDbCircle
 10
1077.487846214621
 20
655.2035939652646
 30
0.0
 40
1.999999999812871
100
AcDbArc
 50
179.999999994802
 51
269.9999999946457
  0
ARC
  5
40C
330
11E
100
AcDbEntity
  8
0
  6
CONTINUOUS
 62
     7
100
AcDbCircle
 10
1066.487846216676
 20
705.2035939652119
 30
0.0
 40
1.999999999812871
100
AcDbArc
 50
179.999999994815
 51
269.9999999946457
  0
ENDBLK
  5
120
330
11E
100
AcDbEntity
  8
0
100
AcDbBlockEnd
  0
BLOCK
  5
123
330
121
100
AcDbEntity
  8
0
100
AcDbBlockBegin
  2
TELAIO__56
 70
     0
 10
1064.487846216863
 20
653.203593965452
 30
0.0
  3
TELAIO__56
  1

  0
INSERT
  5
122
330
121
100
AcDbEntity
  8
0
100
AcDbBlockReference
  2
PX001697_STIPITE_MONTA__55
 10
1064.487846216863
 20
653.203593965452
 30
0.0
  0
ENDBLK
  5
124
330
121
100
AcDbEntity
  8
0
100
AcDbBlockEnd
  0
BLOCK
  5
128
330
125
100
AcDbEntity
  8
0
100
AcDbBlockBegin
  2
TELAIO_BATTENTE_L1000X__57
 70
     0
 10
18.48784623442589
 20
653.2035939651369
 30
0.0
  3
TELAIO_BATTENTE_L1000X__57
  1

  0
INSERT
  5
126
330
125
100
AcDbEntity
  8
0
100
AcDbBlockReference
  2
FRESATE_CERNIERE_TELAI__54
 10
18.48784623442589
 20
653.2035939651369
 30
0.0
  0
INSERT
  5
127
330
125
100
AcDbEntity
  8
0
100
AcDbBlockReference
  2
TELAIO__56
 10
1064.487846216863
 20
653.203593965452
 30
0.0
  0
ENDBLK
  5
129
330
125
100
AcDbEntity
  8
0
100
AcDbBlockEnd
  0
BLOCK
  5
12B
330
12A
100
AcDbEntity
  8
0
100
AcDbBlockBegin
  2
SCASSO_PORTA_S0043_3__58
 70
     0
 10
56.44397871789897
 20
625.86254116087
 30
0.0
  3
SCASSO_PORTA_S0043_3__58
  1

  0
LINE
  5
40D
330
12A
100
AcDbEntity
  8
0
  6
CONTINUOUS
 62
     7
100
AcDbLine
 10
68.34347365450776
 20
665.4605209073129
 30
0.0
 11
57.02976515552609
 21
654.1468124083362
 31
0.0
  0
LINE
  5
40E
330
12A
100
AcDbEntity
  8
0
  6
CONTINUOUS
 62
     7
100
AcDbLine
 10
82.4856092782461
 20
625.86254116087
 30
0.0
 11
57.029765155527
 21
651.31838528359
 31
0.0
  0
LINE
  5
40F
330
12A
100
AcDbEntity
  8
0
  6
CONTINUOUS
 62
     7
100
AcDbLine
 10
81.07139571586367
 20
678.1884429686738
 30
0.0
 11
68.34347365450776
 21
665.4605209073129
 31
0.0
  0
ARC
  5
410
330
12A
100
AcDbEntity
  8
0
  6
CONTINUOUS
 62
     7
100
AcDbCircle
 10
58.44397871789897
 20
652.7325988459629
 30
0.0
 40
2.000000000000016
100
AcDbArc
 50
134.9999999999908
 51
225.0000000000184
  0
ENDBLK
  5
12C
330
12A
100
AcDbEntity
  8
0
100
AcDbBlockEnd
  0
BLOCK
  5
12F
330
12D
100
AcDbEntity
  8
0
100
AcDbBlockBegin
  2
PX004194_GRUPPO_N_3_SC__59
 70
     0
 10
56.44397871789897
 20
625.86254116087
 30
0.0
  3
PX004194_GRUPPO_N_3_SC__59
  1

  0
INSERT
  5
12E
330
12D
100
AcDbEntity
  8
0
100
AcDbBlockReference
  2
SCASSO_PORTA_S0043_3__58
 10
56.44397871789897
 20
625.86254116087
 30
0.0
  0
ENDBLK
  5
130
330
12D
100
AcDbEntity
  8
0
100
AcDbBlockEnd
  0
BLOCK
  5
133
330
131
100
AcDbEntity
  8
0
100
AcDbBlockBegin
  2
FRESATE_CERNIERE_TELAI__60
 70
     0
 10
56.44397871789897
 20
625.86254116087
 30
0.0
  3
FRESATE_CERNIERE_TELAI__60
  1

  0
INSERT
  5
132
330
131
100
AcDbEntity
  8
0
100
AcDbBlockReference
  2
PX004194_GRUPPO_N_3_SC__59
 10
56.44397871789897
 20
625.86254116087
 30
0.0
  0
ENDBLK
  5
134
330
131
100
AcDbEntity
  8
0
100
AcDbBlockEnd
  0
BLOCK
  5
136
330
135
100
AcDbEntity
  8
0
100
AcDbBlockBegin
  2
PX000467_1__61
 70
     0
 10
731.116984693294
 20
37.00103291619917
 30
0.0
  3
PX000467_1__61
  1

  0
LINE
  5
411
330
135
100
AcDbEntity
  8
0
  6
CONTINUOUS
 62
     7
100
AcDbLine
 10
735.8830541468378
 20
40.34734728640024
 30
0.0
 11
731.116984693294
 21
53.44201548954516
 31
0.0
  0
LINE
  5
412
330
135
100
AcDbEntity
  8
0
  6
CONTINUOUS
 62
     7
100
AcDbLine
 10
732.9963699348641
 20
54.12605577619706
 30
0.0
 11
731.116984693294
 21
53.44201548954516
 31
0.0
  0
LINE
  5
413
330
135
100
AcDbEntity
  8
0
  6
CONTINUOUS
 62
     7
100
AcDbLine
 10
739.2293685170407
 20
37.00103291619917
 30
0.0
 11
732.9963699348641
 21
54.12605577619706
 31
0.0
  0
ENDBLK
  5
137
330
135
100
AcDbEntity
  8
0
100
AcDbBlockEnd
  0
BLOCK
  5
139
330
138
100
AcDbEntity
  8
0
100
AcDbBlockBegin
  2
PX000466_1__62
 70
     0
 10
723.8314598145457
 20
24.11467037123293
 30
0.0
  3
PX000466_1__62
  1

  0
LINE
  5
414
330
138
100
AcDbEntity
  8
0
  6
CONTINUOUS
 62
     7
100
AcDbLine
 10
749.2873039372648
 20
24.11467037123293
 30
0.0
 11
747.873090374892
 21
25.52888393360718
 31
0.0
  0
LINE
  5
415
330
138
100
AcDbEntity
  8
0
  6
CONTINUOUS
 62
     7
100
AcDbLine
 10
747.1659835937048
 20
26.23599071479293
 30
0.0
 11
747.873090374892
 21
25.52888393360718
 31
0.0
  0
LINE
  5
416
330
138
100
AcDbEntity
  8
0
  6
CONTINUOUS
 62
     7
100
AcDbLine
 10
742.9233429065848
 20
30.47863140191112
 30
0.0
 11
747.1659835937048
 21
26.23599071479293
 31
0.0
  0
LINE
  5
417
330
138
100
AcDbEntity
  8
0
  6
CONTINUOUS
 62
     7
100
AcDbLine
 10
725.2456733769191
 20
50.984728056319
 30
0.0
 11
726.6598869392901
 21
49.57051449394521
 31
0.0
  0
LINE
  5
418
330
138
100
AcDbEntity
  8
0
  6
CONTINUOUS
 62
     7
100
AcDbLine
 10
725.2456733769191
 20
50.984728056319
 30
0.0
 11
723.8314598145457
 21
49.57051449394612
 31
0.0
  0
LINE
  5
419
330
138
100
AcDbEntity
  8
0
  6
CONTINUOUS
 62
     1
100
AcDbLine
 10
726.6598869392901
 20
49.57051449394521
 30
0.0
 11
725.2456733769177
 21
48.15630093157188
 31
0.0
  0
LINE
  5
41A
330
138
100
AcDbEntity
  8
0
  6
CONTINUOUS
 62
     7
100
AcDbLine
 10
725.2456733769177
 20
48.15630093157188
 30
0.0
 11
725.9527801581048
 21
47.44919415038612
 31
0.0
  0
LINE
  5
41B
330
138
100
AcDbEntity
  8
0
  6
CONTINUOUS
 62
     7
100
AcDbLine
 10
723.8314598145457
 20
49.57051449394612
 30
0.0
 11
725.2456733769177
 21
48.15630093157188
 31
0.0
  0
LINE
  5
41C
330
138
100
AcDbEntity
  8
0
  6
CONTINUOUS
 62
     7
100
AcDbLine
 10
726.6598869392901
 20
49.57051449394521
 30
0.0
 11
749.2873039372639
 21
26.94309749597915
 31
0.0
  0
LINE
  5
41D
330
138
100
AcDbEntity
  8
0
  6
CONTINUOUS
 62
     7
100
AcDbLine
 10
725.9527801581048
 20
47.44919415038612
 30
0.0
 11
730.1954208452248
 21
43.20655346326703
 31
0.0
  0
LINE
  5
41E
330
138
100
AcDbEntity
  8
0
  6
CONTINUOUS
 62
     7
100
AcDbLine
 10
730.1954208452248
 20
43.20655346326703
 30
0.0
 11
742.9233429065848
 21
30.47863140191112
 31
0.0
  0
LINE
  5
41F
330
138
100
AcDbEntity
  8
0
  6
CONTINUOUS
 62
     7
100
AcDbLine
 10
750.7015174996368
 20
25.52888393360627
 30
0.0
 11
749.2873039372639
 21
26.94309749597915
 31
0.0
  0
LINE
  5
420
330
138
100
AcDbEntity
  8
0
  6
CONTINUOUS
 62
     7
100
AcDbLine
 10
750.7015174996368
 20
25.52888393360627
 30
0.0
 11
749.2873039372648
 21
24.11467037123293
 31
0.0
  0
LINE
  5
421
330
138
100
AcDbEntity
  8
0
  6
CONTINUOUS
 62
     1
100
AcDbLine
 10
749.2873039372639
 20
26.94309749597915
 30
0.0
 11
747.873090374892
 21
25.52888393360718
 31
0.0
  0
ENDBLK
  5
13A
330
138
100
AcDbEntity
  8
0
100
AcDbBlockEnd
  0
BLOCK
  5
13E
330
13B
100
AcDbEntity
  8
0
100
AcDbBlockBegin
  2
CM06100A01100_MANIGLIA__63
 70
     0
 10
723.8314598145457
 20
24.11467037123293
 30
0.0
  3
CM06100A01100_MANIGLIA__63
  1

  0
INSERT
  5
13C
330
13B
100
AcDbEntity
  8
0
100
AcDbBlockReference
  2
PX000467_1__61
 10
731.116984693294
 20
37.00103291619917
 30
0.0
  0
INSERT
  5
13D
330
13B
100
AcDbEntity
  8
0
100
AcDbBlockReference
  2
PX000466_1__62
 10
723.8314598145457
 20
24.11467037123293
 30
0.0
  0
ENDBLK
  5
13F
330
13B
100
AcDbEntity
  8
0
100
AcDbBlockEnd
  0
BLOCK
  5
141
330
140
100
AcDbEntity
  8
0
100
AcDbBlockBegin
  2
PX000467_1__64
 70
     0
 10
686.7490065977208
 20
1.64569385686809
 30
0.0
  3
PX000467_1__64
  1

  0
LINE
  5
422
330
140
100
AcDbEntity
  8
0
  6
CONTINUOUS
 62
     7
100
AcDbLine
 10
686.7490065977208
 20
7.87869243904015
 30
0.0
 11
687.4330468843718
 21
9.75807768060986
 31
0.0
  0
LINE
  5
423
330
140
100
AcDbEntity
  8
0
  6
CONTINUOUS
 62
     7
100
AcDbLine
 10
687.4330468843718
 20
9.75807768060986
 30
0.0
 11
700.5277150875181
 21
4.99200822707007
 31
0.0
  0
LINE
  5
424
330
140
100
AcDbEntity
  8
0
  6
CONTINUOUS
 62
     7
100
AcDbLine
 10
686.7490065977208
 20
7.87869243904015
 30
0.0
 11
703.874029457721
 21
1.64569385686809
 31
0.0
  0
ENDBLK
  5
142
330
140
100
AcDbEntity
  8
0
100
AcDbBlockEnd
  0
BLOCK
  5
144
330
143
100
AcDbEntity
  8
0
100
AcDbBlockBegin
  2
PX000466_1__65
 70
     0
 10
689.8903343175971
 20
-9.8264551257239
 30
0.0
  3
PX000466_1__65
  1

  0
LINE
  5
425
330
143
100
AcDbEntity
  8
0
  6
CONTINUOUS
 62
     7
100
AcDbLine
 10
715.3461784403171
 20
-9.8264551257239
 30
0.0
 11
716.7603920026891
 21
-8.41224156335102
 31
0.0
  0
LINE
  5
426
330
143
100
AcDbEntity
  8
0
  6
CONTINUOUS
 62
     1
100
AcDbLine
 10
713.9319648779428
 20
-8.41224156335102
 30
0.0
 11
715.3461784403157
 21
-6.99802800097814
 31
0.0
  0
LINE
  5
427
330
143
100
AcDbEntity
  8
0
  6
CONTINUOUS
 62
     7
100
AcDbLine
 10
713.9319648779428
 20
-8.41224156335102
 30
0.0
 11
715.3461784403171
 21
-9.8264551257239
 31
0.0
  0
LINE
  5
428
330
143
100
AcDbEntity
  8
0
  6
CONTINUOUS
 62
     7
100
AcDbLine
 10
691.30454787997
 20
14.21517543461505
 30
0.0
 11
689.8903343175971
 21
15.62938899698793
 31
0.0
  0
LINE
  5
429
330
143
100
AcDbEntity
  8
0
  6
CONTINUOUS
 62
     7
100
AcDbLine
 10
691.304547879969
 20
17.0436025593599
 30
0.0
 11
689.8903343175971
 21
15.62938899698793
 31
0.0
  0
LINE
  5
42A
330
143
100
AcDbEntity
  8
0
  6
CONTINUOUS
 62
     7
100
AcDbLine
 10
692.7187614423419
 20
15.62938899698793
 30
0.0
 11
691.304547879969
 21
17.0436025593599
 31
0.0
  0
LINE
  5
42B
330
143
100
AcDbEntity
  8
0
  6
CONTINUOUS
 62
     7
100
AcDbLine
 10
715.3461784403157
 20
-6.99802800097814
 30
0.0
 11
716.7603920026891
 21
-8.41224156335102
 31
0.0
  0
LINE
  5
42C
330
143
100
AcDbEntity
  8
0
  6
CONTINUOUS
 62
     7
100
AcDbLine
 10
715.3461784403157
 20
-6.99802800097814
 30
0.0
 11
714.6390716591291
 21
-6.29092121979193
 31
0.0
  0
LINE
  5
42D
330
143
100
AcDbEntity
  8
0
  6
CONTINUOUS
 62
     7
100
AcDbLine
 10
714.6390716591291
 20
-6.29092121979193
 30
0.0
 11
710.3964309720091
 21
-2.04828053267283
 31
0.0
  0
LINE
  5
42E
330
143
100
AcDbEntity
  8
0
  6
CONTINUOUS
 62
     7
100
AcDbLine
 10
697.668508910649
 20
10.67964152868308
 30
0.0
 11
693.425868223529
 21
14.92228221580126
 31
0.0
  0
LINE
  5
42F
330
143
100
AcDbEntity
  8
0
  6
CONTINUOUS
 62
     7
100
AcDbLine
 10
713.9319648779428
 20
-8.41224156335102
 30
0.0
 11
691.30454787997
 21
14.21517543461505
 31
0.0
  0
LINE
  5
430
330
143
100
AcDbEntity
  8
0
  6
CONTINUOUS
 62
     1
100
AcDbLine
 10
691.30454787997
 20
14.21517543461505
 30
0.0
 11
692.7187614423419
 21
15.62938899698793
 31
0.0
  0
LINE
  5
431
330
143
100
AcDbEntity
  8
0
  6
CONTINUOUS
 62
     7
100
AcDbLine
 10
693.425868223529
 20
14.92228221580126
 30
0.0
 11
692.7187614423419
 21
15.62938899698793
 31
0.0
  0
LINE
  5
432
330
143
100
AcDbEntity
  8
0
  6
CONTINUOUS
 62
     7
100
AcDbLine
 10
710.3964309720091
 20
-2.04828053267283
 30
0.0
 11
697.668508910649
 21
10.67964152868308
 31
0.0
  0
ENDBLK
  5
145
330
143
100
AcDbEntity
  8
0
100
AcDbBlockEnd
  0
BLOCK
  5
149
330
146
100
AcDbEntity
  8
0
100
AcDbBlockBegin
  2
CM06100A01100_MANIGLIA__66
 70
     0
 10
686.7490065977208
 20
-9.8264551257239
 30
0.0
  3
CM06100A01100_MANIGLIA__66
  1

  0
INSERT
  5
147
330
146
100
AcDbEntity
  8
0
100
AcDbBlockReference
  2
PX000467_1__64
 10
686.7490065977208
 20
1.64569385686809
 30
0.0
  0
INSERT
  5
148
330
146
100
AcDbEntity
  8
0
100
AcDbBlockReference
  2
PX000466_1__65
 10
689.8903343175971
 20
-9.8264551257239
 30
0.0
  0
ENDBLK
  5
14A
330
146
100
AcDbEntity
  8
0
100
AcDbBlockEnd
  0
BLOCK
  5
14C
330
14B
100
AcDbEntity
  8
0
100
AcDbBlockBegin
  2
PX001595_PX001297_1187__67
 70
     0
 10
56.44397871789897
 20
-64.15235693351588
 30
0.0
  3
PX001595_PX001297_1187__67
  1

  0
LINE
  5
433
330
14B
100
AcDbEntity
  8
0
  6
CONTINUOUS
 62
     7
100
AcDbLine
 10
749.2873039372648
 20
24.11467037123293
 30
0.0
 11
747.873090374892
 21
25.52888393360718
 31
0.0
  0
LINE
  5
434
330
14B
100
AcDbEntity
  8
0
  6
CONTINUOUS
 62
     7
100
AcDbLine
 10
747.1659835937048
 20
26.23599071479293
 30
0.0
 11
747.873090374892
 21
25.52888393360718
 31
0.0
  0
LINE
  5
435
330
14B
100
AcDbEntity
  8
0
  6
CONTINUOUS
 62
     7
100
AcDbLine
 10
742.9233429065848
 20
30.47863140191112
 30
0.0
 11
747.1659835937048
 21
26.23599071479293
 31
0.0
  0
LINE
  5
436
330
14B
100
AcDbEntity
  8
0
  6
CONTINUOUS
 62
     7
100
AcDbLine
 10
725.2456733769177
 20
48.15630093157188
 30
0.0
 11
725.9527801581048
 21
47.44919415038612
 31
0.0
  0
LINE
  5
437
330
14B
100
AcDbEntity
  8
0
  6
CONTINUOUS
 62
     7
100
AcDbLine
 10
723.8314598145457
 20
49.57051449394612
 30
0.0
 11
725.2456733769177
 21
48.15630093157188
 31
0.0
  0
LINE
  5
438
330
14B
100
AcDbEntity
  8
0
  6
CONTINUOUS
 62
     7
100
AcDbLine
 10
725.9527801581048
 20
47.44919415038612
 30
0.0
 11
730.1954208452248
 21
43.20655346326703
 31
0.0
  0
LINE
  5
439
330
14B
100
AcDbEntity
  8
0
  6
CONTINUOUS
 62
     7
100
AcDbLine
 10
771.9147209352468
 20
-63.56657049588876
 30
0.0
 11
716.7603920026891
 21
-8.41224156335102
 31
0.0
  0
LINE
  5
43A
330
14B
100
AcDbEntity
  8
0
  6
CONTINUOUS
 62
     7
100
AcDbLine
 10
730.1954208452248
 20
43.20655346326703
 30
0.0
 11
742.9233429065848
 21
30.47863140191112
 31
0.0
  0
LINE
  5
43B
330
14B
100
AcDbEntity
  8
0
  6
CONTINUOUS
 62
     7
100
AcDbLine
 10
804.441632869823
 20
-33.86808568604783
 30
0.0
 11
774.7431480599939
 21
-63.56657049588785
 31
0.0
  0
LINE
  5
43C
330
14B
100
AcDbEntity
  8
0
  6
CONTINUOUS
 62
     7
100
AcDbLine
 10
68.34347365450776
 20
665.4605209073129
 30
0.0
 11
57.02976515552609
 21
654.1468124083362
 31
0.0
  0
LINE
  5
43D
330
14B
100
AcDbEntity
  8
0
  6
CONTINUOUS
 62
     7
100
AcDbLine
 10
82.4856092782461
 20
625.86254116087
 30
0.0
 11
57.029765155527
 21
651.31838528359
 31
0.0
  0
LINE
  5
43E
330
14B
100
AcDbEntity
  8
0
  6
CONTINUOUS
 62
     7
100
AcDbLine
 10
692.7187614423419
 20
15.62938899698793
 30
0.0
 11
691.304547879969
 21
17.0436025593599
 31
0.0
  0
LINE
  5
43F
330
14B
100
AcDbEntity
  8
0
  6
CONTINUOUS
 62
     7
100
AcDbLine
 10
715.3461784403157
 20
-6.99802800097814
 30
0.0
 11
716.7603920026891
 21
-8.41224156335102
 31
0.0
  0
LINE
  5
440
330
14B
100
AcDbEntity
  8
0
  6
CONTINUOUS
 62
     7
100
AcDbLine
 10
715.3461784403157
 20
-6.99802800097814
 30
0.0
 11
714.6390716591291
 21
-6.29092121979193
 31
0.0
  0
LINE
  5
441
330
14B
100
AcDbEntity
  8
0
  6
CONTINUOUS
 62
     7
100
AcDbLine
 10
714.6390716591291
 20
-6.29092121979193
 30
0.0
 11
710.3964309720091
 21
-2.04828053267283
 31
0.0
  0
LINE
  5
442
330
14B
100
AcDbEntity
  8
0
  6
CONTINUOUS
 62
     7
100
AcDbLine
 10
697.668508910649
 20
10.67964152868308
 30
0.0
 11
693.425868223529
 21
14.92228221580126
 31
0.0
  0
LINE
  5
443
330
14B
100
AcDbEntity
  8
0
  6
CONTINUOUS
 62
     7
100
AcDbLine
 10
693.425868223529
 20
14.92228221580126
 30
0.0
 11
692.7187614423419
 21
15.62938899698793
 31
0.0
  0
LINE
  5
444
330
14B
100
AcDbEntity
  8
0
  6
CONTINUOUS
 62
     7
100
AcDbLine
 10
710.3964309720091
 20
-2.04828053267283
 30
0.0
 11
697.668508910649
 21
10.67964152868308
 31
0.0
  0
LINE
  5
445
330
14B
100
AcDbEntity
  8
0
  6
CONTINUOUS
 62
     7
100
AcDbLine
 10
749.2873039372648
 20
24.11467037123293
 30
0.0
 11
804.441632869823
 21
-31.03965856130208
 31
0.0
  0
LINE
  5
446
330
14B
100
AcDbEntity
  8
0
  6
CONTINUOUS
 62
     7
100
AcDbLine
 10
691.304547879969
 20
17.0436025593599
 30
0.0
 11
82.4856092782461
 21
625.86254116087
 31
0.0
  0
LINE
  5
447
330
14B
100
AcDbEntity
  8
0
  6
CONTINUOUS
 62
     7
100
AcDbLine
 10
86.7282499653561
 20
683.8452972181772
 30
0.0
 11
81.07139571586367
 21
678.1884429686738
 31
0.0
  0
LINE
  5
448
330
14B
100
AcDbEntity
  8
0
  6
CONTINUOUS
 62
     7
100
AcDbLine
 10
81.07139571586367
 20
678.1884429686738
 30
0.0
 11
68.34347365450776
 21
665.4605209073129
 31
0.0
  0
LINE
  5
449
330
14B
100
AcDbEntity
  8
0
  6
CONTINUOUS
 62
     7
100
AcDbLine
 10
89.55667709010186
 20
683.8452972181772
 30
0.0
 11
723.8314598145457
 21
49.57051449394612
 31
0.0
  0
ARC
  5
44A
330
14B
100
AcDbEntity
  8
0
  6
CONTINUOUS
 62
     7
100
AcDbCircle
 10
773.3289344976197
 20
-62.15235693351588
 30
0.0
 40
1.999999999999694
100
AcDbArc
 50
225.0
 51
315.000000000046
  0
ARC
  5
44B
330
14B
100
AcDbEntity
  8
0
  6
CONTINUOUS
 62
     7
100
AcDbCircle
 10
803.0274193074497
 20
-32.45387212367587
 30
0.0
 40
1.999999999999363
100
AcDbArc
 50
315.0000000000279
 51
45.00000000000928
  0
ARC
  5
44C
330
14B
100
AcDbEntity
  8
0
  6
CONTINUOUS
 62
     7
100
AcDbCircle
 10
58.44397871789897
 20
652.7325988459629
 30
0.0
 40
2.000000000000016
100
AcDbArc
 50
134.9999999999908
 51
225.0000000000184
  0
ARC
  5
44D
330
14B
100
AcDbEntity
  8
0
  6
CONTINUOUS
 62
     7
100
AcDbCircle
 10
88.14246352772989
 20
682.4310836558038
 30
0.0
 40
1.999999999999373
100
AcDbArc
 50
45.00000000002764
 51
135.0000000000092
  0
ENDBLK
  5
14D
330
14B
100
AcDbEntity
  8
0
100
AcDbBlockEnd
  0
BLOCK
  5
150
330
14E
100
AcDbEntity
  8
0
100
AcDbBlockBegin
  2
PX001681_PANNELLO_1015__68
 70
     0
 10
56.44397871789897
 20
-64.15235693351588
 30
0.0
  3
PX001681_PANNELLO_1015__68
  1

  0
INSERT
  5
14F
330
14E
100
AcDbEntity
  8
0
100
AcDbBlockReference
  2
PX001595_PX001297_1187__67
 10
56.44397871789897
 20
-64.15235693351588
 30
0.0
  0
ENDBLK
  5
151
330
14E
100
AcDbEntity
  8
0
100
AcDbBlockEnd
  0
BLOCK
  5
156
330
152
100
AcDbEntity
  8
0
100
AcDbBlockBegin
  2
PANNELLO__69
 70
     0
 10
56.44397871789897
 20
-64.15235693351588
 30
0.0
  3
PANNELLO__69
  1

  0
INSERT
  5
153
330
152
100
AcDbEntity
  8
0
100
AcDbBlockReference
  2
CM06100A01100_MANIGLIA__63
 10
723.8314598145457
 20
24.11467037123293
 30
0.0
  0
INSERT
  5
154
330
152
100
AcDbEntity
  8
0
100
AcDbBlockReference
  2
CM06100A01100_MANIGLIA__66
 10
686.7490065977208
 20
-9.8264551257239
 30
0.0
  0
INSERT
  5
155
330
152
100
AcDbEntity
  8
0
100
AcDbBlockReference
  2
PX001681_PANNELLO_1015__68
 10
56.44397871789897
 20
-64.15235693351588
 30
0.0
  0
ENDBLK
  5
157
330
152
100
AcDbEntity
  8
0
100
AcDbBlockEnd
  0
BLOCK
  5
15B
330
158
100
AcDbEntity
  8
0
100
AcDbBlockBegin
  2
PX001593_GRUPPO_ANTA_L__70
 70
     0
 10
56.44397871789897
 20
-64.15235693351588
 30
0.0
  3
PX001593_GRUPPO_ANTA_L__70
  1

  0
INSERT
  5
159
330
158
100
AcDbEntity
  8
0
100
AcDbBlockReference
  2
FRESATE_CERNIERE_TELAI__60
 10
56.44397871789897
 20
625.86254116087
 30
0.0
  0
INSERT
  5
15A
330
158
100
AcDbEntity
  8
0
100
AcDbBlockReference
  2
PANNELLO__69
 10
56.44397871789897
 20
-64.15235693351588
 30
0.0
  0
ENDBLK
  5
15C
330
158
100
AcDbEntity
  8
0
100
AcDbBlockEnd
  0
BLOCK
  5
162
330
15D
100
AcDbEntity
  8
0
100
AcDbBlockBegin
  2
TKKZ0TEC43200_TECNICO___71
 70
     0
 10
17.48784620808101
 20
-64.15235693351588
 30
0.0
  3
TKKZ0TEC43200_TECNICO___71
  1

  0
INSERT
  5
15E
330
15D
100
AcDbEntity
  8
0
100
AcDbBlockReference
  2
00S0060A00100_CERNIERA__50
 10
53.48784621480809
 20
659.3376715470922
 30
0.0
  0
INSERT
  5
15F
330
15D
100
AcDbEntity
  8
0
100
AcDbBlockReference
  2
STIPITE_MONTANTE_SX_1___51
 10
17.48784620808101
 20
653.2035939651369
 30
0.0
  0
INSERT
  5
160
330
15D
100
AcDbEntity
  8
0
100
AcDbBlockReference
  2
TELAIO_BATTENTE_L1000X__57
 10
18.48784623442589
 20
653.2035939651369
 30
0.0
  0
INSERT
  5
161
330
15D
100
AcDbEntity
  8
0
100
AcDbBlockReference
  2
PX001593_GRUPPO_ANTA_L__70
 10
56.44397871789897
 20
-64.15235693351588
 30
0.0
  0
ENDBLK
  5
163
330
15D
100
AcDbEntity
  8
0
100
AcDbBlockEnd
  0
BLOCK
  5
166
330
164
100
AcDbEntity
  8
0
100
AcDbBlockBegin
  2
GEN9
 70
     0
 10
564.4878999999951
 20
672.4379000000031
 30
0.0
  3
GEN9
  1

  0
INSERT
  5
165
330
164
100
AcDbEntity
  8
0
100
AcDbBlockReference
  2
TKKZ0TEC43200_TECNICO___71
 10
17.48784620808101
 20
-64.15235693351588
 30
0.0
  0
MTEXT
  5
44E
330
164
100
AcDbEntity
  8
1
 62
     3
100
AcDbMText
 10
564.4677019597289
 20
641.809710961993
 30
0.0
 40
5.0
 41
0.0
 71
     5
 72
     1
  1
APERTURA 45\U+00b0
  7
CONVERTER_13
1001
ACAD
1000
MTEXTBEGIN
1070
    44
1040
0.96038415366146
1000
MTEXTEND
  0
DIMENSION
  5
459
330
164
100
AcDbEntity
  8
1
100
AcDbDimension
  2
*D179
 10
1011.640365097057
 20
283.9562338114372
 30
0.0
 11
1022.08700013897
 21
320.9586071551988
 31
0.0
 70
    37
  1
<>
  3
ME10_DIM_12
100
AcDb3PointAngularDimension
 13
749.2873039372648
 23
24.11467037123288
 33
0.0
 14
1077.487846214434
 24
653.203593965452
 34
0.0
 15
120.1983803464592
 25
653.2035939626451
 35
0.0
  0
ENDBLK
  5
167
330
164
100
AcDbEntity
  8
0
100
AcDbBlockEnd
  0
BLOCK
  5
169
330
168
100
AcDbEntity
  8
0
100
AcDbBlockBegin
  2
STIPITE_MONTANTE_SX_1___72
 70
     0
 10
1507.243779208085
 20
652.4866869651369
 30
0.0
  3
STIPITE_MONTANTE_SX_1___72
  1

  0
LINE
  5
45A
330
168
100
AcDbEntity
  8
0
  6
CONTINUOUS
 62
     7
100
AcDbLine
 10
1507.243779208085
 20
742.486686965552
 30
0.0
 11
1554.243779216868
 21
742.4866869654129
 31
0.0
  0
LINE
  5
45B
330
168
100
AcDbEntity
  8
0
  6
CONTINUOUS
 62
     7
100
AcDbLine
 10
1507.243779208085
 20
742.486686965552
 30
0.0
 11
1507.243779208085
 21
652.486686965552
 31
0.0
  0
LINE
  5
45C
330
168
100
AcDbEntity
  8
0
  6
CONTINUOUS
 62
     7
100
AcDbLine
 10
1554.243779216868
 20
704.4866869654129
 30
0.0
 11
1554.243779216868
 21
742.4866869654129
 31
0.0
  0
LINE
  5
45D
330
168
100
AcDbEntity
  8
0
  6
CONTINUOUS
 62
     7
100
AcDbLine
 10
1508.24377923443
 20
652.4866869651369
 30
0.0
 11
1507.243779208085
 21
652.486686965552
 31
0.0
  0
LINE
  5
45E
330
168
100
AcDbEntity
  8
0
  6
CONTINUOUS
 62
     7
100
AcDbLine
 10
1541.243779214438
 20
652.486686965452
 30
0.0
 11
1508.24377923443
 21
652.4866869651369
 31
0.0
  0
LINE
  5
45F
330
168
100
AcDbEntity
  8
0
  6
CONTINUOUS
 62
     7
100
AcDbLine
 10
1543.24377923443
 20
688.4866869651369
 30
0.0
 11
1543.243779214812
 21
654.4866869654461
 31
0.0
  0
LINE
  5
460
330
168
100
AcDbEntity
  8
0
  6
CONTINUOUS
 62
     7
100
AcDbLine
 10
1543.243779214812
 20
702.4866869654461
 30
0.0
 11
1552.243779216494
 21
702.4866869654193
 31
0.0
  0
LINE
  5
461
330
168
100
AcDbEntity
  8
0
  6
CONTINUOUS
 62
     7
100
AcDbLine
 10
1543.243779214812
 20
702.4866869654461
 30
0.0
 11
1543.24377923443
 21
688.4866869651369
 31
0.0
  0
ARC
  5
462
330
168
100
AcDbEntity
  8
0
  6
CONTINUOUS
 62
     7
100
AcDbCircle
 10
1552.243779216681
 20
704.4866869656062
 30
0.0
 40
2.000000000186901
100
AcDbArc
 50
269.9999999946392
 51
359.9999999944633
  0
ARC
  5
463
330
168
100
AcDbEntity
  8
0
  6
CONTINUOUS
 62
     7
100
AcDbCircle
 10
1541.243779214625
 20
654.4866869656389
 30
0.0
 40
2.000000000186901
100
AcDbArc
 50
269.9999999946457
 51
359.9999999944763
  0
ENDBLK
  5
16A
330
168
100
AcDbEntity
  8
0
100
AcDbBlockEnd
  0
BLOCK
  5
16C
330
16B
100
AcDbEntity
  8
0
100
AcDbBlockBegin
  2
SCASSO_MONTANTE_S0043___73
 70
     0
 10
1508.24377923443
 20
652.4866869651369
 30
0.0
  3
SCASSO_MONTANTE_S0043___73
  1

  0
LINE
  5
464
330
16B
100
AcDbEntity
  8
0
  6
CONTINUOUS
 62
     7
100
AcDbLine
 10
1541.243779214438
 20
652.486686965452
 30
0.0
 11
1508.24377923443
 21
652.4866869651369
 31
0.0
  0
LINE
  5
465
330
16B
100
AcDbEntity
  8
0
  6
CONTINUOUS
 62
     7
100
AcDbLine
 10
1543.24377923443
 20
688.4866869651369
 30
0.0
 11
1543.243779214812
 21
654.4866869654461
 31
0.0
  0
ARC
  5
466
330
16B
100
AcDbEntity
  8
0
  6
CONTINUOUS
 62
     7
100
AcDbCircle
 10
1541.243779214625
 20
654.4866869656389
 30
0.0
 40
2.000000000186901
100
AcDbArc
 50
269.9999999946457
 51
359.9999999944763
  0
ENDBLK
  5
16D
330
16B
100
AcDbEntity
  8
0
100
AcDbBlockEnd
  0
BLOCK
  5
170
330
16E
100
AcDbEntity
  8
0
100
AcDbBlockBegin
  2
PX004196_GRUPPO_N_3_SC__74
 70
     0
 10
1508.24377923443
 20
652.4866869651369
 30
0.0
  3
PX004196_GRUPPO_N_3_SC__74
  1

  0
INSERT
  5
16F
330
16E
100
AcDbEntity
  8
0
100
AcDbBlockReference
  2
SCASSO_MONTANTE_S0043___73
 10
1508.24377923443
 20
652.4866869651369
 30
0.0
  0
ENDBLK
  5
171
330
16E
100
AcDbEntity
  8
0
100
AcDbBlockEnd
  0
BLOCK
  5
174
330
172
100
AcDbEntity
  8
0
100
AcDbBlockBegin
  2
FRESATE_CERNIERE_TELAI__75
 70
     0
 10
1508.24377923443
 20
652.4866869651369
 30
0.0
  3
FRESATE_CERNIERE_TELAI__75
  1

  0
INSERT
  5
173
330
172
100
AcDbEntity
  8
0
100
AcDbBlockReference
  2
PX004196_GRUPPO_N_3_SC__74
 10
1508.24377923443
 20
652.4866869651369
 30
0.0
  0
ENDBLK
  5
175
330
172
100
AcDbEntity
  8
0
100
AcDbBlockEnd
  0
BLOCK
  5
177
330
176
100
AcDbEntity
  8
0
100
AcDbBlockBegin
  2
PX001697_STIPITE_MONTA__76
 70
     0
 10
2554.243779216868
 20
652.486686965452
 30
0.0
  3
PX001697_STIPITE_MONTA__76
  1

  0
LINE
  5
467
330
176
100
AcDbEntity
  8
0
  6
CONTINUOUS
 62
     7
100
AcDbLine
 10
2596.24377920902
 20
742.486686965537
 30
0.0
 11
2554.243779216868
 21
742.4866869654129
 31
0.0
  0
LINE
  5
468
330
176
100
AcDbEntity
  8
0
  6
CONTINUOUS
 62
     7
100
AcDbLine
 10
2567.243779214439
 20
652.486686965452
 30
0.0
 11
2596.24377920902
 21
652.486686965537
 31
0.0
  0
LINE
  5
469
330
176
100
AcDbEntity
  8
0
  6
CONTINUOUS
 62
     7
100
AcDbLine
 10
2565.243779214812
 20
702.4866869654261
 30
0.0
 11
2565.243779214812
 21
654.4866869654461
 31
0.0
  0
LINE
  5
46A
330
176
100
AcDbEntity
  8
0
  6
CONTINUOUS
 62
     7
100
AcDbLine
 10
2565.243779214812
 20
702.4866869654261
 30
0.0
 11
2556.243779216494
 21
702.4866869653993
 31
0.0
  0
LINE
  5
46B
330
176
100
AcDbEntity
  8
0
  6
CONTINUOUS
 62
     7
100
AcDbLine
 10
2596.24377920902
 20
652.486686965537
 30
0.0
 11
2596.24377920902
 21
742.486686965537
 31
0.0
  0
LINE
  5
46C
330
176
100
AcDbEntity
  8
0
  6
CONTINUOUS
 62
     7
100
AcDbLine
 10
2554.243779216868
 20
742.4866869654129
 30
0.0
 11
2554.243779216868
 21
704.4866869653929
 31
0.0
  0
ARC
  5
46D
330
176
100
AcDbEntity
  8
0
  6
CONTINUOUS
 62
     7
100
AcDbCircle
 10
2567.243779214626
 20
654.4866869652656
 30
0.0
 40
1.999999999814008
100
AcDbArc
 50
179.999999994828
 51
269.9999999946457
  0
ARC
  5
46E
330
176
100
AcDbEntity
  8
0
  6
CONTINUOUS
 62
     7
100
AcDbCircle
 10
2556.243779216681
 20
704.4866869652124
 30
0.0
 40
1.999999999813099
100
AcDbArc
 50
179.999999994828
 51
269.9999999946457
  0
ENDBLK
  5
178
330
176
100
AcDbEntity
  8
0
100
AcDbBlockEnd
  0
BLOCK
  5
17B
330
179
100
AcDbEntity
  8
0
100
AcDbBlockBegin
  2
TELAIO__77
 70
     0
 10
2554.243779216868
 20
652.486686965452
 30
0.0
  3
TELAIO__77
  1

  0
INSERT
  5
17A
330
179
100
AcDbEntity
  8
0
100
AcDbBlockReference
  2
PX001697_STIPITE_MONTA__76
 10
2554.243779216868
 20
652.486686965452
 30
0.0
  0
ENDBLK
  5
17C
330
179
100
AcDbEntity
  8
0
100
AcDbBlockEnd
  0
BLOCK
  5
180
330
17D
100
AcDbEntity
  8
0
100
AcDbBlockBegin
  2
TELAIO_BATTENTE_L1000X__78
 70
     0
 10
1508.24377923443
 20
652.4866869651369
 30
0.0
  3
TELAIO_BATTENTE_L1000X__78
  1

  0
INSERT
  5
17E
330
17D
100
AcDbEntity
  8
0
100
AcDbBlockReference
  2
FRESATE_CERNIERE_TELAI__75
 10
1508.24377923443
 20
652.4866869651369
 30
0.0
  0
INSERT
  5
17F
330
17D
100
AcDbEntity
  8
0
100
AcDbBlockReference
  2
TELAIO__77
 10
2554.243779216868
 20
652.486686965452
 30
0.0
  0
ENDBLK
  5
181
330
17D
100
AcDbEntity
  8
0
100
AcDbBlockEnd
  0
BLOCK
  5
183
330
182
100
AcDbEntity
  8
0
100
AcDbBlockBegin
  2
CORPO_REG_Y_CERN__S006__79
 70
     0
 10
1543.243779214812
 20
658.6207645470922
 30
0.0
  3
CORPO_REG_Y_CERN__S006__79
  1

  0
LINE
  5
46F
330
182
100
AcDbEntity
  8
0
  6
CONTINUOUS
 62
     7
100
AcDbLine
 10
1543.618779240773
 20
660.1904877685502
 30
0.0
 11
1543.618779240782
 21
664.786686964906
 31
0.0
  0
LINE
  5
470
330
182
100
AcDbEntity
  8
0
  6
CONTINUOUS
 62
     7
100
AcDbLine
 10
1543.618779240773
 20
659.786686964906
 30
0.0
 11
1543.618779240773
 21
660.1904877685502
 31
0.0
  0
ARC
  5
471
330
182
100
AcDbEntity
  8
0
  6
CONTINUOUS
 62
     7
100
AcDbCircle
 10
1541.618779240782
 20
664.7866869649101
 30
0.0
 40
2.0
100
AcDbArc
 50
359.9999999998827
 51
35.65908897236329
  0
ARC
  5
472
330
182
100
AcDbEntity
  8
0
  6
CONTINUOUS
 62
     7
100
AcDbCircle
 10
1541.618779240772
 20
659.7866869649101
 30
0.0
 40
2.000000000000143
100
AcDbArc
 50
324.3409110281319
 51
359.9999999998827
  0
ENDBLK
  5
184
330
182
100
AcDbEntity
  8
0
100
AcDbBlockEnd
  0
BLOCK
  5
187
330
185
100
AcDbEntity
  8
0
100
AcDbBlockBegin
  2
PD00700A24600_CORPO_RE__80
 70
     0
 10
1543.243779214812
 20
658.6207645470922
 30
0.0
  3
PD00700A24600_CORPO_RE__80
  1

  0
INSERT
  5
186
330
185
100
AcDbEntity
  8
0
100
AcDbBlockReference
  2
CORPO_REG_Y_CERN__S006__79
 10
1543.243779214812
 20
658.6207645470922
 30
0.0
  0
ENDBLK
  5
188
330
185
100
AcDbEntity
  8
0
100
AcDbBlockEnd
  0
BLOCK
  5
18A
330
189
100
AcDbEntity
  8
0
100
AcDbBlockBegin
  2
PD02100A09500_SPINA_Ø3__81
 70
     0
 10
1554.939652657045
 20
662.5825277437821
 30
0.0
  3
PD02100A09500_SPINA_Ø3__81
  1

  0
CIRCLE
  5
473
330
189
100
AcDbEntity
  8
0
  6
CONTINUOUS
 62
     7
100
AcDbCircle
 10
1556.939652657045
 20
664.5825277437821
 30
0.0
 40
2.000000000000102
  0
ENDBLK
  5
18B
330
189
100
AcDbEntity
  8
0
100
AcDbBlockEnd
  0
BLOCK
  5
18D
330
18C
100
AcDbEntity
  8
0
100
AcDbBlockBegin
  2
BIELLA_INTERNA_MONTANT__82
 70
     0
 10
1543.243779214812
 20
650.7839287572792
 30
0.0
  3
BIELLA_INTERNA_MONTANT__82
  1

  0
LINE
  5
474
330
18C
100
AcDbEntity
  8
0
  6
CONTINUOUS
 62
     7
100
AcDbLine
 10
1553.08229372734
 20
658.7345749402011
 30
0.0
 11
1551.188867496568
 21
659.98349483217
 31
0.0
  0
LINE
  5
475
330
18C
100
AcDbEntity
  8
0
  6
CONTINUOUS
 62
     1
100
AcDbLine
 10
1547.389239403929
 20
662.3341647811549
 30
0.0
 11
1547.417172150759
 21
662.4713368533712
 31
0.0
  0
LINE
  5
476
330
18C
100
AcDbEntity
  8
0
  6
CONTINUOUS
 62
     7
100
AcDbLine
 10
1545.461408639572
 20
662.7267345502992
 30
0.0
 11
1547.389239403929
 21
662.3341647811549
 31
0.0
  0
LINE
  5
477
330
18C
100
AcDbEntity
  8
0
  6
CONTINUOUS
 62
     7
100
AcDbLine
 10
1559.300823890829
 20
657.1064289063161
 30
0.0
 11
1561.652740528077
 21
655.5550848799289
 31
0.0
  0
LINE
  5
478
330
18C
100
AcDbEntity
  8
0
  6
CONTINUOUS
 62
     1
100
AcDbLine
 10
1564.985225141247
 20
656.6318135617671
 30
0.0
 11
1559.58906373979
 21
666.0935277156909
 31
0.0
  0
LINE
  5
479
330
18C
100
AcDbEntity
  8
0
  6
CONTINUOUS
 62
     7
100
AcDbLine
 10
1562.762368663915
 20
654.223100447085
 30
0.0
 11
1564.222359084563
 21
650.7839287572792
 31
0.0
  0
LINE
  5
47A
330
18C
100
AcDbEntity
  8
0
  6
CONTINUOUS
 62
     7
100
AcDbLine
 10
1569.020381041132
 20
650.7839287572801
 30
0.0
 11
1566.560971519607
 21
657.2709919810022
 31
0.0
  0
LINE
  5
47B
330
18C
100
AcDbEntity
  8
0
  6
CONTINUOUS
 62
     1
100
AcDbLine
 10
1557.14112121332
 20
667.625866440158
 30
0.0
 11
1557.253415162986
 21
669.3221535823973
 31
0.0
  0
LINE
  5
47C
330
18C
100
AcDbEntity
  8
0
  6
CONTINUOUS
 62
     1
100
AcDbLine
 10
1559.58906373979
 20
666.0935277156909
 30
0.0
 11
1561.065784671423
 21
666.9357244213411
 31
0.0
  0
LINE
  5
47D
330
18C
100
AcDbEntity
  8
0
  6
CONTINUOUS
 62
     1
100
AcDbLine
 10
1567.202305979358
 20
650.7839287572792
 30
0.0
 11
1564.985225141247
 21
656.6318135617671
 31
0.0
  0
LINE
  5
47E
330
18C
100
AcDbEntity
  8
0
  6
CONTINUOUS
 62
     7
100
AcDbLine
 10
1566.481296881784
 20
657.440080255159
 30
0.0
 11
1561.065784671423
 21
666.9357244213411
 31
0.0
  0
LINE
  5
47F
330
18C
100
AcDbEntity
  8
0
  6
CONTINUOUS
 62
     7
100
AcDbLine
 10
1557.253415162986
 20
669.3221535823973
 30
0.0
 11
1543.243779214812
 21
670.2495893392143
 31
0.0
  0
LINE
  5
480
330
18C
100
AcDbEntity
  8
0
  6
CONTINUOUS
 62
     7
100
AcDbLine
 10
1548.021177341073
 20
662.0729299435279
 30
0.0
 11
1547.07084993298
 21
662.6997739056233
 31
0.0
  0
LINE
  5
481
330
18C
100
AcDbEntity
  8
0
  6
CONTINUOUS
 62
     7
100
AcDbLine
 10
1548.021177341073
 20
662.0729299435279
 30
0.0
 11
1551.188867496568
 21
659.98349483217
 31
0.0
  0
LINE
  5
482
330
18C
100
AcDbEntity
  8
0
  6
CONTINUOUS
 62
     7
100
AcDbLine
 10
1543.618779240773
 20
660.1904877685502
 30
0.0
 11
1544.992788709916
 21
662.2735561758223
 31
0.0
  0
LINE
  5
483
330
18C
100
AcDbEntity
  8
0
  6
CONTINUOUS
 62
     1
100
AcDbLine
 10
1557.14112121332
 20
667.625866440158
 30
0.0
 11
1543.243779214812
 21
668.545868354684
 31
0.0
  0
ARC
  5
484
330
18C
100
AcDbEntity
  8
0
  6
CONTINUOUS
 62
     7
100
AcDbCircle
 10
1546.244928186348
 20
661.4476344291911
 30
0.0
 40
1.499999999999836
100
AcDbArc
 50
56.59081969879355
 51
121.4897729985967
  0
ARC
  5
485
330
18C
100
AcDbEntity
  8
0
  6
CONTINUOUS
 62
     7
100
AcDbCircle
 10
1546.244928186348
 20
661.4476344291911
 30
0.0
 40
1.499999999999576
100
AcDbArc
 50
121.4897729985967
 51
146.5908196988177
  0
ARC
  5
486
330
18C
100
AcDbEntity
  8
0
  6
CONTINUOUS
 62
     7
100
AcDbCircle
 10
1565.438905635956
 20
656.845588462822
 30
0.0
 40
1.200000000222323
100
AcDbArc
 50
20.7629832979503
 51
29.69677841374615
  0
ARC
  5
487
330
18C
100
AcDbEntity
  8
0
  6
CONTINUOUS
 62
     7
100
AcDbCircle
 10
1557.648980397566
 20
654.60214995345
 30
0.0
 40
3.000000000000564
100
AcDbArc
 50
56.5908196988308
 51
94.06530322971078
  0
ARC
  5
488
330
18C
100
AcDbEntity
  8
0
  6
CONTINUOUS
 62
     7
100
AcDbCircle
 10
1560.000897034815
 20
653.0508059270633
 30
0.0
 40
2.999999999999553
100
AcDbArc
 50
23.00209835147643
 51
56.59081969884053
  0
ARC
  5
489
330
18C
100
AcDbEntity
  8
0
  6
CONTINUOUS
 62
     1
100
AcDbCircle
 10
1556.939652657784
 20
664.5825277448134
 30
0.0
 40
3.049999998925749
100
AcDbArc
 50
29.69677840293923
 51
86.21255444561608
  0
ARC
  5
48A
330
18C
100
AcDbEntity
  8
0
  6
CONTINUOUS
 62
     7
100
AcDbCircle
 10
1556.939652658014
 20
664.5825277446697
 30
0.0
 40
4.749999999071136
100
AcDbArc
 50
29.69677840774313
 51
86.21255444078523
  0
ARC
  5
48B
330
18C
100
AcDbEntity
  8
0
  6
CONTINUOUS
 62
     7
100
AcDbCircle
 10
1547.030071245115
 20
660.5703625718093
 30
0.0
 40
1.799999999999629
100
AcDbArc
 50
56.59081969880722
 51
78.49006399705017
  0
ARC
  5
48C
330
18C
100
AcDbEntity
  8
0
  6
CONTINUOUS
 62
     7
100
AcDbCircle
 10
1556.939652659495
 20
664.5825277437425
 30
0.0
 40
7.00555279217314
100
AcDbArc
 50
236.5908196988099
 51
274.0653032297029
  0
SPLINE
  5
48D
330
18C
100
AcDbEntity
  8
0
  6
CONTINUOUS
 62
     1
100
AcDbSpline
210
0.0
220
0.0
230
1.0
 70
     8
 71
     3
 72
    22
 73
    18
 74
    16
 42
0.000000001
 43
0.0000000001
 44
0.00000001
 40
0.0
 40
0.0
 40
0.0
 40
0.0
 40
0.1668414799950609
 40
0.3318701431217394
 40
0.413331171737384
 40
0.4938907866960499
 40
0.5337223582586414
 40
0.5732318301312148
 40
0.6122989905499575
 40
0.6509983914476667
 40
0.9189872696484185
 40
1.201047624782288
 40
1.373586278517515
 40
1.493392984180187
 40
1.570622801818751
 40
1.635535758328046
 40
1.700448714839363
 40
1.700448714839363
 40
1.700448714839363
 40
1.700448714839363
 10
1564.985225141247
 20
656.6318135617671
 30
0.0
 10
1565.0341747673
 20
656.6582111458637
 30
0.0
 10
1565.131542164004
 20
656.71071947804
 30
0.0
 10
1565.252727489639
 20
656.7762682398561
 30
0.0
 10
1565.348619965187
 20
656.8281258891637
 30
0.0
 10
1565.407810264553
 20
656.8601204974493
 30
0.0
 10
1565.454704844868
 20
656.8854545009792
 30
0.0
 10
1565.489430507083
 20
656.9042151518531
 30
0.0
 10
1565.523824026089
 20
656.9227966259446
 30
0.0
 10
1565.625223737882
 20
656.9775787296612
 30
0.0
 10
1565.797886034139
 20
657.0708611785134
 30
0.0
 10
1566.009799387841
 20
657.1853493289159
 30
0.0
 10
1566.17825534963
 20
657.2763592339498
 30
0.0
 10
1566.286640661723
 20
657.3349154069647
 30
0.0
 10
1566.363462584151
 20
657.3764191686196
 30
0.0
 10
1566.424185820803
 20
657.4092254559112
 30
0.0
 10
1566.462259859143
 20
657.4297953263591
 30
0.0
 10
1566.481296881784
 20
657.440080255159
 30
0.0
 11
1564.985225141247
 21
656.6318135617671
 31
0.0
 11
1565.132057396599
 21
656.7110370951
 31
0.0
 11
1565.277230281977
 21
656.789518258473
 31
0.0
 11
1565.348885523643
 21
656.8282664910121
 31
0.0
 11
1565.419755196911
 21
656.8665723779372
 31
0.0
 11
1565.454799253927
 21
656.8855056333629
 31
0.0
 11
1565.489560200593
 21
656.9042852753869
 31
0.0
 11
1565.523931878786
 21
656.9228548946979
 31
0.0
 11
1565.557979998478
 21
656.9412497085132
 31
0.0
 11
1565.793759291939
 21
657.0686316680465
 31
0.0
 11
1566.041918811447
 21
657.202702160012
 31
0.0
 11
1566.193720043449
 21
657.2847141895903
 31
0.0
 11
1566.299127180507
 21
657.3416613772206
 31
0.0
 11
1566.367074745945
 21
657.3783706823551
 31
0.0
 11
1566.424185813863
 21
657.4092254687602
 31
0.0
 11
1566.481296881784
 21
657.440080255159
 31
0.0
  0
SPLINE
  5
48E
330
18C
100
AcDbEntity
  8
0
  6
CONTINUOUS
 62
     1
100
AcDbSpline
210
0.0
220
0.0
230
1.0
 70
     8
 71
     3
 72
    22
 73
    18
 74
    16
 42
0.000000001
 43
0.0000000001
 44
0.00000001
 40
0.0
 40
0.0
 40
0.0
 40
0.0
 40
0.1668414798957575
 40
0.3318701431217662
 40
0.4133311714256389
 40
0.4938907866965106
 40
0.5337223582594862
 40
0.5732318301323552
 40
0.612298990550937
 40
0.6509983914492973
 40
0.8008808231016908
 40
0.9915071124893597
 40
1.201047624787335
 40
1.402317130515171
 40
1.570622801828068
 40
1.63553575834035
 40
1.700448714854204
 40
1.700448714854204
 40
1.700448714854204
 40
1.700448714854204
 10
1564.985225141247
 20
656.6318135617671
 30
0.0
 10
1565.03674467829
 20
656.6527571917328
 30
0.0
 10
1565.139223961131
 20
656.6944169022088
 30
0.0
 10
1565.266922701327
 20
656.7461426699527
 30
0.0
 10
1565.367961227837
 20
656.7870791918666
 30
0.0
 10
1565.430316482163
 20
656.8123570231903
 30
0.0
 10
1565.479707526591
 20
656.832392944411
 30
0.0
 10
1565.51628237179
 20
656.8472291951564
 30
0.0
 10
1565.552507590923
 20
656.8619233718199
 30
0.0
 10
1565.622825705632
 20
656.890446907312
 30
0.0
 10
1565.739958684799
 20
656.93796016449
 30
0.0
 10
1565.90986248419
 20
657.0068791585393
 30
0.0
 10
1566.095639156384
 20
657.0822367390712
 30
0.0
 10
1566.274521247512
 20
657.1547976398548
 30
0.0
 10
1566.408729573848
 20
657.2092372745959
 30
0.0
 10
1566.500818945261
 20
657.2465919866804
 30
0.0
 10
1566.540920663306
 20
657.2628586450885
 30
0.0
 10
1566.560971519607
 20
657.2709919810022
 30
0.0
 11
1564.985225141247
 21
656.6318135617671
 31
0.0
 11
1565.139796907616
 21
656.6946120366997
 31
0.0
 11
1565.292739786966
 21
656.756603450156
 31
0.0
 11
1565.368238716467
 21
656.7871944745998
 31
0.0
 11
1565.442896410953
 21
656.8174612925131
 31
0.0
 11
1565.479807061433
 21
656.8324331986819
 31
0.0
 11
1565.516419014984
 21
656.8472845698261
 31
0.0
 11
1565.552621187623
 21
656.8619694504655
 31
0.0
 11
1565.588482570363
 21
656.8765160946782
 31
0.0
 11
1565.727373383213
 21
656.932855116893
 31
0.0
 11
1565.904020105525
 21
657.0045092703112
 31
0.0
 11
1566.098193977388
 21
657.0832730550082
 31
0.0
 11
1566.284703396436
 21
657.1589278667686
 31
0.0
 11
1566.440666381817
 21
657.2221919654899
 31
0.0
 11
1566.500818950708
 21
657.2465919732558
 31
0.0
 11
1566.560971519607
 21
657.2709919810022
 31
0.0
  0
ENDBLK
  5
18E
330
18C
100
AcDbEntity
  8
0
100
AcDbBlockEnd
  0
BLOCK
  5
191
330
18F
100
AcDbEntity
  8
0
100
AcDbBlockBegin
  2
PD05300A09200_BIELLA_I__83
 70
     0
 10
1543.243779214812
 20
650.7839287572792
 30
0.0
  3
PD05300A09200_BIELLA_I__83
  1

  0
INSERT
  5
190
330
18F
100
AcDbEntity
  8
0
100
AcDbBlockReference
  2
BIELLA_INTERNA_MONTANT__82
 10
1543.243779214812
 20
650.7839287572792
 30
0.0
  0
ENDBLK
  5
192
330
18F
100
AcDbEntity
  8
0
100
AcDbBlockEnd
  0
BLOCK
  5
194
330
193
100
AcDbEntity
  8
0
100
AcDbBlockBegin
  2
BIELLA_INTERNA_PORTA_S__84
 70
     0
 10
1543.243779214812
 20
650.783928757277
 30
0.0
  3
BIELLA_INTERNA_PORTA_S__84
  1

  0
LINE
  5
48F
330
193
100
AcDbEntity
  8
0
  6
CONTINUOUS
 62
     7
100
AcDbLine
 10
1556.119464774491
 20
652.4393294196179
 30
0.0
 11
1553.472760236109
 21
650.783928757277
 31
0.0
  0
LINE
  5
490
330
193
100
AcDbEntity
  8
0
  6
CONTINUOUS
 62
     7
100
AcDbLine
 10
1557.608079177288
 20
655.1396292630479
 30
0.0
 11
1556.047986682227
 21
657.6339522272142
 31
0.0
  0
LINE
  5
491
330
193
100
AcDbEntity
  8
0
  6
CONTINUOUS
 62
     1
100
AcDbLine
 10
1557.828386777791
 20
652.7427821285651
 30
0.0
 11
1559.027939447773
 21
652.7100193726342
 31
0.0
  0
LINE
  5
492
330
193
100
AcDbEntity
  8
0
  6
CONTINUOUS
 62
     1
100
AcDbLine
 10
1556.119464774491
 20
652.4393294196179
 30
0.0
 11
1556.074251680248
 21
650.783928757277
 31
0.0
  0
LINE
  5
493
330
193
100
AcDbEntity
  8
0
  6
CONTINUOUS
 62
     7
100
AcDbLine
 10
1557.828386777791
 20
652.7427821285651
 30
0.0
 11
1557.774885638098
 21
650.783928757277
 31
0.0
  0
LINE
  5
494
330
193
100
AcDbEntity
  8
0
  6
CONTINUOUS
 62
     1
100
AcDbLine
 10
1561.959208896439
 20
655.3234727862009
 30
0.0
 11
1561.657405001624
 21
650.7839287572779
 31
0.0
  0
LINE
  5
495
330
193
100
AcDbEntity
  8
0
  6
CONTINUOUS
 62
     1
100
AcDbLine
 10
1559.027939447773
 20
652.7100193726342
 30
0.0
 11
1558.975333140132
 21
650.7839287572779
 31
0.0
  0
LINE
  5
496
330
193
100
AcDbEntity
  8
0
  6
CONTINUOUS
 62
     1
100
AcDbLine
 10
1558.269667036888
 20
655.199577194991
 30
0.0
 11
1557.741468205409
 21
654.8692113824131
 31
0.0
  0
LINE
  5
497
330
193
100
AcDbEntity
  8
0
  6
CONTINUOUS
 62
     1
100
AcDbLine
 10
1555.252870647256
 20
669.8098183688362
 30
0.0
 11
1555.067779555211
 21
669.4668423253111
 31
0.0
  0
LINE
  5
498
330
193
100
AcDbEntity
  8
0
  6
CONTINUOUS
 62
     7
100
AcDbLine
 10
1563.477767551168
 20
652.5378978833141
 30
0.0
 11
1563.361157885031
 21
650.7839287572792
 31
0.0
  0
LINE
  5
499
330
193
100
AcDbEntity
  8
0
  6
CONTINUOUS
 62
     7
100
AcDbLine
 10
1543.243779214812
 20
676.0385367450672
 30
0.0
 11
1544.733458135497
 21
675.4746949992891
 31
0.0
  0
LINE
  5
49A
330
193
100
AcDbEntity
  8
0
  6
CONTINUOUS
 62
     1
100
AcDbLine
 10
1544.100522436793
 20
673.896562607003
 30
0.0
 11
1543.243779214812
 21
674.2208389240382
 31
0.0
  0
LINE
  5
49B
330
193
100
AcDbEntity
  8
0
  6
CONTINUOUS
 62
     1
100
AcDbLine
 10
1551.923091897858
 20
669.6750201672071
 30
0.0
 11
1544.100522436793
 21
673.896562607003
 31
0.0
  0
LINE
  5
49C
330
193
100
AcDbEntity
  8
0
  6
CONTINUOUS
 62
     7
100
AcDbLine
 10
1543.243779214812
 20
671.9966150426981
 30
0.0
 11
1545.768031982746
 21
670.082484192093
 31
0.0
  0
LINE
  5
49D
330
193
100
AcDbEntity
  8
0
  6
CONTINUOUS
 62
     7
100
AcDbLine
 10
1544.878571571526
 20
675.408431976462
 30
0.0
 11
1555.252870647256
 21
669.8098183688362
 31
0.0
  0
ARC
  5
49E
330
193
100
AcDbEntity
  8
0
  6
CONTINUOUS
 62
     7
100
AcDbCircle
 10
1556.336343164912
 20
654.3442126963355
 30
0.0
 40
1.499999999938796
100
AcDbArc
 50
302.0242205643128
 51
20.48726153872016
  0
ARC
  5
49F
330
193
100
AcDbEntity
  8
0
  6
CONTINUOUS
 62
     7
100
AcDbCircle
 10
1556.33634316488
 20
654.3442126962441
 30
0.0
 40
1.500000000000407
100
AcDbArc
 50
20.48726154156211
 51
32.02422057436511
  0
ARC
  5
4A0
330
193
100
AcDbEntity
  8
0
  6
CONTINUOUS
 62
     7
100
AcDbCircle
 10
1554.929467833282
 20
652.8219587980757
 30
0.0
 40
2.899999998591007
100
AcDbArc
 50
358.4354990396116
 51
12.78827557060092
  0
ARC
  5
4A1
330
193
100
AcDbEntity
  8
0
  6
CONTINUOUS
 62
     1
100
AcDbCircle
 10
1554.929467834214
 20
652.8219587885901
 30
0.0
 40
4.099999999999217
100
AcDbArc
 50
358.4354992270323
 51
35.4439967446058
  0
ARC
  5
4A2
330
193
100
AcDbEntity
  8
0
  6
CONTINUOUS
 62
     7
100
AcDbCircle
 10
1557.152544695241
 20
673.3299374735561
 30
0.0
 40
4.000000000000213
100
AcDbArc
 50
241.6459555143278
 51
262.6725517690969
  0
ARC
  5
4A3
330
193
100
AcDbEntity
  8
0
  6
CONTINUOUS
 62
     1
100
AcDbCircle
 10
1556.939652657225
 20
664.5825277439208
 30
0.0
 40
3.049999999853664
100
AcDbArc
 50
29.69677841230261
 51
86.21255443624351
  0
ARC
  5
4A4
330
193
100
AcDbEntity
  8
0
  6
CONTINUOUS
 62
     7
100
AcDbCircle
 10
1556.939652657455
 20
664.5825277437762
 30
0.0
 40
4.749999999999304
100
AcDbArc
 50
29.69677841376629
 51
86.21255443477052
  0
ARC
  5
4A5
330
193
100
AcDbEntity
  8
0
  6
CONTINUOUS
 62
     7
100
AcDbCircle
 10
1544.308669357121
 20
674.3523962450317
 30
0.0
 40
1.200000000017111
100
AcDbArc
 50
61.6459555142551
 51
69.2684037508879
  0
SPLINE
  5
4A6
330
193
100
AcDbEntity
  8
0
  6
CONTINUOUS
 62
     7
100
AcDbSpline
210
0.0
220
0.0
230
1.0
 70
     8
 71
     3
 72
    28
 73
    24
 74
    22
 42
0.000000001
 43
0.0000000001
 44
0.00000001
 40
0.0
 40
0.0
 40
0.0
 40
0.0
 40
0.0028828765737482
 40
0.0057547465517771
 40
0.0477736269445167
 40
0.0982379012499737
 40
0.1569977334851958
 40
0.2239032876640932
 40
0.2988047278006967
 40
0.3815522179089649
 40
0.4719959220023741
 40
0.5699860040944371
 40
0.6480859944274481
 40
0.7235967416442487
 40
0.7959565143732508
 40
0.8646035812432395
 40
0.9289762108838435
 40
0.988512671923173
 40
1.042651232989088
 40
1.090830162708538
 40
1.132487729713821
 40
1.167062202633838
 40
1.193991850096651
 40
1.193991850096651
 40
1.193991850096651
 40
1.193991850096651
 10
1557.13175973146
 20
653.0724766838403
 30
0.0
 10
1557.1309450072
 20
653.0719671092068
 30
0.0
 10
1557.12931866924
 20
653.0709499054456
 30
0.0
 10
1557.115817455447
 20
653.0625054827792
 30
0.0
 10
1557.088869361197
 20
653.0456506032526
 30
0.0
 10
1557.046126883274
 20
653.0189170073962
 30
0.0
 10
1556.996351231445
 20
652.98778446324
 30
0.0
 10
1556.939669441233
 20
652.9523324239047
 30
0.0
 10
1556.876208546858
 20
652.9126403445914
 30
0.0
 10
1556.806095582974
 20
652.8687876798169
 30
0.0
 10
1556.729457584091
 20
652.8208538843176
 30
0.0
 10
1556.654133005842
 20
652.7737415773291
 30
0.0
 10
1556.583028600709
 20
652.729268808405
 30
0.0
 10
1556.519167526117
 20
652.6893264334101
 30
0.0
 10
1556.457977923344
 20
652.6510549499541
 30
0.0
 10
1556.399936041734
 20
652.6147522316633
 30
0.0
 10
1556.345518130632
 20
652.5807161521602
 30
0.0
 10
1556.295200439371
 20
652.5492445850846
 30
0.0
 10
1556.249459217323
 20
652.5206354040183
 30
0.0
 10
1556.208770716985
 20
652.4951864775444
 30
0.0
 10
1556.173611182599
 20
652.473195687442
 30
0.0
 10
1556.144456864875
 20
652.4549609051496
 30
0.0
 10
1556.127075308375
 20
652.4440894835578
 30
0.0
 10
1556.119464774491
 20
652.4393294196179
 30
0.0
 11
1557.13175973146
 21
653.0724766838403
 31
0.0
 11
1557.129315558824
 21
653.070947959712
 31
0.0
 11
1557.126880718414
 21
653.0694250712249
 31
0.0
 11
1557.091256102818
 21
653.0471433955071
 31
0.0
 11
1557.0484712795
 21
653.0203833156334
 31
0.0
 11
1556.998653283008
 21
652.9892242862877
 31
0.0
 11
1556.941929147886
 21
652.9537457621539
 31
0.0
 11
1556.878425908682
 21
652.9140271979154
 31
0.0
 11
1556.808270599943
 21
652.8701480482557
 31
0.0
 11
1556.731590256214
 21
652.8221877678591
 31
0.0
 11
1556.648511912042
 21
652.7702258114091
 31
0.0
 11
1556.582296865191
 21
652.7288111272919
 31
0.0
 11
1556.518277040817
 21
652.6887694610881
 31
0.0
 11
1556.456928688264
 21
652.6503986864236
 31
0.0
 11
1556.398728056874
 21
652.6139966769238
 31
0.0
 11
1556.344151395989
 21
652.5798613062146
 31
0.0
 11
1556.293674954952
 21
652.5482904479223
 31
0.0
 11
1556.247774983106
 21
652.5195819756727
 31
0.0
 11
1556.206927729795
 21
652.4940337630917
 31
0.0
 11
1556.17160944436
 21
652.471943683805
 31
0.0
 11
1556.142296376145
 21
652.4536096114384
 31
0.0
 11
1556.119464774491
 21
652.4393294196179
 31
0.0
  0
SPLINE
  5
4A7
330
193
100
AcDbEntity
  8
0
  6
CONTINUOUS
 62
     7
100
AcDbSpline
210
0.0
220
0.0
230
1.0
 70
     8
 71
     3
 72
    11
 73
     7
 74
     5
 42
0.000000001
 43
0.0000000001
 44
0.00000001
 40
0.0
 40
0.0
 40
0.0
 40
0.0
 40
0.1505233590578092
 40
0.2934393733780712
 40
0.5247713201709654
 40
0.7380926175882928
 40
0.7380926175882928
 40
0.7380926175882928
 40
0.7380926175882928
 10
1557.757532372979
 20
653.4638707477511
 30
0.0
 10
1557.714993266847
 20
653.4372643540597
 30
0.0
 10
1557.63206495123
 20
653.3853962348975
 30
0.0
 10
1557.483760376259
 20
653.292638057145
 30
0.0
 10
1557.317708601808
 20
653.1887797629907
 30
0.0
 10
1557.192046037
 20
653.1101831940512
 30
0.0
 10
1557.13175973146
 20
653.0724766838403
 30
0.0
 11
1557.757532372979
 21
653.4638707477511
 31
0.0
 11
1557.629915054725
 21
653.3840515664507
 31
0.0
 11
1557.508747426518
 21
653.3082663896412
 31
0.0
 11
1557.31261864823
 21
653.1855962142354
 31
0.0
 11
1557.13175973146
 21
653.0724766838403
 31
0.0
  0
SPLINE
  5
4A8
330
193
100
AcDbEntity
  8
0
  6
CONTINUOUS
 62
     7
100
AcDbSpline
210
0.0
220
0.0
230
1.0
 70
     8
 71
     3
 72
    17
 73
    13
 74
    11
 42
0.000000001
 43
0.0000000001
 44
0.00000001
 40
0.0
 40
0.0
 40
0.0
 40
0.0
 40
0.0125570257491186
 40
0.0251140515456035
 40
0.1205586000230779
 40
0.2165939660690777
 40
0.4436610400417368
 40
0.6759358489466478
 40
0.9470504874822405
 40
1.224824440544654
 40
1.514705675318953
 40
1.812562451899342
 40
1.812562451899342
 40
1.812562451899342
 40
1.812562451899342
 10
1557.757532372979
 20
653.4638707477511
 30
0.0
 10
1557.75913849615
 20
653.4677360109215
 30
0.0
 10
1557.762350729238
 20
653.4754665427816
 30
0.0
 10
1557.777689128704
 20
653.5126103764791
 30
0.0
 10
1557.803182656584
 20
653.575666515381
 30
0.0
 10
1557.853786594397
 20
653.7056844596261
 30
0.0
 10
1557.917260748094
 20
653.879619449642
 30
0.0
 10
1557.994233168912
 20
654.1106483154807
 30
0.0
 10
1558.069402287907
 20
654.359994908022
 30
0.0
 10
1558.142146472437
 20
654.6299868375611
 30
0.0
 10
1558.209918877918
 20
654.9104715970748
 30
0.0
 10
1558.249571627507
 20
655.1023407799187
 30
0.0
 10
1558.269667036888
 20
655.199577194991
 30
0.0
 11
1557.757532372979
 21
653.4638707477511
 31
0.0
 11
1557.762346481445
 21
653.4754683021395
 31
0.0
 11
1557.767140213422
 21
653.4870742937751
 31
0.0
 11
1557.802916557278
 21
653.5755599732245
 31
0.0
 11
1557.837755583754
 21
653.6650531792739
 31
0.0
 11
1557.91566495792
 21
653.8783360565569
 31
0.0
 11
1557.989159881965
 21
654.0986768899911
 31
0.0
 11
1558.067489332926
 21
654.3582296669979
 31
0.0
 11
1558.13995142508
 21
654.6263856176251
 31
0.0
 11
1558.207745034703
 21
654.9082280495034
 31
0.0
 11
1558.269667036888
 21
655.199577194991
 31
0.0
  0
SPLINE
  5
4A9
330
193
100
AcDbEntity
  8
0
  6
CONTINUOUS
 62
     1
100
AcDbSpline
210
0.0
220
0.0
230
1.0
 70
     8
 71
     3
 72
    19
 73
    15
 74
    13
 42
0.000000001
 43
0.0000000001
 44
0.00000001
 40
0.0
 40
0.0
 40
0.0
 40
0.0
 40
0.0649986591755743
 40
0.1299973183500712
 40
0.3234535984945435
 40
0.4981890560609792
 40
0.7700623626378312
 40
1.04860941301979
 40
1.126540236602765
 40
1.205855927945009
 40
1.286508415718203
 40
1.368064602679744
 40
1.533288058438417
 40
1.700326303379231
 40
1.700326303379231
 40
1.700326303379231
 40
1.700326303379231
 10
1544.733458135497
 20
675.4746949992891
 30
0.0
 10
1544.725393022286
 20
675.4545858216311
 30
0.0
 10
1544.70926280929
 20
675.4143674609309
 30
0.0
 10
1544.669128282285
 20
675.3142979250762
 30
0.0
 10
1544.615377499156
 20
675.180278191963
 30
0.0
 10
1544.535957411663
 20
674.9822559406205
 30
0.0
 10
1544.445979371123
 20
674.7579083617422
 30
0.0
 10
1544.368012225621
 20
674.5635103381867
 30
0.0
 10
1544.313939209902
 20
674.4286849316051
 30
0.0
 10
1544.284417738034
 20
674.3550852034905
 30
0.0
 10
1544.254460423609
 20
674.2803582525872
 30
0.0
 10
1544.213867389945
 20
674.1790437546564
 30
0.0
 10
1544.162574093316
 20
674.050995907445
 30
0.0
 10
1544.121281496776
 20
673.9482274802065
 30
0.0
 10
1544.100522436793
 20
673.896562607003
 30
0.0
 11
1544.733458135497
 21
675.4746949992891
 31
0.0
 11
1544.7092627958
 21
675.4143674663426
 31
0.0
 11
1544.68506745613
 21
675.3540399333851
 31
0.0
 11
1544.613054579788
 21
675.174486381573
 31
0.0
 11
1544.548010411228
 21
675.0123082811178
 31
0.0
 11
1544.446807292961
 21
674.7599731395261
 31
0.0
 11
1544.3431199158
 21
674.5014438624721
 31
0.0
 11
1544.31411053094
 21
674.4291135862775
 31
0.0
 11
1544.284585900808
 21
674.355497860317
 31
0.0
 11
1544.2545749282
 21
674.2806368871259
 31
0.0
 11
1544.224240543829
 21
674.2049319549451
 31
0.0
 11
1544.162772249233
 21
674.0515682072983
 31
0.0
 11
1544.100522436793
 21
673.896562607003
 31
0.0
  0
SPLINE
  5
4AA
330
193
100
AcDbEntity
  8
0
  6
CONTINUOUS
 62
     1
100
AcDbSpline
210
0.0
220
0.0
230
1.0
 70
     8
 71
     3
 72
    19
 73
    15
 74
    13
 42
0.000000001
 43
0.0000000001
 44
0.00000001
 40
0.0
 40
0.0
 40
0.0
 40
0.0
 40
0.0649986591804144
 40
0.1299973183593677
 40
0.3194391351657067
 40
0.4981890560797888
 40
0.8080729192605176
 40
1.048609413044399
 40
1.126540236628196
 40
1.205855927969908
 40
1.286508415861872
 40
1.368064602705426
 40
1.533288058411876
 40
1.70032630340588
 40
1.70032630340588
 40
1.70032630340588
 40
1.70032630340588
 10
1544.878571571526
 20
675.408431976462
 30
0.0
 10
1544.868657366342
 20
675.389167148074
 30
0.0
 10
1544.848828943111
 20
675.3506374979181
 30
0.0
 10
1544.800105098066
 20
675.2559595388553
 30
0.0
 10
1544.734030824507
 20
675.1275670705187
 30
0.0
 10
1544.630604408627
 20
674.9265935208437
 30
0.0
 10
1544.519384324798
 20
674.7104762351112
 30
0.0
 10
1544.423542808238
 20
674.5242401724261
 30
0.0
 10
1544.36286851801
 20
674.40634238402
 30
0.0
 10
1544.326584492512
 20
674.3358306347885
 30
0.0
 10
1544.289734081227
 20
674.2642512727698
 30
0.0
 10
1544.239757398183
 20
674.1672216225534
 30
0.0
 10
1544.176586533024
 20
674.044597419238
 30
0.0
 10
1544.125969295812
 20
673.9460868946053
 30
0.0
 10
1544.100522436793
 20
673.896562607003
 30
0.0
 11
1544.878571571526
 21
675.408431976462
 31
0.0
 11
1544.848828956051
 21
675.3506374912597
 31
0.0
 11
1544.819086340602
 21
675.2928430060442
 31
0.0
 11
1544.732400012379
 21
675.1243981116304
 31
0.0
 11
1544.650606168906
 21
674.9654600689951
 31
0.0
 11
1544.508806988984
 21
674.6899224105284
 31
0.0
 11
1544.398740342704
 21
674.4760459550253
 31
0.0
 11
1544.363080245694
 21
674.406752587769
 31
0.0
 11
1544.32678619768
 21
674.3362279752441
 31
0.0
 11
1544.28986964992
 21
674.264520288734
 31
0.0
 11
1544.252527143581
 21
674.192015469358
 31
0.0
 11
1544.176889235667
 21
674.0451219800472
 31
0.0
 11
1544.100522436793
 21
673.896562607003
 31
0.0
  0
ENDBLK
  5
195
330
193
100
AcDbEntity
  8
0
100
AcDbBlockEnd
  0
BLOCK
  5
198
330
196
100
AcDbEntity
  8
0
100
AcDbBlockBegin
  2
PD05300A09100_BIELLA_I__85
 70
     0
 10
1543.243779214812
 20
650.783928757277
 30
0.0
  3
PD05300A09100_BIELLA_I__85
  1

  0
INSERT
  5
197
330
196
100
AcDbEntity
  8
0
100
AcDbBlockReference
  2
BIELLA_INTERNA_PORTA_S__84
 10
1543.243779214812
 20
650.783928757277
 30
0.0
  0
ENDBLK
  5
199
330
196
100
AcDbEntity
  8
0
100
AcDbBlockEnd
  0
BLOCK
  5
19D
330
19A
100
AcDbEntity
  8
0
100
AcDbBlockBegin
  2
GFS00600A00100_GRUPPO___86
 70
     0
 10
1543.243779214812
 20
650.783928757277
 30
0.0
  3
GFS00600A00100_GRUPPO___86
  1

  0
INSERT
  5
19B
330
19A
100
AcDbEntity
  8
0
100
AcDbBlockReference
  2
PD05300A09200_BIELLA_I__83
 10
1543.243779214812
 20
650.7839287572792
 30
0.0
  0
INSERT
  5
19C
330
19A
100
AcDbEntity
  8
0
100
AcDbBlockReference
  2
PD05300A09100_BIELLA_I__85
 10
1543.243779214812
 20
650.783928757277
 30
0.0
  0
ENDBLK
  5
19E
330
19A
100
AcDbEntity
  8
0
100
AcDbBlockEnd
  0
BLOCK
  5
1A2
330
19F
100
AcDbEntity
  8
0
100
AcDbBlockBegin
  2
GFS00600A00200_GRUPPO___87
 70
     0
 10
1543.243779214812
 20
650.783928757277
 30
0.0
  3
GFS00600A00200_GRUPPO___87
  1

  0
INSERT
  5
1A0
330
19F
100
AcDbEntity
  8
0
100
AcDbBlockReference
  2
PD02100A09500_SPINA_Ø3__81
 10
1554.939652657045
 20
662.5825277437821
 30
0.0
  0
INSERT
  5
1A1
330
19F
100
AcDbEntity
  8
0
100
AcDbBlockReference
  2
GFS00600A00100_GRUPPO___86
 10
1543.243779214812
 20
650.783928757277
 30
0.0
  0
ENDBLK
  5
1A3
330
19F
100
AcDbEntity
  8
0
100
AcDbBlockEnd
  0
BLOCK
  5
1A7
330
1A4
100
AcDbEntity
  8
0
100
AcDbBlockBegin
  2
GFS00600A00300_GRUPPO___88
 70
     0
 10
1543.243779214812
 20
650.783928757277
 30
0.0
  3
GFS00600A00300_GRUPPO___88
  1

  0
INSERT
  5
1A5
330
1A4
100
AcDbEntity
  8
0
100
AcDbBlockReference
  2
PD00700A24600_CORPO_RE__80
 10
1543.243779214812
 20
658.6207645470922
 30
0.0
  0
INSERT
  5
1A6
330
1A4
100
AcDbEntity
  8
0
100
AcDbBlockReference
  2
GFS00600A00200_GRUPPO___87
 10
1543.243779214812
 20
650.783928757277
 30
0.0
  0
ENDBLK
  5
1A8
330
1A4
100
AcDbEntity
  8
0
100
AcDbBlockEnd
  0
BLOCK
  5
1AB
330
1A9
100
AcDbEntity
  8
0
100
AcDbBlockBegin
  2
GFS0060A00400_GRUPPO_B__89
 70
     0
 10
1543.243779214812
 20
650.783928757277
 30
0.0
  3
GFS0060A00400_GRUPPO_B__89
  1

  0
INSERT
  5
1AA
330
1A9
100
AcDbEntity
  8
0
100
AcDbBlockReference
  2
GFS00600A00300_GRUPPO___88
 10
1543.243779214812
 20
650.783928757277
 30
0.0
  0
ENDBLK
  5
1AC
330
1A9
100
AcDbEntity
  8
0
100
AcDbBlockEnd
  0
BLOCK
  5
1AF
330
1AD
100
AcDbEntity
  8
0
100
AcDbBlockBegin
  2
GFS0060A00500_GRUPPO_C__90
 70
     0
 10
1543.243779214812
 20
650.783928757277
 30
0.0
  3
GFS0060A00500_GRUPPO_C__90
  1

  0
INSERT
  5
1AE
330
1AD
100
AcDbEntity
  8
0
100
AcDbBlockReference
  2
GFS0060A00400_GRUPPO_B__89
 10
1543.243779214812
 20
650.783928757277
 30
0.0
  0
ENDBLK
  5
1B0
330
1AD
100
AcDbEntity
  8
0
100
AcDbBlockEnd
  0
BLOCK
  5
1B3
330
1B1
100
AcDbEntity
  8
0
100
AcDbBlockBegin
  2
GFS0060A00700_GRUPPO_C__91
 70
     0
 10
1543.243779214812
 20
650.783928757277
 30
0.0
  3
GFS0060A00700_GRUPPO_C__91
  1

  0
INSERT
  5
1B2
330
1B1
100
AcDbEntity
  8
0
100
AcDbBlockReference
  2
GFS0060A00500_GRUPPO_C__90
 10
1543.243779214812
 20
650.783928757277
 30
0.0
  0
ENDBLK
  5
1B4
330
1B1
100
AcDbEntity
  8
0
100
AcDbBlockEnd
  0
BLOCK
  5
1B7
330
1B5
100
AcDbEntity
  8
0
100
AcDbBlockBegin
  2
00S0060A00100_CERNIERA__92
 70
     0
 10
1543.243779214812
 20
650.783928757277
 30
0.0
  3
00S0060A00100_CERNIERA__92
  1

  0
INSERT
  5
1B6
330
1B5
100
AcDbEntity
  8
0
100
AcDbBlockReference
  2
GFS0060A00700_GRUPPO_C__91
 10
1543.243779214812
 20
650.783928757277
 30
0.0
  0
ENDBLK
  5
1B8
330
1B5
100
AcDbEntity
  8
0
100
AcDbBlockEnd
  0
BLOCK
  5
1BA
330
1B9
100
AcDbEntity
  8
0
100
AcDbBlockBegin
  2
SCASSO_PORTA_S0043_3__93
 70
     0
 10
1545.802573541641
 20
612.7839287572701
 30
0.0
  3
SCASSO_PORTA_S0043_3__93
  1

  0
LINE
  5
4AB
330
1B9
100
AcDbEntity
  8
0
  6
CONTINUOUS
 62
     7
100
AcDbLine
 10
1545.802573541642
 20
612.7839287572701
 30
0.0
 11
1545.802573541641
 21
648.7839287572751
 31
0.0
  0
LINE
  5
4AC
330
1B9
100
AcDbEntity
  8
0
  6
CONTINUOUS
 62
     7
100
AcDbLine
 10
1581.802573541635
 20
650.783928757276
 30
0.0
 11
1547.80257354164
 21
650.783928757276
 31
0.0
  0
ARC
  5
4AD
330
1B9
100
AcDbEntity
  8
0
  6
CONTINUOUS
 62
     7
100
AcDbCircle
 10
1547.802573541641
 20
648.783928757276
 30
0.0
 40
2.0
100
AcDbArc
 50
90.00000000003257
 51
180.0000000000261
  0
ENDBLK
  5
1BB
330
1B9
100
AcDbEntity
  8
0
100
AcDbBlockEnd
  0
BLOCK
  5
1BE
330
1BC
100
AcDbEntity
  8
0
100
AcDbBlockBegin
  2
PX004194_GRUPPO_N_3_SC__94
 70
     0
 10
1545.802573541641
 20
612.7839287572701
 30
0.0
  3
PX004194_GRUPPO_N_3_SC__94
  1

  0
INSERT
  5
1BD
330
1BC
100
AcDbEntity
  8
0
100
AcDbBlockReference
  2
SCASSO_PORTA_S0043_3__93
 10
1545.802573541641
 20
612.7839287572701
 30
0.0
  0
ENDBLK
  5
1BF
330
1BC
100
AcDbEntity
  8
0
100
AcDbBlockEnd
  0
BLOCK
  5
1C2
330
1C0
100
AcDbEntity
  8
0
100
AcDbBlockBegin
  2
FRESATE_CERNIERE_TELAI__95
 70
     0
 10
1545.802573541641
 20
612.7839287572701
 30
0.0
  3
FRESATE_CERNIERE_TELAI__95
  1

  0
INSERT
  5
1C1
330
1C0
100
AcDbEntity
  8
0
100
AcDbBlockReference
  2
PX004194_GRUPPO_N_3_SC__94
 10
1545.802573541641
 20
612.7839287572701
 30
0.0
  0
ENDBLK
  5
1C3
330
1C0
100
AcDbEntity
  8
0
100
AcDbBlockEnd
  0
BLOCK
  5
1C5
330
1C4
100
AcDbEntity
  8
0
100
AcDbBlockBegin
  2
PX000467_1__96
 70
     0
 10
1593.802573541798
 20
-267.9920025619731
 30
0.0
  3
PX000467_1__96
  1

  0
LINE
  5
4AE
330
1C4
100
AcDbEntity
  8
0
  6
CONTINUOUS
 62
     7
100
AcDbLine
 10
1593.802573541798
 20
-263.2595993956688
 30
0.0
 11
1599.691782195423
 21
-250.630150681629
 31
0.0
  0
LINE
  5
4AF
330
1C4
100
AcDbEntity
  8
0
  6
CONTINUOUS
 62
     7
100
AcDbLine
 10
1601.504397769495
 20
-251.4753872051078
 30
0.0
 11
1599.691782195423
 21
-250.630150681629
 31
0.0
  0
LINE
  5
4B0
330
1C4
100
AcDbEntity
  8
0
  6
CONTINUOUS
 62
     7
100
AcDbLine
 10
1593.802573541799
 20
-267.9920025619731
 30
0.0
 11
1601.504397769495
 21
-251.4753872051078
 31
0.0
  0
ENDBLK
  5
1C6
330
1C4
100
AcDbEntity
  8
0
100
AcDbBlockEnd
  0
BLOCK
  5
1C8
330
1C7
100
AcDbEntity
  8
0
100
AcDbBlockBegin
  2
PX000466_1__97
 70
     0
 10
1591.802573541796
 20
-284.2160712427199
 30
0.0
  3
PX000466_1__97
  1

  0
LINE
  5
4B1
330
1C7
100
AcDbEntity
  8
0
  6
CONTINUOUS
 62
     7
100
AcDbLine
 10
1593.802573541801
 20
-284.2160712427199
 30
0.0
 11
1591.802573541802
 21
-284.2160712427199
 31
0.0
  0
LINE
  5
4B2
330
1C7
100
AcDbEntity
  8
0
  6
CONTINUOUS
 62
     7
100
AcDbLine
 10
1593.802573541801
 20
-284.2160712427199
 30
0.0
 11
1593.802573541801
 21
-282.2160712427199
 31
0.0
  0
LINE
  5
4B3
330
1C7
100
AcDbEntity
  8
0
  6
CONTINUOUS
 62
     7
100
AcDbLine
 10
1593.802573541795
 20
-250.2160712427199
 30
0.0
 11
1593.802573541801
 21
-282.2160712427199
 31
0.0
  0
LINE
  5
4B4
330
1C7
100
AcDbEntity
  8
0
  6
CONTINUOUS
 62
     1
100
AcDbLine
 10
1593.802573541801
 20
-282.2160712427199
 30
0.0
 11
1591.802573541802
 21
-282.2160712427199
 31
0.0
  0
LINE
  5
4B5
330
1C7
100
AcDbEntity
  8
0
  6
CONTINUOUS
 62
     7
100
AcDbLine
 10
1593.802573541798
 20
-248.2160712427199
 30
0.0
 11
1593.802573541795
 21
-250.2160712427199
 31
0.0
  0
LINE
  5
4B6
330
1C7
100
AcDbEntity
  8
0
  6
CONTINUOUS
 62
     7
100
AcDbLine
 10
1593.802573541798
 20
-248.2160712427199
 30
0.0
 11
1591.802573541797
 21
-248.2160712427199
 31
0.0
  0
LINE
  5
4B7
330
1C7
100
AcDbEntity
  8
0
  6
CONTINUOUS
 62
     7
100
AcDbLine
 10
1591.802573541802
 20
-284.2160712427199
 30
0.0
 11
1591.802573541802
 21
-282.2160712427199
 31
0.0
  0
LINE
  5
4B8
330
1C7
100
AcDbEntity
  8
0
  6
CONTINUOUS
 62
     7
100
AcDbLine
 10
1591.802573541801
 20
-281.2160712427199
 30
0.0
 11
1591.802573541802
 21
-282.2160712427199
 31
0.0
  0
LINE
  5
4B9
330
1C7
100
AcDbEntity
  8
0
  6
CONTINUOUS
 62
     7
100
AcDbLine
 10
1591.802573541797
 20
-251.2160712427199
 30
0.0
 11
1591.802573541797
 21
-257.2160712427199
 31
0.0
  0
LINE
  5
4BA
330
1C7
100
AcDbEntity
  8
0
  6
CONTINUOUS
 62
     1
100
AcDbLine
 10
1593.802573541795
 20
-250.2160712427199
 30
0.0
 11
1591.802573541796
 21
-250.2160712427199
 31
0.0
  0
LINE
  5
4BB
330
1C7
100
AcDbEntity
  8
0
  6
CONTINUOUS
 62
     7
100
AcDbLine
 10
1591.802573541797
 20
-248.2160712427199
 30
0.0
 11
1591.802573541796
 21
-250.2160712427199
 31
0.0
  0
LINE
  5
4BC
330
1C7
100
AcDbEntity
  8
0
  6
CONTINUOUS
 62
     7
100
AcDbLine
 10
1591.802573541796
 20
-250.2160712427199
 30
0.0
 11
1591.802573541797
 21
-251.2160712427199
 31
0.0
  0
LINE
  5
4BD
330
1C7
100
AcDbEntity
  8
0
  6
CONTINUOUS
 62
     7
100
AcDbLine
 10
1591.802573541801
 20
-275.2160712427199
 30
0.0
 11
1591.802573541801
 21
-281.2160712427199
 31
0.0
  0
LINE
  5
4BE
330
1C7
100
AcDbEntity
  8
0
  6
CONTINUOUS
 62
     7
100
AcDbLine
 10
1591.802573541797
 20
-257.2160712427199
 30
0.0
 11
1591.802573541801
 21
-275.2160712427199
 31
0.0
  0
ENDBLK
  5
1C9
330
1C7
100
AcDbEntity
  8
0
100
AcDbBlockEnd
  0
BLOCK
  5
1CD
330
1CA
100
AcDbEntity
  8
0
100
AcDbBlockBegin
  2
CM06100A01100_MANIGLIA__98
 70
     0
 10
1591.802573541796
 20
-284.2160712427199
 30
0.0
  3
CM06100A01100_MANIGLIA__98
  1

  0
INSERT
  5
1CB
330
1CA
100
AcDbEntity
  8
0
100
AcDbBlockReference
  2
PX000467_1__96
 10
1593.802573541798
 20
-267.9920025619731
 30
0.0
  0
INSERT
  5
1CC
330
1CA
100
AcDbEntity
  8
0
100
AcDbBlockReference
  2
PX000466_1__97
 10
1591.802573541796
 20
-284.2160712427199
 30
0.0
  0
ENDBLK
  5
1CE
330
1CA
100
AcDbEntity
  8
0
100
AcDbBlockEnd
  0
BLOCK
  5
1D0
330
1CF
100
AcDbEntity
  8
0
100
AcDbBlockBegin
  2
PX001595_PX001297_1187__99
 70
     0
 10
1545.802573541641
 20
-364.2160712427249
 30
0.0
  3
PX001595_PX001297_1187__99
  1

  0
LINE
  5
4BF
330
1CF
100
AcDbEntity
  8
0
  6
CONTINUOUS
 62
     7
100
AcDbLine
 10
1545.802573541812
 20
-362.2160712427249
 30
0.0
 11
1545.802573541802
 21
-284.2160712427281
 31
0.0
  0
LINE
  5
4C0
330
1CF
100
AcDbEntity
  8
0
  6
CONTINUOUS
 62
     7
100
AcDbLine
 10
1545.802573541796
 20
-248.2160712427281
 30
0.0
 11
1545.802573541642
 21
612.7839287572701
 31
0.0
  0
LINE
  5
4C1
330
1CF
100
AcDbEntity
  8
0
  6
CONTINUOUS
 62
     7
100
AcDbLine
 10
1545.802573541642
 20
612.7839287572701
 30
0.0
 11
1545.802573541641
 21
648.7839287572751
 31
0.0
  0
LINE
  5
4C2
330
1CF
100
AcDbEntity
  8
0
  6
CONTINUOUS
 62
     7
100
AcDbLine
 10
1591.802573541641
 20
648.7839287572829
 30
0.0
 11
1591.802573541797
 21
-248.2160712427199
 31
0.0
  0
LINE
  5
4C3
330
1CF
100
AcDbEntity
  8
0
  6
CONTINUOUS
 62
     7
100
AcDbLine
 10
1589.802573541641
 20
650.7839287572829
 30
0.0
 11
1581.802573541635
 21
650.783928757276
 31
0.0
  0
LINE
  5
4C4
330
1CF
100
AcDbEntity
  8
0
  6
CONTINUOUS
 62
     7
100
AcDbLine
 10
1581.802573541635
 20
650.783928757276
 30
0.0
 11
1547.80257354164
 21
650.783928757276
 31
0.0
  0
LINE
  5
4C5
330
1CF
100
AcDbEntity
  8
0
  6
CONTINUOUS
 62
     7
100
AcDbLine
 10
1589.802573541812
 20
-364.2160712427171
 30
0.0
 11
1547.802573541812
 21
-364.2160712427249
 31
0.0
  0
LINE
  5
4C6
330
1CF
100
AcDbEntity
  8
0
  6
CONTINUOUS
 62
     7
100
AcDbLine
 10
1591.802573541802
 20
-284.2160712427199
 30
0.0
 11
1591.802573541812
 21
-362.2160712427171
 31
0.0
  0
LINE
  5
4C7
330
1CF
100
AcDbEntity
  8
0
  6
CONTINUOUS
 62
     7
100
AcDbLine
 10
1591.802573541802
 20
-284.2160712427199
 30
0.0
 11
1591.802573541802
 21
-282.2160712427199
 31
0.0
  0
LINE
  5
4C8
330
1CF
100
AcDbEntity
  8
0
  6
CONTINUOUS
 62
     7
100
AcDbLine
 10
1545.802573541802
 20
-282.2160712427281
 30
0.0
 11
1545.802573541802
 21
-284.2160712427281
 31
0.0
  0
LINE
  5
4C9
330
1CF
100
AcDbEntity
  8
0
  6
CONTINUOUS
 62
     7
100
AcDbLine
 10
1545.802573541802
 20
-282.2160712427281
 30
0.0
 11
1545.802573541802
 21
-281.2160712427281
 31
0.0
  0
LINE
  5
4CA
330
1CF
100
AcDbEntity
  8
0
  6
CONTINUOUS
 62
     7
100
AcDbLine
 10
1545.802573541797
 20
-251.2160712427281
 30
0.0
 11
1545.802573541797
 21
-250.2160712427281
 31
0.0
  0
LINE
  5
4CB
330
1CF
100
AcDbEntity
  8
0
  6
CONTINUOUS
 62
     7
100
AcDbLine
 10
1545.802573541798
 20
-257.2160712427281
 30
0.0
 11
1545.802573541797
 21
-251.2160712427281
 31
0.0
  0
LINE
  5
4CC
330
1CF
100
AcDbEntity
  8
0
  6
CONTINUOUS
 62
     7
100
AcDbLine
 10
1545.802573541802
 20
-281.2160712427281
 30
0.0
 11
1545.802573541801
 21
-275.2160712427281
 31
0.0
  0
LINE
  5
4CD
330
1CF
100
AcDbEntity
  8
0
  6
CONTINUOUS
 62
     7
100
AcDbLine
 10
1545.802573541797
 20
-250.2160712427281
 30
0.0
 11
1545.802573541796
 21
-248.2160712427281
 31
0.0
  0
LINE
  5
4CE
330
1CF
100
AcDbEntity
  8
0
  6
CONTINUOUS
 62
     7
100
AcDbLine
 10
1591.802573541801
 20
-281.2160712427199
 30
0.0
 11
1591.802573541802
 21
-282.2160712427199
 31
0.0
  0
LINE
  5
4CF
330
1CF
100
AcDbEntity
  8
0
  6
CONTINUOUS
 62
     7
100
AcDbLine
 10
1591.802573541797
 20
-251.2160712427199
 30
0.0
 11
1591.802573541797
 21
-257.2160712427199
 31
0.0
  0
LINE
  5
4D0
330
1CF
100
AcDbEntity
  8
0
  6
CONTINUOUS
 62
     7
100
AcDbLine
 10
1591.802573541797
 20
-248.2160712427199
 30
0.0
 11
1591.802573541796
 21
-250.2160712427199
 31
0.0
  0
LINE
  5
4D1
330
1CF
100
AcDbEntity
  8
0
  6
CONTINUOUS
 62
     7
100
AcDbLine
 10
1591.802573541796
 20
-250.2160712427199
 30
0.0
 11
1591.802573541797
 21
-251.2160712427199
 31
0.0
  0
LINE
  5
4D2
330
1CF
100
AcDbEntity
  8
0
  6
CONTINUOUS
 62
     7
100
AcDbLine
 10
1591.802573541801
 20
-275.2160712427199
 30
0.0
 11
1591.802573541801
 21
-281.2160712427199
 31
0.0
  0
LINE
  5
4D3
330
1CF
100
AcDbEntity
  8
0
  6
CONTINUOUS
 62
     7
100
AcDbLine
 10
1545.802573541801
 20
-275.2160712427281
 30
0.0
 11
1545.802573541798
 21
-257.2160712427281
 31
0.0
  0
LINE
  5
4D4
330
1CF
100
AcDbEntity
  8
0
  6
CONTINUOUS
 62
     7
100
AcDbLine
 10
1591.802573541797
 20
-257.2160712427199
 30
0.0
 11
1591.802573541801
 21
-275.2160712427199
 31
0.0
  0
ARC
  5
4D5
330
1CF
100
AcDbEntity
  8
0
  6
CONTINUOUS
 62
     7
100
AcDbCircle
 10
1547.802573541641
 20
648.783928757276
 30
0.0
 40
2.0
100
AcDbArc
 50
90.00000000003257
 51
180.0000000000261
  0
ARC
  5
4D6
330
1CF
100
AcDbEntity
  8
0
  6
CONTINUOUS
 62
     7
100
AcDbCircle
 10
1547.802573541812
 20
-362.2160712427249
 30
0.0
 40
2.0
100
AcDbArc
 50
180.0
 51
270.0
  0
ARC
  5
4D7
330
1CF
100
AcDbEntity
  8
0
  6
CONTINUOUS
 62
     7
100
AcDbCircle
 10
1589.802573541641
 20
648.7839287572829
 30
0.0
 40
2.0
100
AcDbArc
 50
0.0
 51
90.0
  0
ARC
  5
4D8
330
1CF
100
AcDbEntity
  8
0
  6
CONTINUOUS
 62
     7
100
AcDbCircle
 10
1589.802573541812
 20
-362.2160712427171
 30
0.0
 40
2.0
100
AcDbArc
 50
270.0
 51
0.0
  0
ENDBLK
  5
1D1
330
1CF
100
AcDbEntity
  8
0
100
AcDbBlockEnd
  0
BLOCK
  5
1D4
330
1D2
100
AcDbEntity
  8
0
100
AcDbBlockBegin
  2
PX001681_PANNELLO_1015_100
 70
     0
 10
1545.802573541641
 20
-364.2160712427249
 30
0.0
  3
PX001681_PANNELLO_1015_100
  1

  0
INSERT
  5
1D3
330
1D2
100
AcDbEntity
  8
0
100
AcDbBlockReference
  2
PX001595_PX001297_1187__99
 10
1545.802573541641
 20
-364.2160712427249
 30
0.0
  0
ENDBLK
  5
1D5
330
1D2
100
AcDbEntity
  8
0
100
AcDbBlockEnd
  0
BLOCK
  5
1D7
330
1D6
100
AcDbEntity
  8
0
100
AcDbBlockBegin
  2
PX000466_1__101
 70
     0
 10
1543.802573541797
 20
-284.216071242729
 30
0.0
  3
PX000466_1__101
  1

  0
LINE
  5
4D9
330
1D6
100
AcDbEntity
  8
0
  6
CONTINUOUS
 62
     7
100
AcDbLine
 10
1543.802573541803
 20
-282.216071242729
 30
0.0
 11
1543.802573541798
 21
-250.2160712427281
 31
0.0
  0
LINE
  5
4DA
330
1D6
100
AcDbEntity
  8
0
  6
CONTINUOUS
 62
     7
100
AcDbLine
 10
1543.802573541798
 20
-250.2160712427281
 30
0.0
 11
1543.802573541797
 21
-248.216071242729
 31
0.0
  0
LINE
  5
4DB
330
1D6
100
AcDbEntity
  8
0
  6
CONTINUOUS
 62
     7
100
AcDbLine
 10
1543.802573541803
 20
-282.216071242729
 30
0.0
 11
1543.802573541803
 21
-284.216071242729
 31
0.0
  0
LINE
  5
4DC
330
1D6
100
AcDbEntity
  8
0
  6
CONTINUOUS
 62
     7
100
AcDbLine
 10
1545.802573541802
 20
-282.2160712427281
 30
0.0
 11
1545.802573541802
 21
-284.2160712427281
 31
0.0
  0
LINE
  5
4DD
330
1D6
100
AcDbEntity
  8
0
  6
CONTINUOUS
 62
     7
100
AcDbLine
 10
1543.802573541803
 20
-284.216071242729
 30
0.0
 11
1545.802573541802
 21
-284.2160712427281
 31
0.0
  0
LINE
  5
4DE
330
1D6
100
AcDbEntity
  8
0
  6
CONTINUOUS
 62
     7
100
AcDbLine
 10
1545.802573541796
 20
-248.2160712427281
 30
0.0
 11
1543.802573541797
 21
-248.216071242729
 31
0.0
  0
LINE
  5
4DF
330
1D6
100
AcDbEntity
  8
0
  6
CONTINUOUS
 62
     7
100
AcDbLine
 10
1545.802573541802
 20
-282.2160712427281
 30
0.0
 11
1545.802573541802
 21
-281.2160712427281
 31
0.0
  0
LINE
  5
4E0
330
1D6
100
AcDbEntity
  8
0
  6
CONTINUOUS
 62
     1
100
AcDbLine
 10
1543.802573541803
 20
-282.216071242729
 30
0.0
 11
1545.802573541802
 21
-282.2160712427281
 31
0.0
  0
LINE
  5
4E1
330
1D6
100
AcDbEntity
  8
0
  6
CONTINUOUS
 62
     7
100
AcDbLine
 10
1545.802573541797
 20
-251.2160712427281
 30
0.0
 11
1545.802573541797
 21
-250.2160712427281
 31
0.0
  0
LINE
  5
4E2
330
1D6
100
AcDbEntity
  8
0
  6
CONTINUOUS
 62
     7
100
AcDbLine
 10
1545.802573541798
 20
-257.2160712427281
 30
0.0
 11
1545.802573541797
 21
-251.2160712427281
 31
0.0
  0
LINE
  5
4E3
330
1D6
100
AcDbEntity
  8
0
  6
CONTINUOUS
 62
     7
100
AcDbLine
 10
1545.802573541802
 20
-281.2160712427281
 30
0.0
 11
1545.802573541801
 21
-275.2160712427281
 31
0.0
  0
LINE
  5
4E4
330
1D6
100
AcDbEntity
  8
0
  6
CONTINUOUS
 62
     1
100
AcDbLine
 10
1543.802573541798
 20
-250.2160712427281
 30
0.0
 11
1545.802573541797
 21
-250.2160712427281
 31
0.0
  0
LINE
  5
4E5
330
1D6
100
AcDbEntity
  8
0
  6
CONTINUOUS
 62
     7
100
AcDbLine
 10
1545.802573541797
 20
-250.2160712427281
 30
0.0
 11
1545.802573541796
 21
-248.2160712427281
 31
0.0
  0
LINE
  5
4E6
330
1D6
100
AcDbEntity
  8
0
  6
CONTINUOUS
 62
     7
100
AcDbLine
 10
1545.802573541801
 20
-275.2160712427281
 30
0.0
 11
1545.802573541798
 21
-257.2160712427281
 31
0.0
  0
ENDBLK
  5
1D8
330
1D6
100
AcDbEntity
  8
0
100
AcDbBlockEnd
  0
BLOCK
  5
1DA
330
1D9
100
AcDbEntity
  8
0
100
AcDbBlockBegin
  2
PX000467_1__102
 70
     0
 10
1536.100749314099
 20
-267.9920025619799
 30
0.0
  3
PX000467_1__102
  1

  0
LINE
  5
4E7
330
1D9
100
AcDbEntity
  8
0
  6
CONTINUOUS
 62
     7
100
AcDbLine
 10
1537.913364888171
 20
-250.6301506816399
 30
0.0
 11
1543.8025735418
 21
-263.2595993956761
 31
0.0
  0
LINE
  5
4E8
330
1D9
100
AcDbEntity
  8
0
  6
CONTINUOUS
 62
     7
100
AcDbLine
 10
1536.100749314099
 20
-251.4753872051201
 30
0.0
 11
1537.913364888171
 21
-250.6301506816399
 31
0.0
  0
LINE
  5
4E9
330
1D9
100
AcDbEntity
  8
0
  6
CONTINUOUS
 62
     7
100
AcDbLine
 10
1536.100749314099
 20
-251.4753872051201
 30
0.0
 11
1543.802573541801
 21
-267.9920025619799
 31
0.0
  0
ENDBLK
  5
1DB
330
1D9
100
AcDbEntity
  8
0
100
AcDbBlockEnd
  0
BLOCK
  5
1DF
330
1DC
100
AcDbEntity
  8
0
100
AcDbBlockBegin
  2
CM06100A01100_MANIGLIA_103
 70
     0
 10
1536.100749314099
 20
-284.216071242729
 30
0.0
  3
CM06100A01100_MANIGLIA_103
  1

  0
INSERT
  5
1DD
330
1DC
100
AcDbEntity
  8
0
100
AcDbBlockReference
  2
PX000466_1__101
 10
1543.802573541797
 20
-284.216071242729
 30
0.0
  0
INSERT
  5
1DE
330
1DC
100
AcDbEntity
  8
0
100
AcDbBlockReference
  2
PX000467_1__102
 10
1536.100749314099
 20
-267.9920025619799
 30
0.0
  0
ENDBLK
  5
1E0
330
1DC
100
AcDbEntity
  8
0
100
AcDbBlockEnd
  0
BLOCK
  5
1E5
330
1E1
100
AcDbEntity
  8
0
100
AcDbBlockBegin
  2
PANNELLO__104
 70
     0
 10
1536.100749314099
 20
-364.2160712427249
 30
0.0
  3
PANNELLO__104
  1

  0
INSERT
  5
1E2
330
1E1
100
AcDbEntity
  8
0
100
AcDbBlockReference
  2
CM06100A01100_MANIGLIA__98
 10
1591.802573541796
 20
-284.2160712427199
 30
0.0
  0
INSERT
  5
1E3
330
1E1
100
AcDbEntity
  8
0
100
AcDbBlockReference
  2
PX001681_PANNELLO_1015_100
 10
1545.802573541641
 20
-364.2160712427249
 30
0.0
  0
INSERT
  5
1E4
330
1E1
100
AcDbEntity
  8
0
100
AcDbBlockReference
  2
CM06100A01100_MANIGLIA_103
 10
1536.100749314099
 20
-284.216071242729
 30
0.0
  0
ENDBLK
  5
1E6
330
1E1
100
AcDbEntity
  8
0
100
AcDbBlockEnd
  0
BLOCK
  5
1EA
330
1E7
100
AcDbEntity
  8
0
100
AcDbBlockBegin
  2
PX001593_GRUPPO_ANTA_L_105
 70
     0
 10
1536.100749314099
 20
-364.2160712427249
 30
0.0
  3
PX001593_GRUPPO_ANTA_L_105
  1

  0
INSERT
  5
1E8
330
1E7
100
AcDbEntity
  8
0
100
AcDbBlockReference
  2
FRESATE_CERNIERE_TELAI__95
 10
1545.802573541641
 20
612.7839287572701
 30
0.0
  0
INSERT
  5
1E9
330
1E7
100
AcDbEntity
  8
0
100
AcDbBlockReference
  2
PANNELLO__104
 10
1536.100749314099
 20
-364.2160712427249
 30
0.0
  0
ENDBLK
  5
1EB
330
1E7
100
AcDbEntity
  8
0
100
AcDbBlockEnd
  0
BLOCK
  5
1F1
330
1EC
100
AcDbEntity
  8
0
100
AcDbBlockBegin
  2
TKKZ0TEC43200_TECNICO__106
 70
     0
 10
1507.243779208085
 20
-364.2160712427249
 30
0.0
  3
TKKZ0TEC43200_TECNICO__106
  1

  0
INSERT
  5
1ED
330
1EC
100
AcDbEntity
  8
0
100
AcDbBlockReference
  2
STIPITE_MONTANTE_SX_1___72
 10
1507.243779208085
 20
652.4866869651369
 30
0.0
  0
INSERT
  5
1EE
330
1EC
100
AcDbEntity
  8
0
100
AcDbBlockReference
  2
TELAIO_BATTENTE_L1000X__78
 10
1508.24377923443
 20
652.4866869651369
 30
0.0
  0
INSERT
  5
1EF
330
1EC
100
AcDbEntity
  8
0
100
AcDbBlockReference
  2
00S0060A00100_CERNIERA__92
 10
1543.243779214812
 20
650.783928757277
 30
0.0
  0
INSERT
  5
1F0
330
1EC
100
AcDbEntity
  8
0
100
AcDbBlockReference
  2
PX001593_GRUPPO_ANTA_L_105
 10
1536.100749314099
 20
-364.2160712427249
 30
0.0
  0
ENDBLK
  5
1F2
330
1EC
100
AcDbEntity
  8
0
100
AcDbBlockEnd
  0
BLOCK
  5
1F5
330
1F3
100
AcDbEntity
  8
0
100
AcDbBlockBegin
  2
GEN8
 70
     0
 10
2054.243833
 20
671.7209930000031
 30
0.0
  3
GEN8
  1

  0
INSERT
  5
1F4
330
1F3
100
AcDbEntity
  8
0
100
AcDbBlockReference
  2
TKKZ0TEC43200_TECNICO__106
 10
1507.243779208085
 20
-364.2160712427249
 30
0.0
  0
MTEXT
  5
4EA
330
1F3
100
AcDbEntity
  8
1
 62
     3
100
AcDbMText
 10
2069.393547247745
 20
634.0720247244368
 30
0.0
 40
5.0
 41
0.0
 71
     5
 72
     1
  1
APERTURA 90\U+00b0
  7
CONVERTER_13
1001
ACAD
1000
MTEXTBEGIN
1070
    44
1040
0.96038415366146
1000
MTEXTEND
  0
DIMENSION
  5
4F7
330
1F3
100
AcDbEntity
  8
1
100
AcDbDimension
  2
*D180
 10
1543.243779214813
 20
635.6340111642548
 30
0.0
 11
1532.076747515737
 21
639.3840111642548
 31
0.0
 70
    32
  1
<>
 53
0.00013888888889
  3
ME10_DIM_13
100
AcDbAlignedDimension
 13
1545.802573541641
 23
648.7839287572751
 33
0.0
 14
1543.243779214812
 24
654.4866869654461
 34
0.0
100
AcDbRotatedDimension
  0
DIMENSION
  5
500
330
1F3
100
AcDbEntity
  8
1
100
AcDbDimension
  2
*D181
 10
2287.629352497549
 20
-43.34009199111438
 30
0.0
 11
2322.555748786407
 21
-0.952915817953
 31
0.0
 70
    37
  1
<>
  3
ME10_DIM_14
100
AcDb3PointAngularDimension
 13
1591.802573541802
 23
-284.2160712427199
 33
0.0
 14
2567.243779214439
 24
652.486686965452
 34
0.0
 15
1591.802573541802
 25
652.4866869625916
 35
0.0
  0
ENDBLK
  5
1F6
330
1F3
100
AcDbEntity
  8
0
100
AcDbBlockEnd
  0
BLOCK
  5
1F8
330
1F7
100
AcDbEntity
  8
0
100
AcDbBlockBegin
  2
SCASSO_MONTANTE_S0043__107
 70
     0
 10
1508.243779234431
 20
-581.8220470348631
 30
0.0
  3
SCASSO_MONTANTE_S0043__107
  1

  0
LINE
  5
501
330
1F7
100
AcDbEntity
  8
0
  6
CONTINUOUS
 62
     7
100
AcDbLine
 10
1543.243779234431
 20
-545.8220470348631
 30
0.0
 11
1543.243779265264
 21
-563.8220470353501
 31
0.0
  0
LINE
  5
502
330
1F7
100
AcDbEntity
  8
0
  6
CONTINUOUS
 62
     7
100
AcDbLine
 10
1543.243779265264
 20
-563.8220470353501
 30
0.0
 11
1543.243779214814
 21
-579.8220470345539
 31
0.0
  0
LINE
  5
503
330
1F7
100
AcDbEntity
  8
0
  6
CONTINUOUS
 62
     7
100
AcDbLine
 10
1541.24377921444
 20
-581.822047034548
 30
0.0
 11
1508.243779234431
 21
-581.8220470348631
 31
0.0
  0
ARC
  5
504
330
1F7
100
AcDbEntity
  8
0
  6
CONTINUOUS
 62
     7
100
AcDbCircle
 10
1541.243779214626
 20
-579.822047034361
 30
0.0
 40
2.000000000186901
100
AcDbArc
 50
269.9999999946717
 51
359.9999999944763
  0
ENDBLK
  5
1F9
330
1F7
100
AcDbEntity
  8
0
100
AcDbBlockEnd
  0
BLOCK
  5
1FC
330
1FA
100
AcDbEntity
  8
0
100
AcDbBlockBegin
  2
PX004196_GRUPPO_N_3_SC_108
 70
     0
 10
1508.243779234431
 20
-581.8220470348631
 30
0.0
  3
PX004196_GRUPPO_N_3_SC_108
  1

  0
INSERT
  5
1FB
330
1FA
100
AcDbEntity
  8
0
100
AcDbBlockReference
  2
SCASSO_MONTANTE_S0043__107
 10
1508.243779234431
 20
-581.8220470348631
 30
0.0
  0
ENDBLK
  5
1FD
330
1FA
100
AcDbEntity
  8
0
100
AcDbBlockEnd
  0
BLOCK
  5
200
330
1FE
100
AcDbEntity
  8
0
100
AcDbBlockBegin
  2
FRESATE_CERNIERE_TELAI_109
 70
     0
 10
1508.243779234431
 20
-581.8220470348631
 30
0.0
  3
FRESATE_CERNIERE_TELAI_109
  1

  0
INSERT
  5
1FF
330
1FE
100
AcDbEntity
  8
0
100
AcDbBlockReference
  2
PX004196_GRUPPO_N_3_SC_108
 10
1508.243779234431
 20
-581.8220470348631
 30
0.0
  0
ENDBLK
  5
201
330
1FE
100
AcDbEntity
  8
0
100
AcDbBlockEnd
  0
BLOCK
  5
203
330
202
100
AcDbEntity
  8
0
100
AcDbBlockBegin
  2
PX001697_STIPITE_MONTA_110
 70
     0
 10
2554.243779216869
 20
-581.822047034548
 30
0.0
  3
PX001697_STIPITE_MONTA_110
  1

  0
LINE
  5
505
330
202
100
AcDbEntity
  8
0
  6
CONTINUOUS
 62
     7
100
AcDbLine
 10
2596.243779209021
 20
-491.8220470344629
 30
0.0
 11
2554.243779216869
 21
-491.8220470345871
 31
0.0
  0
LINE
  5
506
330
202
100
AcDbEntity
  8
0
  6
CONTINUOUS
 62
     7
100
AcDbLine
 10
2567.24377921444
 20
-581.822047034548
 30
0.0
 11
2596.243779209021
 21
-581.8220470344629
 31
0.0
  0
LINE
  5
507
330
202
100
AcDbEntity
  8
0
  6
CONTINUOUS
 62
     7
100
AcDbLine
 10
2565.243779214814
 20
-531.8220470345739
 30
0.0
 11
2565.243779214814
 21
-579.8220470345539
 31
0.0
  0
LINE
  5
508
330
202
100
AcDbEntity
  8
0
  6
CONTINUOUS
 62
     7
100
AcDbLine
 10
2565.243779214814
 20
-531.8220470345739
 30
0.0
 11
2556.243779216496
 21
-531.8220470346007
 31
0.0
  0
LINE
  5
509
330
202
100
AcDbEntity
  8
0
  6
CONTINUOUS
 62
     7
100
AcDbLine
 10
2596.243779209021
 20
-581.8220470344629
 30
0.0
 11
2596.243779209021
 21
-491.8220470344629
 31
0.0
  0
LINE
  5
50A
330
202
100
AcDbEntity
  8
0
  6
CONTINUOUS
 62
     7
100
AcDbLine
 10
2554.243779216869
 20
-491.8220470345871
 30
0.0
 11
2554.243779216869
 21
-529.8220470346071
 31
0.0
  0
ARC
  5
50B
330
202
100
AcDbEntity
  8
0
  6
CONTINUOUS
 62
     7
100
AcDbCircle
 10
2567.243779214627
 20
-579.8220470347353
 30
0.0
 40
1.999999999813099
100
AcDbArc
 50
179.999999994802
 51
269.9999999946457
  0
ARC
  5
50C
330
202
100
AcDbEntity
  8
0
  6
CONTINUOUS
 62
     7
100
AcDbCircle
 10
2556.243779216683
 20
-529.8220470347871
 30
0.0
 40
1.999999999814008
100
AcDbArc
 50
179.9999999948411
 51
269.9999999946457
  0
ENDBLK
  5
204
330
202
100
AcDbEntity
  8
0
100
AcDbBlockEnd
  0
BLOCK
  5
207
330
205
100
AcDbEntity
  8
0
100
AcDbBlockBegin
  2
TELAIO__111
 70
     0
 10
2554.243779216869
 20
-581.822047034548
 30
0.0
  3
TELAIO__111
  1

  0
INSERT
  5
206
330
205
100
AcDbEntity
  8
0
100
AcDbBlockReference
  2
PX001697_STIPITE_MONTA_110
 10
2554.243779216869
 20
-581.822047034548
 30
0.0
  0
ENDBLK
  5
208
330
205
100
AcDbEntity
  8
0
100
AcDbBlockEnd
  0
BLOCK
  5
20C
330
209
100
AcDbEntity
  8
0
100
AcDbBlockBegin
  2
TELAIO_BATTENTE_L1000X_112
 70
     0
 10
1508.243779234431
 20
-581.8220470348631
 30
0.0
  3
TELAIO_BATTENTE_L1000X_112
  1

  0
INSERT
  5
20A
330
209
100
AcDbEntity
  8
0
100
AcDbBlockReference
  2
FRESATE_CERNIERE_TELAI_109
 10
1508.243779234431
 20
-581.8220470348631
 30
0.0
  0
INSERT
  5
20B
330
209
100
AcDbEntity
  8
0
100
AcDbBlockReference
  2
TELAIO__111
 10
2554.243779216869
 20
-581.822047034548
 30
0.0
  0
ENDBLK
  5
20D
330
209
100
AcDbEntity
  8
0
100
AcDbBlockEnd
  0
BLOCK
  5
20F
330
20E
100
AcDbEntity
  8
0
100
AcDbBlockBegin
  2
STIPITE_MONTANTE_SX_1__113
 70
     0
 10
1507.243779208086
 20
-581.8220470348631
 30
0.0
  3
STIPITE_MONTANTE_SX_1__113
  1

  0
LINE
  5
50D
330
20E
100
AcDbEntity
  8
0
  6
CONTINUOUS
 62
     7
100
AcDbLine
 10
1543.243779214814
 20
-531.8220470345539
 30
0.0
 11
1543.243779234431
 21
-545.8220470348631
 31
0.0
  0
LINE
  5
50E
330
20E
100
AcDbEntity
  8
0
  6
CONTINUOUS
 62
     7
100
AcDbLine
 10
1543.243779234431
 20
-545.8220470348631
 30
0.0
 11
1543.243779265264
 21
-563.8220470353501
 31
0.0
  0
LINE
  5
50F
330
20E
100
AcDbEntity
  8
0
  6
CONTINUOUS
 62
     7
100
AcDbLine
 10
1543.243779265264
 20
-563.8220470353501
 30
0.0
 11
1543.243779214814
 21
-579.8220470345539
 31
0.0
  0
LINE
  5
510
330
20E
100
AcDbEntity
  8
0
  6
CONTINUOUS
 62
     7
100
AcDbLine
 10
1508.243779234431
 20
-581.8220470348631
 30
0.0
 11
1507.243779208086
 21
-581.8220470344479
 31
0.0
  0
LINE
  5
511
330
20E
100
AcDbEntity
  8
0
  6
CONTINUOUS
 62
     7
100
AcDbLine
 10
1541.24377921444
 20
-581.822047034548
 30
0.0
 11
1508.243779234431
 21
-581.8220470348631
 31
0.0
  0
LINE
  5
512
330
20E
100
AcDbEntity
  8
0
  6
CONTINUOUS
 62
     7
100
AcDbLine
 10
1507.243779208086
 20
-491.8220470344479
 30
0.0
 11
1554.243779216869
 21
-491.8220470345871
 31
0.0
  0
LINE
  5
513
330
20E
100
AcDbEntity
  8
0
  6
CONTINUOUS
 62
     7
100
AcDbLine
 10
1543.243779214814
 20
-531.8220470345539
 30
0.0
 11
1552.243779216496
 21
-531.8220470345807
 31
0.0
  0
LINE
  5
514
330
20E
100
AcDbEntity
  8
0
  6
CONTINUOUS
 62
     7
100
AcDbLine
 10
1507.243779208086
 20
-491.8220470344479
 30
0.0
 11
1507.243779208086
 21
-581.8220470344479
 31
0.0
  0
LINE
  5
515
330
20E
100
AcDbEntity
  8
0
  6
CONTINUOUS
 62
     7
100
AcDbLine
 10
1554.243779216869
 20
-529.8220470345871
 30
0.0
 11
1554.243779216869
 21
-491.8220470345871
 31
0.0
  0
ARC
  5
516
330
20E
100
AcDbEntity
  8
0
  6
CONTINUOUS
 62
     7
100
AcDbCircle
 10
1541.243779214626
 20
-579.822047034361
 30
0.0
 40
2.000000000186901
100
AcDbArc
 50
269.9999999946717
 51
359.9999999944763
  0
ARC
  5
517
330
20E
100
AcDbEntity
  8
0
  6
CONTINUOUS
 62
     7
100
AcDbCircle
 10
1552.243779216683
 20
-529.8220470343947
 30
0.0
 40
2.000000000185992
100
AcDbArc
 50
269.9999999946457
 51
359.9999999944893
  0
ENDBLK
  5
210
330
20E
100
AcDbEntity
  8
0
100
AcDbBlockEnd
  0
BLOCK
  5
212
330
211
100
AcDbEntity
  8
0
100
AcDbBlockBegin
  2
PD02100A09500_SPINA_Ø3_114
 70
     0
 10
1549.849332033786
 20
-587.4734537934839
 30
0.0
  3
PD02100A09500_SPINA_Ø3_114
  1

  0
CIRCLE
  5
518
330
211
100
AcDbEntity
  8
0
  6
CONTINUOUS
 62
     7
100
AcDbCircle
 10
1551.849332033786
 20
-585.4734537934839
 30
0.0
 40
1.999999999999928
  0
ENDBLK
  5
213
330
211
100
AcDbEntity
  8
0
100
AcDbBlockEnd
  0
BLOCK
  5
215
330
214
100
AcDbEntity
  8
0
100
AcDbBlockBegin
  2
BIELLA_INTERNA_MONTANT_115
 70
     0
 10
1543.243779214814
 20
-607.4134575740829
 30
0.0
  3
BIELLA_INTERNA_MONTANT_115
  1

  0
LINE
  5
519
330
214
100
AcDbEntity
  8
0
  6
CONTINUOUS
 62
     7
100
AcDbLine
 10
1546.908681491846
 20
-591.560912672963
 30
0.0
 11
1546.908681491843
 21
-594.378390296082
 31
0.0
  0
LINE
  5
51A
330
214
100
AcDbEntity
  8
0
  6
CONTINUOUS
 62
     7
100
AcDbLine
 10
1544.843779244518
 20
-579.410491381617
 30
0.0
 11
1544.843779244065
 21
-583.2052245749549
 31
0.0
  0
LINE
  5
51B
330
214
100
AcDbEntity
  8
0
  6
CONTINUOUS
 62
     1
100
AcDbLine
 10
1544.713893356521
 20
-578.7391354008657
 30
0.0
 11
1544.843779241714
 21
-578.6869235997499
 31
0.0
  0
LINE
  5
51C
330
214
100
AcDbEntity
  8
0
  6
CONTINUOUS
 62
     7
100
AcDbLine
 10
1544.843779244518
 20
-579.410491381617
 30
0.0
 11
1544.843779241714
 21
-578.2720470351057
 31
0.0
  0
LINE
  5
51D
330
214
100
AcDbEntity
  8
0
  6
CONTINUOUS
 62
     7
100
AcDbLine
 10
1543.243779214814
 20
-576.7720470350921
 30
0.0
 11
1543.343779241716
 21
-576.7720470351048
 31
0.0
  0
LINE
  5
51E
330
214
100
AcDbEntity
  8
0
  6
CONTINUOUS
 62
     7
100
AcDbLine
 10
1543.980103193369
 20
-576.9137054622481
 30
0.0
 11
1544.713893356521
 21
-578.7391354008657
 31
0.0
  0
LINE
  5
51F
330
214
100
AcDbEntity
  8
0
  6
CONTINUOUS
 62
     7
100
AcDbLine
 10
1546.407771970311
 20
-596.03807303095
 30
0.0
 11
1543.908681481827
 21
-599.8011134683677
 31
0.0
  0
LINE
  5
520
330
214
100
AcDbEntity
  8
0
  6
CONTINUOUS
 62
     1
100
AcDbLine
 10
1543.908681481828
 20
-604.50922043997
 30
0.0
 11
1549.642405490929
 21
-596.5673515681699
 31
0.0
  0
LINE
  5
521
330
214
100
AcDbEntity
  8
0
  6
CONTINUOUS
 62
     7
100
AcDbLine
 10
1543.908681481828
 20
-607.4134575740829
 30
0.0
 11
1551.043594645923
 21
-597.5307801604197
 31
0.0
  0
LINE
  5
522
330
214
100
AcDbEntity
  8
0
  6
CONTINUOUS
 62
     1
100
AcDbLine
 10
1544.034925045165
 20
-570.6720470342627
 30
0.0
 11
1543.243779214814
 21
-570.6720470350917
 31
0.0
  0
LINE
  5
523
330
214
100
AcDbEntity
  8
0
  6
CONTINUOUS
 62
     7
100
AcDbLine
 10
1544.843779244062
 20
-585.4734537935149
 30
0.0
 11
1544.843779244065
 21
-583.2052245749549
 31
0.0
  0
LINE
  5
524
330
214
100
AcDbEntity
  8
0
  6
CONTINUOUS
 62
     7
100
AcDbLine
 10
1546.011258199799
 20
-568.972047035101
 30
0.0
 11
1543.243779214814
 21
-568.9720470350978
 31
0.0
  0
LINE
  5
525
330
214
100
AcDbEntity
  8
0
  6
CONTINUOUS
 62
     1
100
AcDbLine
 10
1544.034925045165
 20
-570.6720470342627
 30
0.0
 11
1546.011258201832
 21
-570.6720470234907
 31
0.0
  0
LINE
  5
526
330
214
100
AcDbEntity
  8
0
  6
CONTINUOUS
 62
     1
100
AcDbLine
 10
1546.011258201795
 20
-570.4720470351328
 30
0.0
 11
1546.011258199799
 21
-568.972047035101
 31
0.0
  0
LINE
  5
527
330
214
100
AcDbEntity
  8
0
  6
CONTINUOUS
 62
     1
100
AcDbLine
 10
1554.747826913488
 20
-586.9435651656047
 30
0.0
 11
1556.085593777927
 21
-587.6220781065338
 31
0.0
  0
LINE
  5
528
330
214
100
AcDbEntity
  8
0
  6
CONTINUOUS
 62
     1
100
AcDbLine
 10
1554.674581397606
 20
-583.8670708739498
 30
0.0
 11
1555.978542629302
 21
-583.1256633724181
 31
0.0
  0
LINE
  5
529
330
214
100
AcDbEntity
  8
0
  6
CONTINUOUS
 62
     7
100
AcDbLine
 10
1551.14087270395
 20
-597.371168532409
 30
0.0
 11
1556.085593777927
 21
-587.6220781065338
 31
0.0
  0
LINE
  5
52A
330
214
100
AcDbEntity
  8
0
  6
CONTINUOUS
 62
     1
100
AcDbLine
 10
1554.674581397606
 20
-583.8670708739498
 30
0.0
 11
1554.500719898903
 21
-583.96592520747
 31
0.0
  0
LINE
  5
52B
330
214
100
AcDbEntity
  8
0
  6
CONTINUOUS
 62
     1
100
AcDbLine
 10
1547.402150198626
 20
-571.481212367092
 30
0.0
 11
1547.57601169733
 21
-571.3823580335727
 31
0.0
  0
LINE
  5
52C
330
214
100
AcDbEntity
  8
0
  6
CONTINUOUS
 62
     1
100
AcDbLine
 10
1547.57601169733
 20
-571.3823580335727
 30
0.0
 11
1548.879972929026
 21
-570.64095053204
 31
0.0
  0
LINE
  5
52D
330
214
100
AcDbEntity
  8
0
  6
CONTINUOUS
 62
     1
100
AcDbLine
 10
1549.642405490929
 20
-596.5673515681699
 30
0.0
 11
1554.569457972812
 21
-586.8530967606919
 31
0.0
  0
LINE
  5
52E
330
214
100
AcDbEntity
  8
0
  6
CONTINUOUS
 62
     1
100
AcDbLine
 10
1554.500719898903
 20
-583.96592520747
 30
0.0
 11
1547.402150198626
 21
-571.481212367092
 31
0.0
  0
LINE
  5
52F
330
214
100
AcDbEntity
  8
0
  6
CONTINUOUS
 62
     7
100
AcDbLine
 10
1555.978542629302
 20
-583.1256633724181
 30
0.0
 11
1548.879972929026
 21
-570.64095053204
 31
0.0
  0
ARC
  5
530
330
214
100
AcDbEntity
  8
0
  6
CONTINUOUS
 62
     7
100
AcDbCircle
 10
1543.908681491843
 20
-594.3783902960788
 30
0.0
 40
2.999999999999771
100
AcDbArc
 50
326.4112786525847
 51
359.9999999999392
  0
ARC
  5
531
330
214
100
AcDbEntity
  8
0
  6
CONTINUOUS
 62
     7
100
AcDbCircle
 10
1543.908681491846
 20
-591.5609126729607
 30
0.0
 40
3.0
100
AcDbArc
 50
359.9999999999566
 51
37.47448353083069
  0
ARC
  5
532
330
214
100
AcDbEntity
  8
0
  6
CONTINUOUS
 62
     7
100
AcDbCircle
 10
1543.043779244518
 20
-579.4104913816161
 30
0.0
 40
1.799999999999955
100
AcDbArc
 50
359.9999999999711
 51
21.89924429818969
  0
ARC
  5
533
330
214
100
AcDbEntity
  8
0
  6
CONTINUOUS
 62
     7
100
AcDbCircle
 10
1543.343779241714
 20
-578.2720470351048
 30
0.0
 40
1.5
100
AcDbArc
 50
359.9999999999652
 51
89.99999999992183
  0
ARC
  5
534
330
214
100
AcDbEntity
  8
0
  6
CONTINUOUS
 62
     7
100
AcDbCircle
 10
1551.849332042357
 20
-585.4734537914449
 30
0.0
 40
7.005552798294957
100
AcDbArc
 50
180.0000000169298
 51
217.4744835138562
  0
ARC
  5
535
330
214
100
AcDbEntity
  8
0
  6
CONTINUOUS
 62
     1
100
AcDbCircle
 10
1546.011258196407
 20
-572.272047033128
 30
0.0
 40
1.600000009637912
100
AcDbArc
 50
29.62173445255224
 51
89.99999980572663
  0
ARC
  5
536
330
214
100
AcDbEntity
  8
0
  6
CONTINUOUS
 62
     7
100
AcDbCircle
 10
1546.011258199796
 20
-572.2720470350998
 30
0.0
 40
3.299999999999309
100
AcDbArc
 50
29.62173473588339
 51
89.99999999994868
  0
ARC
  5
537
330
214
100
AcDbEntity
  8
0
  6
CONTINUOUS
 62
     7
100
AcDbCircle
 10
1551.849332050129
 20
-585.4734537771958
 30
0.0
 40
4.749999993160879
100
AcDbArc
 50
333.105958452676
 51
340.574192624163
  0
ARC
  5
538
330
214
100
AcDbEntity
  8
0
  6
CONTINUOUS
 62
     7
100
AcDbCircle
 10
1551.849332043311
 20
-585.4734537960223
 30
0.0
 40
4.749999993330164
100
AcDbArc
 50
340.5741928656784
 51
29.6217348167796
  0
ARC
  5
539
330
214
100
AcDbEntity
  8
0
  6
CONTINUOUS
 62
     7
100
AcDbCircle
 10
1550.070659210591
 20
-596.8283581795347
 30
0.0
 40
1.200000000231212
100
AcDbArc
 50
324.1721635991054
 51
333.1059587148596
  0
ARC
  5
53A
330
214
100
AcDbEntity
  8
0
  6
CONTINUOUS
 62
     1
100
AcDbCircle
 10
1551.849332128975
 20
-585.4734535928785
 30
0.0
 40
3.049999979803909
100
AcDbArc
 50
333.1059545654751
 51
340.574188731554
  0
ARC
  5
53B
330
214
100
AcDbEntity
  8
0
  6
CONTINUOUS
 62
     1
100
AcDbCircle
 10
1551.849332042459
 20
-585.4734537864608
 30
0.0
 40
3.049999997012404
100
AcDbArc
 50
340.5741927016108
 51
29.62173461283951
  0
SPLINE
  5
53C
330
214
100
AcDbEntity
  8
0
  6
CONTINUOUS
 62
     1
100
AcDbSpline
210
0.0
220
0.0
230
1.0
 70
    24
 71
     3
 72
    23
 73
    19
 74
    17
 42
0.000000001
 43
0.0000000001
 44
0.00000001
 40
0.0
 40
0.0
 40
0.0
 40
0.0
 40
0.0070211692676594
 40
0.0140423385356598
 40
0.0167056698910528
 40
0.022077294073938
 40
0.0305708826401769
 40
0.0426001071455175
 40
0.0585786391460488
 40
0.0743823470211282
 40
0.0897299908298237
 40
0.1036126267732698
 40
0.1150213110537379
 40
0.1229470998720217
 40
0.1263810494300515
 40
0.1562570552748639
 40
0.1809969836630216
 40
0.1999999883578312
 40
0.1999999883578312
 40
0.1999999883578312
 40
0.1999999883578312
 10
1546.011258201795
 20
-570.4720470351328
 30
0.0
 10
1546.011258201798
 20
-570.4743874248886
 30
0.0
 10
1546.011258201803
 20
-570.4790682044006
 30
0.0
 10
1546.011258201811
 20
-570.4846367610312
 30
0.0
 10
1546.011258201813
 20
-570.4896554692997
 30
0.0
 10
1546.011258201819
 20
-570.4951649840011
 30
0.0
 10
1546.011258201826
 20
-570.5037964630862
 30
0.0
 10
1546.011258201833
 20
-570.5159635781101
 30
0.0
 10
1546.011258201838
 20
-570.5305673995704
 30
0.0
 10
1546.011258201843
 20
-570.5462773607985
 30
0.0
 10
1546.011258201843
 20
-570.5612886900075
 30
0.0
 10
1546.011258201843
 20
-570.574835011352
 30
0.0
 10
1546.011258201841
 20
-570.5859073810326
 30
0.0
 10
1546.01125820184
 20
-570.5934968552513
 30
0.0
 10
1546.011258201839
 20
-570.6072421033255
 30
0.0
 10
1546.011258201834
 20
-570.6265920645886
 30
0.0
 10
1546.011258201831
 20
-570.6511317108981
 30
0.0
 10
1546.011258201832
 20
-570.6657126885923
 30
0.0
 10
1546.011258201832
 20
-570.6720470234907
 30
0.0
 11
1546.011258201795
 21
-570.4720470351328
 31
0.0
 11
1546.011258201804
 21
-570.4790682044008
 31
0.0
 11
1546.011258201809
 21
-570.4860893736688
 31
0.0
 11
1546.01125820181
 21
-570.4887527050244
 31
0.0
 11
1546.011258201812
 21
-570.4941243292074
 31
0.0
 11
1546.011258201815
 21
-570.5026179177737
 31
0.0
 11
1546.011258201818
 21
-570.5146471422793
 31
0.0
 11
1546.011258201821
 21
-570.5306256742799
 31
0.0
 11
1546.011258201824
 21
-570.5464293821551
 31
0.0
 11
1546.011258201826
 21
-570.5617770259638
 31
0.0
 11
1546.011258201828
 21
-570.5756596619073
 31
0.0
 11
1546.011258201829
 21
-570.5870683461876
 31
0.0
 11
1546.01125820183
 21
-570.5949941350059
 31
0.0
 11
1546.01125820183
 21
-570.5984280845639
 31
0.0
 11
1546.011258201831
 21
-570.6283040904084
 31
0.0
 11
1546.011258201832
 21
-570.6530440187961
 31
0.0
 11
1546.011258201832
 21
-570.6720470234907
 31
0.0
  0
SPLINE
  5
53D
330
214
100
AcDbEntity
  8
0
  6
CONTINUOUS
 62
     1
100
AcDbSpline
210
0.0
220
0.0
230
1.0
 70
     8
 71
     3
 72
    23
 73
    19
 74
    17
 42
0.000000001
 43
0.0000000001
 44
0.00000001
 40
0.0
 40
0.0
 40
0.0
 40
0.0
 40
0.1668414799418881
 40
0.3318701431221285
 40
0.4133311710195398
 40
0.4938907866960712
 40
0.5337223582583456
 40
0.5732318301296774
 40
0.6122989905492514
 40
0.6509983914470711
 40
0.9179349474246338
 40
1.102150746870012
 40
1.201047624780519
 40
1.301255872298712
 40
1.436027829751856
 40
1.570622801811528
 40
1.635535758317967
 40
1.700448714826718
 40
1.700448714826718
 40
1.700448714826718
 40
1.700448714826718
 10
1549.642405490929
 20
-596.5673515681699
 30
0.0
 10
1549.688255792195
 20
-596.5988261326424
 30
0.0
 10
1549.779458216424
 20
-596.6614332624566
 30
0.0
 10
1549.892949577837
 20
-596.7395500605428
 30
0.0
 10
1549.982755012102
 20
-596.8013527031984
 30
0.0
 10
1550.038189632794
 20
-596.8394860131384
 30
0.0
 10
1550.08211023664
 20
-596.8696835955091
 30
0.0
 10
1550.114633580133
 20
-596.8920457457962
 30
0.0
 10
1550.146845816834
 20
-596.9141942702572
 30
0.0
 10
1550.241525604503
 20
-596.9792940904749
 30
0.0
 10
1550.37607340537
 20
-597.0718063999934
 30
0.0
 10
1550.52715569538
 20
-597.1756874398093
 30
0.0
 10
1550.632442636827
 20
-597.2480805572625
 30
0.0
 10
1550.724148814944
 20
-597.3111358227327
 30
0.0
 10
1550.825660206285
 20
-597.380932948054
 30
0.0
 10
1550.917477020495
 20
-597.444064288969
 30
0.0
 10
1550.990105635647
 20
-597.4940022091138
 30
0.0
 10
1551.025764973089
 20
-597.5185208473047
 30
0.0
 10
1551.043594645923
 20
-597.5307801604197
 30
0.0
 11
1549.642405490929
 21
-596.5673515681699
 31
0.0
 11
1549.779936579489
 21
-596.6618040912019
 31
0.0
 11
1549.915897076812
 21
-596.7553412647687
 31
0.0
 11
1549.983004034514
 21
-596.8015208630135
 31
0.0
 11
1550.04937716216
 21
-596.8471767454869
 31
0.0
 11
1550.082198644604
 21
-596.8697445186003
 31
0.0
 11
1550.114755042413
 21
-596.8921293199007
 31
0.0
 11
1550.146946829357
 21
-596.9142637247174
 31
0.0
 11
1550.17883557825
 21
-596.9361897668571
 31
0.0
 11
1550.398794352972
 21
-597.0874288568443
 31
0.0
 11
1550.550590278347
 21
-597.1918005857985
 31
0.0
 11
1550.632082436699
 21
-597.247832903148
 31
0.0
 11
1550.714655178605
 21
-597.3046082073289
 31
0.0
 11
1550.825708812759
 21
-597.380966382116
 31
0.0
 11
1550.93661660893
 21
-597.4572242817219
 31
0.0
 11
1550.990105627424
 21
-597.4940022210742
 31
0.0
 11
1551.043594645923
 21
-597.5307801604197
 31
0.0
  0
SPLINE
  5
53E
330
214
100
AcDbEntity
  8
0
  6
CONTINUOUS
 62
     1
100
AcDbSpline
210
0.0
220
0.0
230
1.0
 70
    24
 71
     3
 72
    17
 73
    13
 74
    11
 42
0.000000001
 43
0.0000000001
 44
0.00000001
 40
0.0
 40
0.0
 40
0.0
 40
0.0
 40
0.0070211714045251
 40
0.0140423428101156
 40
0.0319040673115656
 40
0.048716501869589
 40
0.0585786549349696
 40
0.0692353986839921
 40
0.0924124068319976
 40
0.1263810790614661
 40
0.16252691607007
 40
0.2000000282134939
 40
0.2000000282134939
 40
0.2000000282134939
 40
0.2000000282134939
 10
1554.747826913488
 20
-586.9435651656047
 30
0.0
 10
1554.74573964894
 20
-586.9425065087903
 30
0.0
 10
1554.741565119844
 20
-586.9403891951615
 30
0.0
 10
1554.732080630034
 20
-586.9355786790358
 30
0.0
 10
1554.719685378575
 20
-586.9292918298529
 30
0.0
 10
1554.706445555752
 20
-586.9225766155996
 30
0.0
 10
1554.6953476406
 20
-586.9169477730551
 30
0.0
 10
1554.682357655299
 20
-586.9103592759452
 30
0.0
 10
1554.662201247198
 20
-586.9001359821216
 30
0.0
 10
1554.634467402558
 20
-586.8860694261602
 30
0.0
 10
1554.602483590307
 20
-586.869847294297
 30
0.0
 10
1554.580598036769
 20
-586.8587469810315
 30
0.0
 10
1554.569457972812
 20
-586.8530967606919
 30
0.0
 11
1554.747826913488
 21
-586.9435651656047
 31
0.0
 11
1554.741565119844
 21
-586.9403891951617
 31
0.0
 11
1554.735303326198
 21
-586.9372132247197
 31
0.0
 11
1554.719373444056
 21
-586.929133617234
 31
0.0
 11
1554.704379365459
 21
-586.9215286476201
 31
0.0
 11
1554.695583857725
 21
-586.9170675819648
 31
0.0
 11
1554.686079698598
 21
-586.9122470896019
 31
0.0
 11
1554.665409409557
 21
-586.9017631562918
 31
0.0
 11
1554.635114633422
 21
-586.8863977004928
 31
0.0
 11
1554.602878164683
 21
-586.8700474217103
 31
0.0
 11
1554.569457972812
 21
-586.8530967606919
 31
0.0
  0
SPLINE
  5
53F
330
214
100
AcDbEntity
  8
0
  6
CONTINUOUS
 62
     1
100
AcDbSpline
210
0.0
220
0.0
230
1.0
 70
     8
 71
     3
 72
    23
 73
    19
 74
    17
 42
0.000000001
 43
0.0000000001
 44
0.00000001
 40
0.0
 40
0.0
 40
0.0
 40
0.0
 40
0.1668414799040877
 40
0.3318701431227291
 40
0.4133311712395549
 40
0.4938907866968171
 40
0.5337223582590104
 40
0.5732318301310776
 40
0.612298990550655
 40
0.6509983914483473
 40
0.902825871290325
 40
1.085848105451715
 40
1.201047624783611
 40
1.382800861576282
 40
1.502263767148449
 40
1.570622801821583
 40
1.635535758332652
 40
1.700448714844522
 40
1.700448714844522
 40
1.700448714844522
 40
1.700448714844522
 10
1549.642405490929
 20
-596.5673515681699
 30
0.0
 10
1549.691393502753
 20
-596.5936778484038
 30
0.0
 10
1549.788837240028
 20
-596.64604437354
 30
0.0
 10
1549.910281098627
 20
-596.7111128950208
 30
0.0
 10
1550.006369559154
 20
-596.762606490922
 30
0.0
 10
1550.065668404156
 20
-596.7943994693879
 30
0.0
 10
1550.112637044037
 20
-596.8195959033263
 30
0.0
 10
1550.14741813147
 20
-596.8382535986411
 30
0.0
 10
1550.181866766501
 20
-596.8567326915186
 30
0.0
 10
1550.278681565974
 20
-596.908666713114
 30
0.0
 10
1550.417781693854
 20
-596.983283626629
 30
0.0
 10
1550.579352918508
 20
-597.0699546607252
 30
0.0
 10
1550.720340568519
 20
-597.1455841186855
 30
0.0
 10
1550.842658327918
 20
-597.2111985606298
 30
0.0
 10
1550.95121718282
 20
-597.2694323678061
 30
0.0
 10
1551.025455424827
 20
-597.3092556982821
 30
0.0
 10
1551.083670184294
 20
-597.3404836229568
 30
0.0
 10
1551.121805199702
 20
-597.3609402249625
 30
0.0
 10
1551.14087270395
 20
-597.371168532409
 30
0.0
 11
1549.642405490929
 21
-596.5673515681699
 31
0.0
 11
1549.789386068417
 21
-596.6462995843347
 31
0.0
 11
1549.934833272414
 21
-596.724271185147
 31
0.0
 11
1550.006633147946
 21
-596.7627507508328
 31
0.0
 11
1550.077631226739
 21
-596.800818118096
 31
0.0
 11
1550.112731710283
 21
-596.8196465579691
 31
0.0
 11
1550.147548078895
 21
-596.8383232505118
 31
0.0
 11
1550.181974792157
 21
-596.8567906389909
 31
0.0
 11
1550.216077428842
 21
-596.8750841843269
 31
0.0
 11
1550.437992519338
 21
-596.994125236967
 31
0.0
 11
1550.599275139022
 21
-597.0806414480809
 31
0.0
 11
1550.700791112474
 21
-597.1350972685998
 31
0.0
 11
1550.860955467919
 21
-597.2210136135499
 31
0.0
 11
1550.966228417158
 21
-597.2774847740328
 31
0.0
 11
1551.026467678482
 21
-597.3097986877008
 31
0.0
 11
1551.083670191211
 21
-597.3404836100655
 31
0.0
 11
1551.14087270395
 21
-597.371168532409
 31
0.0
  0
ENDBLK
  5
216
330
214
100
AcDbEntity
  8
0
100
AcDbBlockEnd
  0
BLOCK
  5
219
330
217
100
AcDbEntity
  8
0
100
AcDbBlockBegin
  2
PD05300A09200_BIELLA_I_116
 70
     0
 10
1543.243779214814
 20
-607.4134575740829
 30
0.0
  3
PD05300A09200_BIELLA_I_116
  1

  0
INSERT
  5
218
330
217
100
AcDbEntity
  8
0
100
AcDbBlockReference
  2
BIELLA_INTERNA_MONTANT_115
 10
1543.243779214814
 20
-607.4134575740829
 30
0.0
  0
ENDBLK
  5
21A
330
217
100
AcDbEntity
  8
0
100
AcDbBlockEnd
  0
BLOCK
  5
21C
330
21B
100
AcDbEntity
  8
0
100
AcDbBlockBegin
  2
BIELLA_INTERNA_PORTA_S_117
 70
     0
 10
1543.243779214814
 20
-603.0799028026229
 30
0.0
  3
BIELLA_INTERNA_PORTA_S_117
  1

  0
LINE
  5
540
330
21B
100
AcDbEntity
  8
0
  6
CONTINUOUS
 62
     1
100
AcDbLine
 10
1549.118812647079
 20
-601.7654819439897
 30
0.0
 11
1548.374342039803
 21
-601.2280027944128
 31
0.0
  0
LINE
  5
541
330
21B
100
AcDbEntity
  8
0
  6
CONTINUOUS
 62
     7
100
AcDbLine
 10
1546.324468952321
 20
-595.982750273088
 30
0.0
 11
1543.908681481827
 21
-599.6203560266847
 31
0.0
  0
LINE
  5
542
330
21B
100
AcDbEntity
  8
0
  6
CONTINUOUS
 62
     1
100
AcDbLine
 10
1544.714689641651
 20
-595.3338215167398
 30
0.0
 11
1543.908681481827
 21
-596.5474795704529
 31
0.0
  0
LINE
  5
543
330
21B
100
AcDbEntity
  8
0
  6
CONTINUOUS
 62
     7
100
AcDbLine
 10
1544.714689641651
 20
-595.3338215167398
 30
0.0
 11
1543.908681481827
 21
-595.3338215167389
 31
0.0
  0
LINE
  5
544
330
21B
100
AcDbEntity
  8
0
  6
CONTINUOUS
 62
     7
100
AcDbLine
 10
1546.646774107298
 20
-595.333821516738
 30
0.0
 11
1544.714689641651
 21
-595.3338215167398
 31
0.0
  0
LINE
  5
545
330
21B
100
AcDbEntity
  8
0
  6
CONTINUOUS
 62
     1
100
AcDbLine
 10
1544.537277526945
 20
-568.9720470350987
 30
0.0
 11
1543.243779214814
 21
-567.2706519319038
 31
0.0
  0
LINE
  5
546
330
21B
100
AcDbEntity
  8
0
  6
CONTINUOUS
 62
     7
100
AcDbLine
 10
1543.243779214814
 20
-564.4617243058767
 30
0.0
 11
1546.733632875602
 21
-569.0520819999249
 31
0.0
  0
LINE
  5
547
330
21B
100
AcDbEntity
  8
0
  6
CONTINUOUS
 62
     7
100
AcDbLine
 10
1556.328928551583
 20
-587.0532370278977
 30
0.0
 11
1553.128585461433
 21
-596.1280552940468
 31
0.0
  0
LINE
  5
548
330
21B
100
AcDbEntity
  8
0
  6
CONTINUOUS
 62
     7
100
AcDbLine
 10
1552.969833361295
 20
-596.431374134683
 30
0.0
 11
1549.118812647079
 21
-601.7654819439897
 31
0.0
  0
ARC
  5
549
330
21B
100
AcDbEntity
  8
0
  6
CONTINUOUS
 62
     7
100
AcDbCircle
 10
1546.443240186092
 20
-599.8338215167907
 30
0.0
 40
3.300000000000975
100
AcDbArc
 50
280.3715467983847
 51
324.1721640244484
  0
ARC
  5
54A
330
21B
100
AcDbEntity
  8
0
  6
CONTINUOUS
 62
     7
100
AcDbCircle
 10
1543.908681491586
 20
-594.3783902973489
 30
0.0
 40
2.899999997792664
100
AcDbArc
 50
326.4112786545323
 51
340.764055194189
  0
ARC
  5
54B
330
21B
100
AcDbEntity
  8
0
  6
CONTINUOUS
 62
     7
100
AcDbCircle
 10
1551.849332043311
 20
-585.4734537960223
 30
0.0
 40
4.749999993330164
100
AcDbArc
 50
340.5741928656784
 51
29.6217348167796
  0
ARC
  5
54C
330
21B
100
AcDbEntity
  8
0
  6
CONTINUOUS
 62
     7
100
AcDbCircle
 10
1551.996897920413
 20
-595.728952160883
 30
0.0
 40
1.200000000583998
100
AcDbArc
 50
324.172164028497
 51
340.5741928582848
  0
ARC
  5
54D
330
21B
100
AcDbEntity
  8
0
  6
CONTINUOUS
 62
     1
100
AcDbCircle
 10
1551.849332042459
 20
-585.4734537864608
 30
0.0
 40
3.049999997012404
100
AcDbArc
 50
340.5741927016108
 51
29.62173461283951
  0
SPLINE
  5
54E
330
21B
100
AcDbEntity
  8
0
  6
CONTINUOUS
 62
     1
100
AcDbSpline
210
0.0
220
0.0
230
1.0
 70
    24
 71
     3
 72
    17
 73
    13
 74
    11
 42
0.000000001
 43
0.0000000001
 44
0.00000001
 40
0.0
 40
0.0
 40
0.0
 40
0.0
 40
0.0647970224591967
 40
0.1295940449163891
 40
0.3007372202480007
 40
0.4985281304039854
 40
0.545172142303747
 40
0.6531309893736699
 40
0.8217353896331634
 40
1.050316061099246
 40
1.131370960972835
 40
1.213858843758333
 40
1.213858843758333
 40
1.213858843758333
 40
1.213858843758333
 10
1552.969833361295
 20
-596.431374134683
 30
0.0
 10
1552.951801604156
 20
-596.41948410277
 30
0.0
 10
1552.915738089881
 20
-596.3957040389421
 30
0.0
 10
1552.832048742571
 20
-596.340519788005
 30
0.0
 10
1552.71134977057
 20
-596.2609316136869
 30
0.0
 10
1552.595702430059
 20
-596.1846744546616
 30
0.0
 10
1552.497638065108
 20
-596.1200114036827
 30
0.0
 10
1552.407695740925
 20
-596.060703977406
 30
0.0
 10
1552.267123965994
 20
-595.968011796548
 30
0.0
 10
1552.134039038812
 20
-595.8802563979498
 30
0.0
 10
1552.024918671549
 20
-595.8083030856869
 30
0.0
 10
1551.9794078807
 20
-595.7782935445994
 30
0.0
 10
1551.956453099571
 20
-595.7631573003257
 30
0.0
 11
1552.969833361295
 21
-596.431374134683
 31
0.0
 11
1552.915738089885
 21
-596.3957040389367
 31
0.0
 11
1552.861642818498
 21
-596.3600339431598
 31
0.0
 11
1552.718765319433
 21
-596.2658213817731
 31
0.0
 11
1552.553641173962
 21
-596.1569395158697
 31
0.0
 11
1552.514700796974
 21
-596.1312624660754
 31
0.0
 11
1552.424572224563
 21
-596.0718322288564
 31
0.0
 11
1552.283814201391
 21
-595.9790172370716
 31
0.0
 11
1552.092985472124
 21
-595.8531859235811
 31
0.0
 11
1552.025317442958
 21
-595.8085660331468
 31
0.0
 11
1551.956453099571
 21
-595.7631573003257
 31
0.0
  0
SPLINE
  5
54F
330
21B
100
AcDbEntity
  8
0
  6
CONTINUOUS
 62
     1
100
AcDbSpline
210
0.0
220
0.0
230
1.0
 70
    24
 71
     3
 72
    15
 73
    11
 74
     9
 42
0.000000001
 43
0.0000000001
 44
0.00000001
 40
0.0
 40
0.0
 40
0.0
 40
0.0
 40
0.0647970224640954
 40
0.12959404492587
 40
0.2860743314673882
 40
0.4985281304215204
 40
0.756297158962844
 40
1.050316061125433
 40
1.131990558061657
 40
1.215118580810818
 40
1.215118580810818
 40
1.215118580810818
 40
1.215118580810818
 10
1553.128585461433
 20
-596.1280552940468
 30
0.0
 10
1553.108538521076
 20
-596.120015561041
 30
0.0
 10
1553.068444640364
 20
-596.1039360950294
 30
0.0
 10
1552.979938797929
 20
-596.0684412349646
 30
0.0
 10
1552.845750816427
 20
-596.0146257636317
 30
0.0
 10
1552.651861043872
 20
-595.9368671642304
 30
0.0
 10
1552.415419494724
 20
-595.8420433709897
 30
0.0
 10
1552.219438521813
 20
-595.7634461053121
 30
0.0
 10
1552.077488084468
 20
-595.7065175368331
 30
0.0
 10
1552.026501385436
 20
-595.6860695562445
 30
0.0
 10
1552.000783189591
 20
-595.6757553923669
 30
0.0
 11
1553.128585461433
 21
-596.1280552940468
 31
0.0
 11
1553.068444640362
 21
-596.1039360950325
 31
0.0
 11
1553.00830381929
 21
-596.079816896028
 31
0.0
 11
1552.863067934127
 21
-596.0215707138619
 31
0.0
 11
1552.665880695857
 21
-595.9424896810331
 31
0.0
 11
1552.426634501629
 21
-595.8465410978098
 31
0.0
 11
1552.153743286686
 21
-595.737099334134
 31
0.0
 11
1552.077937777126
 21
-595.7066978840008
 31
0.0
 11
1552.000783189591
 21
-595.6757553923669
 31
0.0
  0
ENDBLK
  5
21D
330
21B
100
AcDbEntity
  8
0
100
AcDbBlockEnd
  0
BLOCK
  5
220
330
21E
100
AcDbEntity
  8
0
100
AcDbBlockBegin
  2
PD05300A09100_BIELLA_I_118
 70
     0
 10
1543.243779214814
 20
-603.0799028026229
 30
0.0
  3
PD05300A09100_BIELLA_I_118
  1

  0
INSERT
  5
21F
330
21E
100
AcDbEntity
  8
0
100
AcDbBlockReference
  2
BIELLA_INTERNA_PORTA_S_117
 10
1543.243779214814
 20
-603.0799028026229
 30
0.0
  0
ENDBLK
  5
221
330
21E
100
AcDbEntity
  8
0
100
AcDbBlockEnd
  0
BLOCK
  5
225
330
222
100
AcDbEntity
  8
0
100
AcDbBlockBegin
  2
GFS00600A00100_GRUPPO__119
 70
     0
 10
1543.243779214814
 20
-607.4134575740829
 30
0.0
  3
GFS00600A00100_GRUPPO__119
  1

  0
INSERT
  5
223
330
222
100
AcDbEntity
  8
0
100
AcDbBlockReference
  2
PD05300A09200_BIELLA_I_116
 10
1543.243779214814
 20
-607.4134575740829
 30
0.0
  0
INSERT
  5
224
330
222
100
AcDbEntity
  8
0
100
AcDbBlockReference
  2
PD05300A09100_BIELLA_I_118
 10
1543.243779214814
 20
-603.0799028026229
 30
0.0
  0
ENDBLK
  5
226
330
222
100
AcDbEntity
  8
0
100
AcDbBlockEnd
  0
BLOCK
  5
22A
330
227
100
AcDbEntity
  8
0
100
AcDbBlockBegin
  2
GFS00600A00200_GRUPPO__120
 70
     0
 10
1543.243779214814
 20
-607.4134575740829
 30
0.0
  3
GFS00600A00200_GRUPPO__120
  1

  0
INSERT
  5
228
330
227
100
AcDbEntity
  8
0
100
AcDbBlockReference
  2
PD02100A09500_SPINA_Ø3_114
 10
1549.849332033786
 20
-587.4734537934839
 30
0.0
  0
INSERT
  5
229
330
227
100
AcDbEntity
  8
0
100
AcDbBlockReference
  2
GFS00600A00100_GRUPPO__119
 10
1543.243779214814
 20
-607.4134575740829
 30
0.0
  0
ENDBLK
  5
22B
330
227
100
AcDbEntity
  8
0
100
AcDbBlockEnd
  0
BLOCK
  5
22E
330
22C
100
AcDbEntity
  8
0
100
AcDbBlockBegin
  2
GFS00600A00300_GRUPPO__121
 70
     0
 10
1543.243779214814
 20
-607.4134575740829
 30
0.0
  3
GFS00600A00300_GRUPPO__121
  1

  0
INSERT
  5
22D
330
22C
100
AcDbEntity
  8
0
100
AcDbBlockReference
  2
GFS00600A00200_GRUPPO__120
 10
1543.243779214814
 20
-607.4134575740829
 30
0.0
  0
ENDBLK
  5
22F
330
22C
100
AcDbEntity
  8
0
100
AcDbBlockEnd
  0
BLOCK
  5
232
330
230
100
AcDbEntity
  8
0
100
AcDbBlockBegin
  2
GFS0060A00400_GRUPPO_B_122
 70
     0
 10
1543.243779214814
 20
-607.4134575740829
 30
0.0
  3
GFS0060A00400_GRUPPO_B_122
  1

  0
INSERT
  5
231
330
230
100
AcDbEntity
  8
0
100
AcDbBlockReference
  2
GFS00600A00300_GRUPPO__121
 10
1543.243779214814
 20
-607.4134575740829
 30
0.0
  0
ENDBLK
  5
233
330
230
100
AcDbEntity
  8
0
100
AcDbBlockEnd
  0
BLOCK
  5
236
330
234
100
AcDbEntity
  8
0
100
AcDbBlockBegin
  2
GFS0060A00500_GRUPPO_C_123
 70
     0
 10
1543.243779214814
 20
-607.4134575740829
 30
0.0
  3
GFS0060A00500_GRUPPO_C_123
  1

  0
INSERT
  5
235
330
234
100
AcDbEntity
  8
0
100
AcDbBlockReference
  2
GFS0060A00400_GRUPPO_B_122
 10
1543.243779214814
 20
-607.4134575740829
 30
0.0
  0
ENDBLK
  5
237
330
234
100
AcDbEntity
  8
0
100
AcDbBlockEnd
  0
BLOCK
  5
23A
330
238
100
AcDbEntity
  8
0
100
AcDbBlockBegin
  2
GFS0060A00700_GRUPPO_C_124
 70
     0
 10
1543.243779214814
 20
-607.4134575740829
 30
0.0
  3
GFS0060A00700_GRUPPO_C_124
  1

  0
INSERT
  5
239
330
238
100
AcDbEntity
  8
0
100
AcDbBlockReference
  2
GFS0060A00500_GRUPPO_C_123
 10
1543.243779214814
 20
-607.4134575740829
 30
0.0
  0
ENDBLK
  5
23B
330
238
100
AcDbEntity
  8
0
100
AcDbBlockEnd
  0
BLOCK
  5
23E
330
23C
100
AcDbEntity
  8
0
100
AcDbBlockBegin
  2
00S0060A00100_CERNIERA_125
 70
     0
 10
1543.243779214814
 20
-607.4134575740829
 30
0.0
  3
00S0060A00100_CERNIERA_125
  1

  0
INSERT
  5
23D
330
23C
100
AcDbEntity
  8
0
100
AcDbBlockReference
  2
GFS0060A00700_GRUPPO_C_124
 10
1543.243779214814
 20
-607.4134575740829
 30
0.0
  0
ENDBLK
  5
23F
330
23C
100
AcDbEntity
  8
0
100
AcDbBlockEnd
  0
BLOCK
  5
241
330
240
100
AcDbEntity
  8
0
100
AcDbBlockBegin
  2
SCASSO_PORTA_S0043_3__126
 70
     0
 10
1505.908681481837
 20
-627.2838215164968
 30
0.0
  3
SCASSO_PORTA_S0043_3__126
  1

  0
LINE
  5
550
330
240
100
AcDbEntity
  8
0
  6
CONTINUOUS
 62
     7
100
AcDbLine
 10
1505.908681481837
 20
-591.2838215165027
 30
0.0
 11
1541.908681481825
 21
-591.2838215165018
 31
0.0
  0
LINE
  5
551
330
240
100
AcDbEntity
  8
0
  6
CONTINUOUS
 62
     7
100
AcDbLine
 10
1543.908681481841
 20
-609.2838215164977
 30
0.0
 11
1543.908681481827
 21
-593.2838215165009
 31
0.0
  0
LINE
  5
552
330
240
100
AcDbEntity
  8
0
  6
CONTINUOUS
 62
     7
100
AcDbLine
 10
1543.908681481843
 20
-627.2838215164968
 30
0.0
 11
1543.908681481841
 21
-609.2838215164977
 31
0.0
  0
ARC
  5
553
330
240
100
AcDbEntity
  8
0
  6
CONTINUOUS
 62
     7
100
AcDbCircle
 10
1541.908681481827
 20
-593.2838215165009
 30
0.0
 40
2.0
100
AcDbArc
 50
0.0
 51
90.00000000005863
  0
ENDBLK
  5
242
330
240
100
AcDbEntity
  8
0
100
AcDbBlockEnd
  0
BLOCK
  5
245
330
243
100
AcDbEntity
  8
0
100
AcDbBlockBegin
  2
PX004194_GRUPPO_N_3_SC_127
 70
     0
 10
1505.908681481837
 20
-627.2838215164968
 30
0.0
  3
PX004194_GRUPPO_N_3_SC_127
  1

  0
INSERT
  5
244
330
243
100
AcDbEntity
  8
0
100
AcDbBlockReference
  2
SCASSO_PORTA_S0043_3__126
 10
1505.908681481837
 20
-627.2838215164968
 30
0.0
  0
ENDBLK
  5
246
330
243
100
AcDbEntity
  8
0
100
AcDbBlockEnd
  0
BLOCK
  5
249
330
247
100
AcDbEntity
  8
0
100
AcDbBlockBegin
  2
FRESATE_CERNIERE_TELAI_128
 70
     0
 10
1505.908681481837
 20
-627.2838215164968
 30
0.0
  3
FRESATE_CERNIERE_TELAI_128
  1

  0
INSERT
  5
248
330
247
100
AcDbEntity
  8
0
100
AcDbBlockReference
  2
PX004194_GRUPPO_N_3_SC_127
 10
1505.908681481837
 20
-627.2838215164968
 30
0.0
  0
ENDBLK
  5
24A
330
247
100
AcDbEntity
  8
0
100
AcDbBlockEnd
  0
BLOCK
  5
24C
330
24B
100
AcDbEntity
  8
0
100
AcDbBlockBegin
  2
PX000467_1__129
 70
     0
 10
625.132750162587
 20
-646.9856457443527
 30
0.0
  3
PX000467_1__129
  1

  0
LINE
  5
554
330
24B
100
AcDbEntity
  8
0
  6
CONTINUOUS
 62
     7
100
AcDbLine
 10
641.6493655194486
 20
-646.9856457443527
 30
0.0
 11
642.4946020429284
 21
-645.1730301702808
 31
0.0
  0
LINE
  5
555
330
24B
100
AcDbEntity
  8
0
  6
CONTINUOUS
 62
     7
100
AcDbLine
 10
629.8651533288908
 20
-639.2838215166578
 30
0.0
 11
642.4946020429284
 21
-645.1730301702808
 31
0.0
  0
LINE
  5
556
330
24B
100
AcDbEntity
  8
0
  6
CONTINUOUS
 62
     7
100
AcDbLine
 10
625.132750162587
 20
-639.2838215166587
 30
0.0
 11
641.6493655194486
 21
-646.9856457443527
 31
0.0
  0
ENDBLK
  5
24D
330
24B
100
AcDbEntity
  8
0
100
AcDbBlockEnd
  0
BLOCK
  5
24F
330
24E
100
AcDbEntity
  8
0
100
AcDbBlockBegin
  2
PX000466_1__130
 70
     0
 10
608.908681481837
 20
-639.283821516661
 30
0.0
  3
PX000466_1__130
  1

  0
LINE
  5
557
330
24E
100
AcDbEntity
  8
0
  6
CONTINUOUS
 62
     7
100
AcDbLine
 10
608.908681481837
 20
-639.283821516661
 30
0.0
 11
608.908681481837
 21
-637.2838215166619
 31
0.0
  0
LINE
  5
558
330
24E
100
AcDbEntity
  8
0
  6
CONTINUOUS
 62
     7
100
AcDbLine
 10
608.908681481837
 20
-639.283821516661
 30
0.0
 11
610.908681481837
 21
-639.283821516661
 31
0.0
  0
LINE
  5
559
330
24E
100
AcDbEntity
  8
0
  6
CONTINUOUS
 62
     7
100
AcDbLine
 10
642.9086814818379
 20
-639.283821516655
 30
0.0
 11
610.908681481837
 21
-639.283821516661
 31
0.0
  0
LINE
  5
55A
330
24E
100
AcDbEntity
  8
0
  6
CONTINUOUS
 62
     1
100
AcDbLine
 10
610.908681481837
 20
-639.283821516661
 30
0.0
 11
610.908681481837
 21
-637.2838215166619
 31
0.0
  0
LINE
  5
55B
330
24E
100
AcDbEntity
  8
0
  6
CONTINUOUS
 62
     7
100
AcDbLine
 10
644.9086814818379
 20
-639.2838215166578
 30
0.0
 11
642.9086814818379
 21
-639.283821516655
 31
0.0
  0
LINE
  5
55C
330
24E
100
AcDbEntity
  8
0
  6
CONTINUOUS
 62
     7
100
AcDbLine
 10
644.9086814818379
 20
-639.2838215166578
 30
0.0
 11
644.9086814818379
 21
-637.2838215166569
 31
0.0
  0
LINE
  5
55D
330
24E
100
AcDbEntity
  8
0
  6
CONTINUOUS
 62
     7
100
AcDbLine
 10
608.908681481837
 20
-637.2838215166619
 30
0.0
 11
610.908681481837
 21
-637.2838215166619
 31
0.0
  0
LINE
  5
55E
330
24E
100
AcDbEntity
  8
0
  6
CONTINUOUS
 62
     7
100
AcDbLine
 10
611.908681481837
 20
-637.2838215166619
 30
0.0
 11
610.908681481837
 21
-637.2838215166619
 31
0.0
  0
LINE
  5
55F
330
24E
100
AcDbEntity
  8
0
  6
CONTINUOUS
 62
     7
100
AcDbLine
 10
641.9086814818379
 20
-637.2838215166569
 30
0.0
 11
635.9086814818379
 21
-637.2838215166569
 31
0.0
  0
LINE
  5
560
330
24E
100
AcDbEntity
  8
0
  6
CONTINUOUS
 62
     7
100
AcDbLine
 10
642.9086814818379
 20
-637.283821516656
 30
0.0
 11
641.9086814818379
 21
-637.2838215166569
 31
0.0
  0
LINE
  5
561
330
24E
100
AcDbEntity
  8
0
  6
CONTINUOUS
 62
     7
100
AcDbLine
 10
644.9086814818379
 20
-637.2838215166569
 30
0.0
 11
642.9086814818379
 21
-637.283821516656
 31
0.0
  0
LINE
  5
562
330
24E
100
AcDbEntity
  8
0
  6
CONTINUOUS
 62
     1
100
AcDbLine
 10
642.9086814818379
 20
-639.283821516655
 30
0.0
 11
642.9086814818379
 21
-637.283821516656
 31
0.0
  0
LINE
  5
563
330
24E
100
AcDbEntity
  8
0
  6
CONTINUOUS
 62
     7
100
AcDbLine
 10
617.908681481837
 20
-637.283821516661
 30
0.0
 11
611.908681481837
 21
-637.2838215166619
 31
0.0
  0
LINE
  5
564
330
24E
100
AcDbEntity
  8
0
  6
CONTINUOUS
 62
     7
100
AcDbLine
 10
635.9086814818379
 20
-637.2838215166569
 30
0.0
 11
617.908681481837
 21
-637.283821516661
 31
0.0
  0
ENDBLK
  5
250
330
24E
100
AcDbEntity
  8
0
100
AcDbBlockEnd
  0
BLOCK
  5
254
330
251
100
AcDbEntity
  8
0
100
AcDbBlockBegin
  2
CM06100A01100_MANIGLIA_131
 70
     0
 10
608.908681481837
 20
-646.9856457443527
 30
0.0
  3
CM06100A01100_MANIGLIA_131
  1

  0
INSERT
  5
252
330
251
100
AcDbEntity
  8
0
100
AcDbBlockReference
  2
PX000467_1__129
 10
625.132750162587
 20
-646.9856457443527
 30
0.0
  0
INSERT
  5
253
330
251
100
AcDbEntity
  8
0
100
AcDbBlockReference
  2
PX000466_1__130
 10
608.908681481837
 20
-639.283821516661
 30
0.0
  0
ENDBLK
  5
255
330
251
100
AcDbEntity
  8
0
100
AcDbBlockEnd
  0
BLOCK
  5
257
330
256
100
AcDbEntity
  8
0
100
AcDbBlockBegin
  2
PX001595_PX001297_1187_132
 70
     0
 10
528.9086814818252
 20
-637.2838215166728
 30
0.0
  3
PX001595_PX001297_1187_132
  1

  0
LINE
  5
565
330
256
100
AcDbEntity
  8
0
  6
CONTINUOUS
 62
     7
100
AcDbLine
 10
528.9086814818324
 20
-635.2838215166728
 30
0.0
 11
528.908681481827
 21
-593.2838215166728
 31
0.0
  0
LINE
  5
566
330
256
100
AcDbEntity
  8
0
  6
CONTINUOUS
 62
     7
100
AcDbLine
 10
608.908681481837
 20
-637.2838215166619
 30
0.0
 11
530.9086814818334
 21
-637.2838215166728
 31
0.0
  0
LINE
  5
567
330
256
100
AcDbEntity
  8
0
  6
CONTINUOUS
 62
     7
100
AcDbLine
 10
530.9086814818252
 20
-591.2838215166728
 30
0.0
 11
608.9086814818288
 21
-591.2838215166619
 31
0.0
  0
LINE
  5
568
330
256
100
AcDbEntity
  8
0
  6
CONTINUOUS
 62
     7
100
AcDbLine
 10
1541.908681481833
 20
-637.2838215165018
 30
0.0
 11
644.9086814818379
 21
-637.2838215166569
 31
0.0
  0
LINE
  5
569
330
256
100
AcDbEntity
  8
0
  6
CONTINUOUS
 62
     7
100
AcDbLine
 10
1505.908681481837
 20
-591.2838215165027
 30
0.0
 11
1541.908681481825
 21
-591.2838215165018
 31
0.0
  0
LINE
  5
56A
330
256
100
AcDbEntity
  8
0
  6
CONTINUOUS
 62
     7
100
AcDbLine
 10
644.9086814818297
 20
-591.2838215166569
 30
0.0
 11
1505.908681481837
 21
-591.2838215165027
 31
0.0
  0
LINE
  5
56B
330
256
100
AcDbEntity
  8
0
  6
CONTINUOUS
 62
     7
100
AcDbLine
 10
608.908681481837
 20
-637.2838215166619
 30
0.0
 11
610.908681481837
 21
-637.2838215166619
 31
0.0
  0
LINE
  5
56C
330
256
100
AcDbEntity
  8
0
  6
CONTINUOUS
 62
     7
100
AcDbLine
 10
610.9086814818288
 20
-591.2838215166619
 30
0.0
 11
608.9086814818288
 21
-591.2838215166619
 31
0.0
  0
LINE
  5
56D
330
256
100
AcDbEntity
  8
0
  6
CONTINUOUS
 62
     7
100
AcDbLine
 10
610.9086814818288
 20
-591.2838215166619
 30
0.0
 11
611.9086814818288
 21
-591.2838215166619
 31
0.0
  0
LINE
  5
56E
330
256
100
AcDbEntity
  8
0
  6
CONTINUOUS
 62
     7
100
AcDbLine
 10
642.9086814818297
 20
-591.2838215166569
 30
0.0
 11
644.9086814818297
 21
-591.2838215166569
 31
0.0
  0
LINE
  5
56F
330
256
100
AcDbEntity
  8
0
  6
CONTINUOUS
 62
     7
100
AcDbLine
 10
611.9086814818288
 20
-591.2838215166619
 30
0.0
 11
617.9086814818288
 21
-591.283821516661
 31
0.0
  0
LINE
  5
570
330
256
100
AcDbEntity
  8
0
  6
CONTINUOUS
 62
     7
100
AcDbLine
 10
641.9086814818297
 20
-591.2838215166569
 30
0.0
 11
642.9086814818297
 21
-591.2838215166569
 31
0.0
  0
LINE
  5
571
330
256
100
AcDbEntity
  8
0
  6
CONTINUOUS
 62
     7
100
AcDbLine
 10
635.9086814818297
 20
-591.2838215166578
 30
0.0
 11
641.9086814818297
 21
-591.2838215166569
 31
0.0
  0
LINE
  5
572
330
256
100
AcDbEntity
  8
0
  6
CONTINUOUS
 62
     7
100
AcDbLine
 10
611.908681481837
 20
-637.2838215166619
 30
0.0
 11
610.908681481837
 21
-637.2838215166619
 31
0.0
  0
LINE
  5
573
330
256
100
AcDbEntity
  8
0
  6
CONTINUOUS
 62
     7
100
AcDbLine
 10
641.9086814818379
 20
-637.2838215166569
 30
0.0
 11
635.9086814818379
 21
-637.2838215166569
 31
0.0
  0
LINE
  5
574
330
256
100
AcDbEntity
  8
0
  6
CONTINUOUS
 62
     7
100
AcDbLine
 10
642.9086814818379
 20
-637.283821516656
 30
0.0
 11
641.9086814818379
 21
-637.2838215166569
 31
0.0
  0
LINE
  5
575
330
256
100
AcDbEntity
  8
0
  6
CONTINUOUS
 62
     7
100
AcDbLine
 10
644.9086814818379
 20
-637.2838215166569
 30
0.0
 11
642.9086814818379
 21
-637.283821516656
 31
0.0
  0
LINE
  5
576
330
256
100
AcDbEntity
  8
0
  6
CONTINUOUS
 62
     7
100
AcDbLine
 10
617.908681481837
 20
-637.283821516661
 30
0.0
 11
611.908681481837
 21
-637.2838215166619
 31
0.0
  0
LINE
  5
577
330
256
100
AcDbEntity
  8
0
  6
CONTINUOUS
 62
     7
100
AcDbLine
 10
617.9086814818288
 20
-591.283821516661
 30
0.0
 11
635.9086814818297
 21
-591.2838215166578
 31
0.0
  0
LINE
  5
578
330
256
100
AcDbEntity
  8
0
  6
CONTINUOUS
 62
     7
100
AcDbLine
 10
635.9086814818379
 20
-637.2838215166569
 30
0.0
 11
617.908681481837
 21
-637.283821516661
 31
0.0
  0
LINE
  5
579
330
256
100
AcDbEntity
  8
0
  6
CONTINUOUS
 62
     7
100
AcDbLine
 10
1543.908681481841
 20
-609.2838215164977
 30
0.0
 11
1543.908681481827
 21
-593.2838215165009
 31
0.0
  0
LINE
  5
57A
330
256
100
AcDbEntity
  8
0
  6
CONTINUOUS
 62
     7
100
AcDbLine
 10
1543.908681481843
 20
-627.2838215164968
 30
0.0
 11
1543.908681481841
 21
-609.2838215164977
 31
0.0
  0
LINE
  5
57B
330
256
100
AcDbEntity
  8
0
  6
CONTINUOUS
 62
     7
100
AcDbLine
 10
1543.908681481833
 20
-635.2838215165009
 30
0.0
 11
1543.908681481843
 21
-627.2838215164968
 31
0.0
  0
ARC
  5
57C
330
256
100
AcDbEntity
  8
0
  6
CONTINUOUS
 62
     7
100
AcDbCircle
 10
530.9086814818252
 20
-593.2838215166728
 30
0.0
 40
2.0
100
AcDbArc
 50
90.0
 51
180.0
  0
ARC
  5
57D
330
256
100
AcDbEntity
  8
0
  6
CONTINUOUS
 62
     7
100
AcDbCircle
 10
530.9086814818324
 20
-635.2838215166728
 30
0.0
 40
2.0
100
AcDbArc
 50
180.0
 51
270.000000000026
  0
ARC
  5
57E
330
256
100
AcDbEntity
  8
0
  6
CONTINUOUS
 62
     7
100
AcDbCircle
 10
1541.908681481833
 20
-635.2838215165018
 30
0.0
 40
2.0
100
AcDbArc
 50
270.0
 51
0.00000000002606
  0
ARC
  5
57F
330
256
100
AcDbEntity
  8
0
  6
CONTINUOUS
 62
     7
100
AcDbCircle
 10
1541.908681481827
 20
-593.2838215165009
 30
0.0
 40
2.0
100
AcDbArc
 50
0.0
 51
90.00000000005863
  0
ENDBLK
  5
258
330
256
100
AcDbEntity
  8
0
100
AcDbBlockEnd
  0
BLOCK
  5
25B
330
259
100
AcDbEntity
  8
0
100
AcDbBlockBegin
  2
PX001681_PANNELLO_1015_133
 70
     0
 10
528.9086814818252
 20
-637.2838215166728
 30
0.0
  3
PX001681_PANNELLO_1015_133
  1

  0
INSERT
  5
25A
330
259
100
AcDbEntity
  8
0
100
AcDbBlockReference
  2
PX001595_PX001297_1187_132
 10
528.9086814818252
 20
-637.2838215166728
 30
0.0
  0
ENDBLK
  5
25C
330
259
100
AcDbEntity
  8
0
100
AcDbBlockEnd
  0
BLOCK
  5
25E
330
25D
100
AcDbEntity
  8
0
100
AcDbBlockBegin
  2
PX000466_1__134
 70
     0
 10
608.9086814818288
 20
-591.2838215166619
 30
0.0
  3
PX000466_1__134
  1

  0
LINE
  5
580
330
25D
100
AcDbEntity
  8
0
  6
CONTINUOUS
 62
     7
100
AcDbLine
 10
608.9086814818288
 20
-589.2838215166628
 30
0.0
 11
608.9086814818288
 21
-591.2838215166619
 31
0.0
  0
LINE
  5
581
330
25D
100
AcDbEntity
  8
0
  6
CONTINUOUS
 62
     7
100
AcDbLine
 10
610.9086814818288
 20
-591.2838215166619
 30
0.0
 11
608.9086814818288
 21
-591.2838215166619
 31
0.0
  0
LINE
  5
582
330
25D
100
AcDbEntity
  8
0
  6
CONTINUOUS
 62
     7
100
AcDbLine
 10
610.9086814818288
 20
-589.2838215166628
 30
0.0
 11
608.9086814818288
 21
-589.2838215166628
 31
0.0
  0
LINE
  5
583
330
25D
100
AcDbEntity
  8
0
  6
CONTINUOUS
 62
     7
100
AcDbLine
 10
644.9086814818297
 20
-591.2838215166569
 30
0.0
 11
644.9086814818297
 21
-589.2838215166569
 31
0.0
  0
LINE
  5
584
330
25D
100
AcDbEntity
  8
0
  6
CONTINUOUS
 62
     7
100
AcDbLine
 10
642.9086814818297
 20
-589.2838215166569
 30
0.0
 11
644.9086814818297
 21
-589.2838215166569
 31
0.0
  0
LINE
  5
585
330
25D
100
AcDbEntity
  8
0
  6
CONTINUOUS
 62
     7
100
AcDbLine
 10
610.9086814818288
 20
-589.2838215166628
 30
0.0
 11
642.9086814818297
 21
-589.2838215166569
 31
0.0
  0
LINE
  5
586
330
25D
100
AcDbEntity
  8
0
  6
CONTINUOUS
 62
     7
100
AcDbLine
 10
610.9086814818288
 20
-591.2838215166619
 30
0.0
 11
611.9086814818288
 21
-591.2838215166619
 31
0.0
  0
LINE
  5
587
330
25D
100
AcDbEntity
  8
0
  6
CONTINUOUS
 62
     1
100
AcDbLine
 10
610.9086814818288
 20
-589.2838215166628
 30
0.0
 11
610.9086814818288
 21
-591.2838215166619
 31
0.0
  0
LINE
  5
588
330
25D
100
AcDbEntity
  8
0
  6
CONTINUOUS
 62
     7
100
AcDbLine
 10
642.9086814818297
 20
-591.2838215166569
 30
0.0
 11
644.9086814818297
 21
-591.2838215166569
 31
0.0
  0
LINE
  5
589
330
25D
100
AcDbEntity
  8
0
  6
CONTINUOUS
 62
     7
100
AcDbLine
 10
611.9086814818288
 20
-591.2838215166619
 30
0.0
 11
617.9086814818288
 21
-591.283821516661
 31
0.0
  0
LINE
  5
58A
330
25D
100
AcDbEntity
  8
0
  6
CONTINUOUS
 62
     7
100
AcDbLine
 10
641.9086814818297
 20
-591.2838215166569
 30
0.0
 11
642.9086814818297
 21
-591.2838215166569
 31
0.0
  0
LINE
  5
58B
330
25D
100
AcDbEntity
  8
0
  6
CONTINUOUS
 62
     7
100
AcDbLine
 10
635.9086814818297
 20
-591.2838215166578
 30
0.0
 11
641.9086814818297
 21
-591.2838215166569
 31
0.0
  0
LINE
  5
58C
330
25D
100
AcDbEntity
  8
0
  6
CONTINUOUS
 62
     1
100
AcDbLine
 10
642.9086814818297
 20
-589.2838215166569
 30
0.0
 11
642.9086814818297
 21
-591.2838215166569
 31
0.0
  0
LINE
  5
58D
330
25D
100
AcDbEntity
  8
0
  6
CONTINUOUS
 62
     7
100
AcDbLine
 10
617.9086814818288
 20
-591.283821516661
 30
0.0
 11
635.9086814818297
 21
-591.2838215166578
 31
0.0
  0
ENDBLK
  5
25F
330
25D
100
AcDbEntity
  8
0
100
AcDbBlockEnd
  0
BLOCK
  5
261
330
260
100
AcDbEntity
  8
0
100
AcDbBlockBegin
  2
PX000467_1__135
 70
     0
 10
625.1327501625769
 20
-589.283821516661
 30
0.0
  3
PX000467_1__135
  1

  0
LINE
  5
58E
330
260
100
AcDbEntity
  8
0
  6
CONTINUOUS
 62
     7
100
AcDbLine
 10
641.6493655194367
 20
-581.5819972889601
 30
0.0
 11
642.4946020429165
 21
-583.3946128630321
 31
0.0
  0
LINE
  5
58F
330
260
100
AcDbEntity
  8
0
  6
CONTINUOUS
 62
     7
100
AcDbLine
 10
642.4946020429165
 20
-583.3946128630321
 30
0.0
 11
629.8651533288808
 21
-589.28382151666
 31
0.0
  0
LINE
  5
590
330
260
100
AcDbEntity
  8
0
  6
CONTINUOUS
 62
     7
100
AcDbLine
 10
641.6493655194367
 20
-581.5819972889601
 30
0.0
 11
625.1327501625769
 21
-589.283821516661
 31
0.0
  0
ENDBLK
  5
262
330
260
100
AcDbEntity
  8
0
100
AcDbBlockEnd
  0
BLOCK
  5
266
330
263
100
AcDbEntity
  8
0
100
AcDbBlockBegin
  2
CM06100A01100_MANIGLIA_136
 70
     0
 10
608.9086814818288
 20
-591.2838215166619
 30
0.0
  3
CM06100A01100_MANIGLIA_136
  1

  0
INSERT
  5
264
330
263
100
AcDbEntity
  8
0
100
AcDbBlockReference
  2
PX000466_1__134
 10
608.9086814818288
 20
-591.2838215166619
 30
0.0
  0
INSERT
  5
265
330
263
100
AcDbEntity
  8
0
100
AcDbBlockReference
  2
PX000467_1__135
 10
625.1327501625769
 20
-589.283821516661
 30
0.0
  0
ENDBLK
  5
267
330
263
100
AcDbEntity
  8
0
100
AcDbBlockEnd
  0
BLOCK
  5
26C
330
268
100
AcDbEntity
  8
0
100
AcDbBlockBegin
  2
PANNELLO__137
 70
     0
 10
528.9086814818252
 20
-646.9856457443527
 30
0.0
  3
PANNELLO__137
  1

  0
INSERT
  5
269
330
268
100
AcDbEntity
  8
0
100
AcDbBlockReference
  2
CM06100A01100_MANIGLIA_131
 10
608.908681481837
 20
-646.9856457443527
 30
0.0
  0
INSERT
  5
26A
330
268
100
AcDbEntity
  8
0
100
AcDbBlockReference
  2
PX001681_PANNELLO_1015_133
 10
528.9086814818252
 20
-637.2838215166728
 30
0.0
  0
INSERT
  5
26B
330
268
100
AcDbEntity
  8
0
100
AcDbBlockReference
  2
CM06100A01100_MANIGLIA_136
 10
608.9086814818288
 20
-591.2838215166619
 30
0.0
  0
ENDBLK
  5
26D
330
268
100
AcDbEntity
  8
0
100
AcDbBlockEnd
  0
BLOCK
  5
271
330
26E
100
AcDbEntity
  8
0
100
AcDbBlockBegin
  2
PX001593_GRUPPO_ANTA_L_138
 70
     0
 10
528.9086814818252
 20
-646.9856457443527
 30
0.0
  3
PX001593_GRUPPO_ANTA_L_138
  1

  0
INSERT
  5
26F
330
26E
100
AcDbEntity
  8
0
100
AcDbBlockReference
  2
FRESATE_CERNIERE_TELAI_128
 10
1505.908681481837
 20
-627.2838215164968
 30
0.0
  0
INSERT
  5
270
330
26E
100
AcDbEntity
  8
0
100
AcDbBlockReference
  2
PANNELLO__137
 10
528.9086814818252
 20
-646.9856457443527
 30
0.0
  0
ENDBLK
  5
272
330
26E
100
AcDbEntity
  8
0
100
AcDbBlockEnd
  0
BLOCK
  5
278
330
273
100
AcDbEntity
  8
0
100
AcDbBlockBegin
  2
TKKZ0TEC43200_TECNICO__139
 70
     0
 10
528.9086814818252
 20
-646.9856457443527
 30
0.0
  3
TKKZ0TEC43200_TECNICO__139
  1

  0
INSERT
  5
274
330
273
100
AcDbEntity
  8
0
100
AcDbBlockReference
  2
TELAIO_BATTENTE_L1000X_112
 10
1508.243779234431
 20
-581.8220470348631
 30
0.0
  0
INSERT
  5
275
330
273
100
AcDbEntity
  8
0
100
AcDbBlockReference
  2
STIPITE_MONTANTE_SX_1__113
 10
1507.243779208086
 20
-581.8220470348631
 30
0.0
  0
INSERT
  5
276
330
273
100
AcDbEntity
  8
0
100
AcDbBlockReference
  2
00S0060A00100_CERNIERA_125
 10
1543.243779214814
 20
-607.4134575740829
 30
0.0
  0
INSERT
  5
277
330
273
100
AcDbEntity
  8
0
100
AcDbBlockReference
  2
PX001593_GRUPPO_ANTA_L_138
 10
528.9086814818252
 20
-646.9856457443527
 30
0.0
  0
ENDBLK
  5
279
330
273
100
AcDbEntity
  8
0
100
AcDbBlockEnd
  0
BLOCK
  5
27C
330
27A
100
AcDbEntity
  8
0
100
AcDbBlockBegin
  2
GEN7
 70
     0
 10
2054.243833000001
 20
-562.5877409999969
 30
0.0
  3
GEN7
  1

  0
INSERT
  5
27B
330
27A
100
AcDbEntity
  8
0
100
AcDbBlockReference
  2
TKKZ0TEC43200_TECNICO__139
 10
528.9086814818252
 20
-646.9856457443527
 30
0.0
  0
MTEXT
  5
591
330
27A
100
AcDbEntity
  8
1
 62
     3
100
AcDbMText
 10
1624.823165967353
 20
-724.0139147418913
 30
0.0
 40
5.0
 41
0.0
 71
     5
 72
     1
  1
APERTURA 180\U+00b0
  7
CONVERTER_13
1001
ACAD
1000
MTEXTBEGIN
1070
    44
1040
0.96038415366146
1000
MTEXTEND
  0
DIMENSION
  5
59E
330
27A
100
AcDbEntity
  8
1
100
AcDbDimension
  2
*D182
 10
1478.205398452689
 20
-591.2838215165027
 30
0.0
 11
1474.455398452689
 21
-550.9231758837802
 31
0.0
 70
    32
  1
<>
 53
90.0
  3
ME10_DIM_15
100
AcDbAlignedDimension
 13
1507.243779208086
 23
-581.8220470344479
 33
0.0
 14
1505.908681481837
 24
-591.2838215165027
 34
0.0
 50
90.0
100
AcDbRotatedDimension
  0
INSERT
  5
5A9
330
27A
100
AcDbEntity
  8
1
100
AcDbBlockReference
  2
*D183
 10
0.0
 20
0.0
 30
0.0
  0
ENDBLK
  5
27D
330
27A
100
AcDbEntity
  8
0
100
AcDbBlockEnd
  0
BLOCK
  5
27F
330
27E
100
AcDbEntity
  8
0
100
AcDbBlockBegin
  2
STIPITE_MONTANTE_SX_1__140
 70
     0
 10
-878.6969323913836
 20
-651.6302790407808
 30
0.0
  3
STIPITE_MONTANTE_SX_1__140
  1

  0
LINE
  5
5AA
330
27E
100
AcDbEntity
  8
0
  6
CONTINUOUS
 62
     7
100
AcDbLine
 10
-878.6969323913836
 20
-561.6302790407808
 30
0.0
 11
-878.6969323913836
 21
-651.6302790407808
 31
0.0
  0
LINE
  5
5AB
330
27E
100
AcDbEntity
  8
0
  6
CONTINUOUS
 62
     7
100
AcDbLine
 10
-878.6969323913836
 20
-561.6302790407808
 30
0.0
 11
-831.6969323913836
 21
-561.6302790407808
 31
0.0
  0
LINE
  5
5AC
330
27E
100
AcDbEntity
  8
0
  6
CONTINUOUS
 62
     7
100
AcDbLine
 10
-844.6969323913836
 20
-651.6302790407808
 30
0.0
 11
-878.6969323913836
 21
-651.6302790407808
 31
0.0
  0
LINE
  5
5AD
330
27E
100
AcDbEntity
  8
0
  6
CONTINUOUS
 62
     7
100
AcDbLine
 10
-842.707529634763
 20
-649.8359220356451
 30
0.0
 11
-842.6969323913836
 21
-649.6302790407808
 31
0.0
  0
LINE
  5
5AE
330
27E
100
AcDbEntity
  8
0
  6
CONTINUOUS
 62
     7
100
AcDbLine
 10
-842.7392373984349
 20
-650.0393827290045
 30
0.0
 11
-842.707529634763
 21
-649.8359220356451
 31
0.0
  0
LINE
  5
5AF
330
27E
100
AcDbEntity
  8
0
  6
CONTINUOUS
 62
     7
100
AcDbLine
 10
-842.7916665976536
 20
-650.2385099262701
 30
0.0
 11
-842.7392373984349
 21
-650.0393827290045
 31
0.0
  0
LINE
  5
5B0
330
27E
100
AcDbEntity
  8
0
  6
CONTINUOUS
 62
     7
100
AcDbLine
 10
-842.8642984335911
 20
-650.4311864704596
 30
0.0
 11
-842.7916665976536
 21
-650.2385099262701
 31
0.0
  0
LINE
  5
5B1
330
27E
100
AcDbEntity
  8
0
  6
CONTINUOUS
 62
     7
100
AcDbLine
 10
-842.9563699667942
 20
-650.615375313233
 30
0.0
 11
-842.8642984335911
 21
-650.4311864704596
 31
0.0
  0
LINE
  5
5B2
330
27E
100
AcDbEntity
  8
0
  6
CONTINUOUS
 62
     7
100
AcDbLine
 10
-843.0668741171849
 20
-650.7891195148932
 30
0.0
 11
-842.9563699667942
 21
-650.615375313233
 31
0.0
  0
LINE
  5
5B3
330
27E
100
AcDbEntity
  8
0
  6
CONTINUOUS
 62
     7
100
AcDbLine
 10
-843.1946817343724
 20
-650.9505842060553
 30
0.0
 11
-843.0668741171849
 21
-650.7891195148932
 31
0.0
  0
LINE
  5
5B4
330
27E
100
AcDbEntity
  8
0
  6
CONTINUOUS
 62
     7
100
AcDbLine
 10
-843.338389009763
 20
-651.0980489582525
 30
0.0
 11
-843.1946817343724
 21
-650.9505842060553
 31
0.0
  0
LINE
  5
5B5
330
27E
100
AcDbEntity
  8
0
  6
CONTINUOUS
 62
     7
100
AcDbLine
 10
-843.4965005820286
 20
-651.2299573750006
 30
0.0
 11
-843.338389009763
 21
-651.0980489582525
 31
0.0
  0
LINE
  5
5B6
330
27E
100
AcDbEntity
  8
0
  6
CONTINUOUS
 62
     7
100
AcDbLine
 10
-843.6673379843724
 20
-651.3449094624038
 30
0.0
 11
-843.4965005820286
 21
-651.2299573750006
 31
0.0
  0
LINE
  5
5B7
330
27E
100
AcDbEntity
  8
0
  6
CONTINUOUS
 62
     7
100
AcDbLine
 10
-843.8491006796849
 20
-651.4416845173346
 30
0.0
 11
-843.6673379843724
 21
-651.3449094624038
 31
0.0
  0
LINE
  5
5B8
330
27E
100
AcDbEntity
  8
0
  6
CONTINUOUS
 62
     7
100
AcDbLine
 10
-844.0398355429661
 20
-651.5192563862311
 30
0.0
 11
-843.8491006796849
 21
-651.4416845173346
 31
0.0
  0
LINE
  5
5B9
330
27E
100
AcDbEntity
  8
0
  6
CONTINUOUS
 62
     7
100
AcDbLine
 10
-844.2375284140599
 20
-651.5768087238775
 30
0.0
 11
-844.0398355429661
 21
-651.5192563862311
 31
0.0
  0
LINE
  5
5BA
330
27E
100
AcDbEntity
  8
0
  6
CONTINUOUS
 62
     7
100
AcDbLine
 10
-844.4401651328099
 20
-651.613723549317
 30
0.0
 11
-844.2375284140599
 21
-651.5768087238775
 31
0.0
  0
LINE
  5
5BB
330
27E
100
AcDbEntity
  8
0
  6
CONTINUOUS
 62
     7
100
AcDbLine
 10
-844.6454263632786
 20
-651.6296155781256
 30
0.0
 11
-844.4401651328099
 21
-651.613723549317
 31
0.0
  0
LINE
  5
5BC
330
27E
100
AcDbEntity
  8
0
  6
CONTINUOUS
 62
     7
100
AcDbLine
 10
-844.6969323913836
 20
-651.6302790407808
 30
0.0
 11
-844.6454263632786
 21
-651.6296155781256
 31
0.0
  0
LINE
  5
5BD
330
27E
100
AcDbEntity
  8
0
  6
CONTINUOUS
 62
     7
100
AcDbLine
 10
-842.6969323913836
 20
-601.6302790407808
 30
0.0
 11
-842.6969323913836
 21
-649.6302790407808
 31
0.0
  0
LINE
  5
5BE
330
27E
100
AcDbEntity
  8
0
  6
CONTINUOUS
 62
     7
100
AcDbLine
 10
-842.6969323913836
 20
-601.6302790407808
 30
0.0
 11
-833.6969323913836
 21
-601.6302790407808
 31
0.0
  0
LINE
  5
5BF
330
27E
100
AcDbEntity
  8
0
  6
CONTINUOUS
 62
     7
100
AcDbLine
 10
-831.8491617148411
 20
-600.3956449360358
 30
0.0
 11
-831.6969323913836
 21
-599.6302790407808
 31
0.0
  0
LINE
  5
5C0
330
27E
100
AcDbEntity
  8
0
  6
CONTINUOUS
 62
     7
100
AcDbLine
 10
-832.282724947263
 20
-601.0444925159918
 30
0.0
 11
-831.8491617148411
 21
-600.3956449360358
 31
0.0
  0
LINE
  5
5C1
330
27E
100
AcDbEntity
  8
0
  6
CONTINUOUS
 62
     7
100
AcDbLine
 10
-832.9315591757786
 20
-601.478038582276
 30
0.0
 11
-832.282724947263
 21
-601.0444925159918
 31
0.0
  0
LINE
  5
5C2
330
27E
100
AcDbEntity
  8
0
  6
CONTINUOUS
 62
     7
100
AcDbLine
 10
-833.6969323913836
 20
-601.6302790407808
 30
0.0
 11
-832.9315591757786
 21
-601.478038582276
 31
0.0
  0
LINE
  5
5C3
330
27E
100
AcDbEntity
  8
0
  6
CONTINUOUS
 62
     7
100
AcDbLine
 10
-831.6969323913836
 20
-599.6302790407808
 30
0.0
 11
-831.6969323913836
 21
-561.6302790407808
 31
0.0
  0
ENDBLK
  5
280
330
27E
100
AcDbEntity
  8
0
100
AcDbBlockEnd
  0
BLOCK
  5
282
330
281
100
AcDbEntity
  8
0
100
AcDbBlockBegin
  2
SCASSO_MONTANTE_S0043__141
 70
     0
 10
-843.9451216586149
 20
-651.4807362944812
 30
0.0
  3
SCASSO_MONTANTE_S0043__141
  1

  0
LINE
  5
5C4
330
281
100
AcDbEntity
  8
0
  6
CONTINUOUS
 62
     7
100
AcDbLine
 10
-843.9207818287723
 20
-651.4708372414798
 30
0.0
 11
-843.9315591757786
 21
-651.478038582276
 31
0.0
  0
LINE
  5
5C5
330
281
100
AcDbEntity
  8
0
  6
CONTINUOUS
 62
     7
100
AcDbLine
 10
-843.282724947263
 20
-651.0444925159918
 30
0.0
 11
-843.2926788803525
 21
-651.051143657909
 31
0.0
  0
LINE
  5
5C6
330
281
100
AcDbEntity
  8
0
  6
CONTINUOUS
 62
     7
100
AcDbLine
 10
-842.8472187080479
 20
-650.3858778886597
 30
0.0
 11
-842.8491617148411
 21
-650.3956468433844
 31
0.0
  0
LINE
  5
5C7
330
281
100
AcDbEntity
  8
0
  6
CONTINUOUS
 62
     7
100
AcDbLine
 10
-843.2751503640684
 20
-651.0331568326128
 30
0.0
 11
-843.282724947263
 21
-651.0444925159918
 31
0.0
  0
LINE
  5
5C8
330
281
100
AcDbEntity
  8
0
  6
CONTINUOUS
 62
     7
100
AcDbLine
 10
-842.8491617148411
 20
-650.3956468433844
 30
0.0
 11
-842.8531529335232
 21
-650.4016198705622
 31
0.0
  0
LINE
  5
5C9
330
281
100
AcDbEntity
  8
0
  6
CONTINUOUS
 62
     7
100
AcDbLine
 10
-843.9315591757786
 20
-651.478038582276
 30
0.0
 11
-843.9451216586149
 21
-651.4807362944812
 31
0.0
  0
ENDBLK
  5
283
330
281
100
AcDbEntity
  8
0
100
AcDbBlockEnd
  0
BLOCK
  5
286
330
284
100
AcDbEntity
  8
0
100
AcDbBlockBegin
  2
PX004196_GRUPPO_N_3_SC_142
 70
     0
 10
-843.9451216586149
 20
-651.4807362944812
 30
0.0
  3
PX004196_GRUPPO_N_3_SC_142
  1

  0
INSERT
  5
285
330
284
100
AcDbEntity
  8
0
100
AcDbBlockReference
  2
SCASSO_MONTANTE_S0043__141
 10
-843.9451216586149
 20
-651.4807362944812
 30
0.0
  0
ENDBLK
  5
287
330
284
100
AcDbEntity
  8
0
100
AcDbBlockEnd
  0
BLOCK
  5
28A
330
288
100
AcDbEntity
  8
0
100
AcDbBlockBegin
  2
FRESATE_CERNIERE_TELAI_143
 70
     0
 10
-843.9451216586149
 20
-651.4807362944812
 30
0.0
  3
FRESATE_CERNIERE_TELAI_143
  1

  0
INSERT
  5
289
330
288
100
AcDbEntity
  8
0
100
AcDbBlockReference
  2
PX004196_GRUPPO_N_3_SC_142
 10
-843.9451216586149
 20
-651.4807362944812
 30
0.0
  0
ENDBLK
  5
28B
330
288
100
AcDbEntity
  8
0
100
AcDbBlockEnd
  0
BLOCK
  5
28D
330
28C
100
AcDbEntity
  8
0
100
AcDbBlockBegin
  2
PX001697_STIPITE_MONTA_144
 70
     0
 10
168.3030674759484
 20
-651.6302790386835
 30
0.0
  3
PX001697_STIPITE_MONTA_144
  1

  0
LINE
  5
5CA
330
28C
100
AcDbEntity
  8
0
  6
CONTINUOUS
 62
     7
100
AcDbLine
 10
210.3030674759484
 20
-651.6302790386835
 30
0.0
 11
210.3030674759484
 21
-561.6302790386835
 31
0.0
  0
LINE
  5
5CB
330
28C
100
AcDbEntity
  8
0
  6
CONTINUOUS
 62
     7
100
AcDbLine
 10
179.455312162112
 20
-650.3956449360358
 30
0.0
 11
179.3030674759484
 21
-649.6302790386835
 31
0.0
  0
LINE
  5
5CC
330
28C
100
AcDbEntity
  8
0
  6
CONTINUOUS
 62
     7
100
AcDbLine
 10
179.8888448769558
 20
-651.0444925159918
 30
0.0
 11
179.455312162112
 21
-650.3956449360358
 31
0.0
  0
LINE
  5
5CD
330
28C
100
AcDbEntity
  8
0
  6
CONTINUOUS
 62
     7
100
AcDbLine
 10
180.5376791054714
 20
-651.478038582276
 30
0.0
 11
179.8888448769558
 21
-651.0444925159918
 31
0.0
  0
LINE
  5
5CE
330
28C
100
AcDbEntity
  8
0
  6
CONTINUOUS
 62
     7
100
AcDbLine
 10
181.3030674759484
 20
-651.6302790386835
 30
0.0
 11
180.5376791054714
 21
-651.478038582276
 31
0.0
  0
LINE
  5
5CF
330
28C
100
AcDbEntity
  8
0
  6
CONTINUOUS
 62
     7
100
AcDbLine
 10
179.3030674759484
 20
-601.6302790387035
 30
0.0
 11
179.3030674759484
 21
-649.6302790386835
 31
0.0
  0
LINE
  5
5D0
330
28C
100
AcDbEntity
  8
0
  6
CONTINUOUS
 62
     7
100
AcDbLine
 10
181.3030674759484
 20
-651.6302790386835
 30
0.0
 11
210.3030674759484
 21
-651.6302790386835
 31
0.0
  0
LINE
  5
5D1
330
28C
100
AcDbEntity
  8
0
  6
CONTINUOUS
 62
     7
100
AcDbLine
 10
168.455312162112
 20
-600.3956449360358
 30
0.0
 11
168.3030674759484
 21
-599.6302790387035
 31
0.0
  0
LINE
  5
5D2
330
28C
100
AcDbEntity
  8
0
  6
CONTINUOUS
 62
     7
100
AcDbLine
 10
168.8888448769558
 20
-601.0444925159918
 30
0.0
 11
168.455312162112
 21
-600.3956449360358
 31
0.0
  0
LINE
  5
5D3
330
28C
100
AcDbEntity
  8
0
  6
CONTINUOUS
 62
     7
100
AcDbLine
 10
169.5377096230495
 20
-601.478038582276
 30
0.0
 11
168.8888448769558
 21
-601.0444925159918
 31
0.0
  0
LINE
  5
5D4
330
28C
100
AcDbEntity
  8
0
  6
CONTINUOUS
 62
     7
100
AcDbLine
 10
170.3030674759484
 20
-601.6302790387035
 30
0.0
 11
169.5377096230495
 21
-601.478038582276
 31
0.0
  0
LINE
  5
5D5
330
28C
100
AcDbEntity
  8
0
  6
CONTINUOUS
 62
     7
100
AcDbLine
 10
179.3030674759484
 20
-601.6302790387035
 30
0.0
 11
170.3030674759484
 21
-601.6302790387035
 31
0.0
  0
LINE
  5
5D6
330
28C
100
AcDbEntity
  8
0
  6
CONTINUOUS
 62
     7
100
AcDbLine
 10
168.3030674759484
 20
-561.6302790386835
 30
0.0
 11
168.3030674759484
 21
-599.6302790387035
 31
0.0
  0
LINE
  5
5D7
330
28C
100
AcDbEntity
  8
0
  6
CONTINUOUS
 62
     7
100
AcDbLine
 10
210.3030674759484
 20
-561.6302790386835
 30
0.0
 11
168.3030674759484
 21
-561.6302790386835
 31
0.0
  0
ENDBLK
  5
28E
330
28C
100
AcDbEntity
  8
0
100
AcDbBlockEnd
  0
BLOCK
  5
291
330
28F
100
AcDbEntity
  8
0
100
AcDbBlockBegin
  2
TELAIO__145
 70
     0
 10
168.3030674759484
 20
-651.6302790386835
 30
0.0
  3
TELAIO__145
  1

  0
INSERT
  5
290
330
28F
100
AcDbEntity
  8
0
100
AcDbBlockReference
  2
PX001697_STIPITE_MONTA_144
 10
168.3030674759484
 20
-651.6302790386835
 30
0.0
  0
ENDBLK
  5
292
330
28F
100
AcDbEntity
  8
0
100
AcDbBlockEnd
  0
BLOCK
  5
296
330
293
100
AcDbEntity
  8
0
100
AcDbBlockBegin
  2
TELAIO_BATTENTE_L1000X_146
 70
     0
 10
-843.9451216586149
 20
-651.6302790386835
 30
0.0
  3
TELAIO_BATTENTE_L1000X_146
  1

  0
INSERT
  5
294
330
293
100
AcDbEntity
  8
0
100
AcDbBlockReference
  2
FRESATE_CERNIERE_TELAI_143
 10
-843.9451216586149
 20
-651.4807362944812
 30
0.0
  0
INSERT
  5
295
330
293
100
AcDbEntity
  8
0
100
AcDbBlockReference
  2
TELAIO__145
 10
168.3030674759484
 20
-651.6302790386835
 30
0.0
  0
ENDBLK
  5
297
330
293
100
AcDbEntity
  8
0
100
AcDbBlockEnd
  0
BLOCK
  5
299
330
298
100
AcDbEntity
  8
0
100
AcDbBlockBegin
  2
CORPO_REG_Y_CERN__S006_147
 70
     0
 10
-842.6969400394191
 20
-645.4460650690062
 30
0.0
  3
CORPO_REG_Y_CERN__S006_147
  1

  0
LINE
  5
5D8
330
298
100
AcDbEntity
  8
0
  6
CONTINUOUS
 62
     7
100
AcDbLine
 10
-842.3219325518894
 20
-644.3302790378675
 30
0.0
 11
-842.3219325518894
 21
-639.3302790378675
 31
0.0
  0
LINE
  5
5D9
330
298
100
AcDbEntity
  8
0
  6
CONTINUOUS
 62
     7
100
AcDbLine
 10
-842.4005227988255
 20
-638.7751601070868
 30
0.0
 11
-842.3219325518894
 21
-639.3302790378675
 31
0.0
  0
LINE
  5
5DA
330
298
100
AcDbEntity
  8
0
  6
CONTINUOUS
 62
     7
100
AcDbLine
 10
-842.6969397895318
 20
-638.2024150728485
 30
0.0
 11
-842.4005227988255
 21
-638.7751601070868
 31
0.0
  0
LINE
  5
5DB
330
298
100
AcDbEntity
  8
0
  6
CONTINUOUS
 62
     7
100
AcDbLine
 10
-842.5707498496067
 20
-645.296397957276
 30
0.0
 11
-842.6969400394191
 21
-645.4460650690062
 31
0.0
  0
ARC
  5
5DC
330
298
100
AcDbEntity
  8
0
  6
CONTINUOUS
 62
     7
100
AcDbCircle
 10
-844.3219325518421
 20
-644.3302928163148
 30
0.0
 40
2.000000000000014
100
AcDbArc
 50
331.1150392710375
 51
0.00039472343877
  0
ENDBLK
  5
29A
330
298
100
AcDbEntity
  8
0
100
AcDbBlockEnd
  0
BLOCK
  5
29D
330
29B
100
AcDbEntity
  8
0
100
AcDbBlockBegin
  2
PD00700A24600_CORPO_RE_148
 70
     0
 10
-842.6969400394191
 20
-645.4460650690062
 30
0.0
  3
PD00700A24600_CORPO_RE_148
  1

  0
INSERT
  5
29C
330
29B
100
AcDbEntity
  8
0
100
AcDbBlockReference
  2
CORPO_REG_Y_CERN__S006_147
 10
-842.6969400394191
 20
-645.4460650690062
 30
0.0
  0
ENDBLK
  5
29E
330
29B
100
AcDbEntity
  8
0
100
AcDbBlockEnd
  0
BLOCK
  5
2A0
330
29F
100
AcDbEntity
  8
0
100
AcDbBlockBegin
  2
BIELLA_INTERNA_PORTA_S_149
 70
     0
 10
-842.6969517315083
 20
-665.4429025702066
 30
0.0
  3
BIELLA_INTERNA_PORTA_S_149
  1

  0
LINE
  5
5DD
330
29F
100
AcDbEntity
  8
0
  6
CONTINUOUS
 62
     7
100
AcDbLine
 10
-824.9225054926828
 20
-648.3040425040317
 30
0.0
 11
-824.9221902792942
 21
-648.2769039005743
 31
0.0
  0
LINE
  5
5DE
330
29F
100
AcDbEntity
  8
0
  6
CONTINUOUS
 62
     7
100
AcDbLine
 10
-825.1077697596647
 20
-647.070657300912
 30
0.0
 11
-825.1427408164036
 21
-646.9436042637335
 31
0.0
  0
LINE
  5
5DF
330
29F
100
AcDbEntity
  8
0
  6
CONTINUOUS
 62
     7
100
AcDbLine
 10
-825.0469156210911
 20
-647.2917459339606
 30
0.0
 11
-825.0684729038985
 21
-647.2134263603075
 31
0.0
  0
LINE
  5
5E0
330
29F
100
AcDbEntity
  8
0
  6
CONTINUOUS
 62
     7
100
AcDbLine
 10
-824.9358158359264
 20
-648.0473194669657
 30
0.0
 11
-824.9435831015599
 21
-647.9164445728766
 31
0.0
  0
LINE
  5
5E1
330
29F
100
AcDbEntity
  8
0
  6
CONTINUOUS
 62
     7
100
AcDbLine
 10
-824.9221902792942
 20
-648.2769039005743
 30
0.0
 11
-824.9239736761592
 21
-648.2468544743151
 31
0.0
  0
LINE
  5
5E2
330
29F
100
AcDbEntity
  8
0
  6
CONTINUOUS
 62
     7
100
AcDbLine
 10
-825.4792688488469
 20
-646.1503142328838
 30
0.0
 11
-825.5398355429661
 21
-646.0334356159674
 31
0.0
  0
LINE
  5
5E3
330
29F
100
AcDbEntity
  8
0
  6
CONTINUOUS
 62
     7
100
AcDbLine
 10
-825.3736978476536
 20
-646.3540399403082
 30
0.0
 11
-825.4111285638082
 21
-646.2818079917442
 31
0.0
  0
LINE
  5
5E4
330
29F
100
AcDbEntity
  8
0
  6
CONTINUOUS
 62
     7
100
AcDbLine
 10
-825.7664643515855
 20
-645.6896285098628
 30
0.0
 11
-825.8883157675755
 21
-645.5047738880621
 31
0.0
  0
LINE
  5
5E5
330
29F
100
AcDbEntity
  8
0
  6
CONTINUOUS
 62
     7
100
AcDbLine
 10
-825.5398355429661
 20
-646.0334356159674
 30
0.0
 11
-825.5664146149229
 21
-645.9931138498687
 31
0.0
  0
LINE
  5
5E6
330
29F
100
AcDbEntity
  8
0
  6
CONTINUOUS
 62
     7
100
AcDbLine
 10
-826.0337359071673
 20
-645.327685918015
 30
0.0
 11
-826.1174722617161
 21
-645.2257144779678
 31
0.0
  0
LINE
  5
5E7
330
29F
100
AcDbEntity
  8
0
  6
CONTINUOUS
 62
     7
100
AcDbLine
 10
-825.8883157675755
 20
-645.5047738880621
 30
0.0
 11
-825.9399947508264
 21
-645.4418408839838
 31
0.0
  0
LINE
  5
5E8
330
29F
100
AcDbEntity
  8
0
  6
CONTINUOUS
 62
     7
100
AcDbLine
 10
-826.7479017472233
 20
-644.6376269695211
 30
0.0
 11
-826.8504434531224
 21
-644.5557449192511
 31
0.0
  0
LINE
  5
5E9
330
29F
100
AcDbEntity
  8
0
  6
CONTINUOUS
 62
     7
100
AcDbLine
 10
-826.5682779257786
 20
-644.7810609669195
 30
0.0
 11
-826.6316516268926
 21
-644.7304555226774
 31
0.0
  0
LINE
  5
5EA
330
29F
100
AcDbEntity
  8
0
  6
CONTINUOUS
 62
     7
100
AcDbLine
 10
-825.0109062753163
 20
-647.5094410931988
 30
0.0
 11
-825.0469156210911
 21
-647.2917459339606
 31
0.0
  0
LINE
  5
5EB
330
29F
100
AcDbEntity
  8
0
  6
CONTINUOUS
 62
     7
100
AcDbLine
 10
-824.9435831015599
 20
-647.9164445728766
 30
0.0
 11
-824.9514166490499
 21
-647.8690867180885
 31
0.0
  0
LINE
  5
5EC
330
29F
100
AcDbEntity
  8
0
  6
CONTINUOUS
 62
     7
100
AcDbLine
 10
-826.8504434531224
 20
-644.5557449192511
 30
0.0
 11
-826.8910813007842
 21
-644.5297484994635
 31
0.0
  0
LINE
  5
5ED
330
29F
100
AcDbEntity
  8
0
  6
CONTINUOUS
 62
     7
100
AcDbLine
 10
-825.2928688557022
 20
-646.5603722164687
 30
0.0
 11
-825.3736978476536
 21
-646.3540399403082
 31
0.0
  0
LINE
  5
5EE
330
29F
100
AcDbEntity
  8
0
  6
CONTINUOUS
 62
     7
100
AcDbLine
 10
-825.1427408164036
 20
-646.9436042637335
 30
0.0
 11
-825.1604257582312
 21
-646.898459889012
 31
0.0
  0
LINE
  5
5EF
330
29F
100
AcDbEntity
  8
0
  6
CONTINUOUS
 62
     7
100
AcDbLine
 10
-826.4109199160976
 20
-644.9362715090092
 30
0.0
 11
-826.5682779257786
 21
-644.7810609669195
 31
0.0
  0
LINE
  5
5F0
330
29F
100
AcDbEntity
  8
0
  6
CONTINUOUS
 62
     7
100
AcDbLine
 10
-826.1174722617161
 20
-645.2257144779678
 30
0.0
 11
-826.1519394269762
 21
-645.1917176867328
 31
0.0
  0
LINE
  5
5F1
330
29F
100
AcDbEntity
  8
0
  6
CONTINUOUS
 62
     1
100
AcDbLine
 10
-839.1327114006308
 20
-636.5075793221868
 30
0.0
 11
-839.6322225287204
 21
-636.0336766274568
 31
0.0
  0
LINE
  5
5F2
330
29F
100
AcDbEntity
  8
0
  6
CONTINUOUS
 62
     7
100
AcDbLine
 10
-831.1715053020434
 20
-641.7172918763308
 30
0.0
 11
-838.4863338343439
 21
-634.7774726050175
 31
0.0
  0
LINE
  5
5F3
330
29F
100
AcDbEntity
  8
0
  6
CONTINUOUS
 62
     1
100
AcDbLine
 10
-839.3346963828099
 20
-635.6387381882178
 30
0.0
 11
-839.6322225287204
 21
-636.0336766274568
 31
0.0
  0
LINE
  5
5F4
330
29F
100
AcDbEntity
  8
0
  6
CONTINUOUS
 62
     1
100
AcDbLine
 10
-839.0637918417942
 20
-635.2791378826605
 30
0.0
 11
-839.3346963828099
 21
-635.6387381882178
 31
0.0
  0
LINE
  5
5F5
330
29F
100
AcDbEntity
  8
0
  6
CONTINUOUS
 62
     1
100
AcDbLine
 10
-838.6091058090824
 20
-634.6756112299563
 30
0.0
 11
-839.0637918417942
 21
-635.2791378826605
 31
0.0
  0
LINE
  5
5F6
330
29F
100
AcDbEntity
  8
0
  6
CONTINUOUS
 62
     7
100
AcDbLine
 10
-838.5157266562474
 20
-634.7504976124274
 30
0.0
 11
-838.4863338343439
 21
-634.7774726050175
 31
0.0
  0
LINE
  5
5F7
330
29F
100
AcDbEntity
  8
0
  6
CONTINUOUS
 62
     7
100
AcDbLine
 10
-838.5460306113255
 20
-634.724499973725
 30
0.0
 11
-838.5157266562474
 21
-634.7504976124274
 31
0.0
  0
LINE
  5
5F8
330
29F
100
AcDbEntity
  8
0
  6
CONTINUOUS
 62
     7
100
AcDbLine
 10
-838.577158541013
 20
-634.6995246738898
 30
0.0
 11
-838.5460306113255
 21
-634.724499973725
 31
0.0
  0
LINE
  5
5F9
330
29F
100
AcDbEntity
  8
0
  6
CONTINUOUS
 62
     7
100
AcDbLine
 10
-838.6091058090824
 20
-634.6756112299563
 30
0.0
 11
-838.577158541013
 21
-634.6995246738898
 31
0.0
  0
LINE
  5
5FA
330
29F
100
AcDbEntity
  8
0
  6
CONTINUOUS
 62
     1
100
AcDbLine
 10
-838.9955545371067
 20
-635.335731777619
 30
0.0
 11
-839.6322225287204
 21
-636.0336766274568
 31
0.0
  0
LINE
  5
5FB
330
29F
100
AcDbEntity
  8
0
  6
CONTINUOUS
 62
     1
100
AcDbLine
 10
-838.6796060507786
 20
-634.9893493980871
 30
0.0
 11
-838.9955545371067
 21
-635.335731777619
 31
0.0
  0
LINE
  5
5FC
330
29F
100
AcDbEntity
  8
0
  6
CONTINUOUS
 62
     1
100
AcDbLine
 10
-838.4863338343439
 20
-634.7774726050175
 30
0.0
 11
-838.6796060507786
 21
-634.9893493980871
 31
0.0
  0
LINE
  5
5FD
330
29F
100
AcDbEntity
  8
0
  6
CONTINUOUS
 62
     7
100
AcDbLine
 10
-842.3721414511692
 20
-636.1573531956183
 30
0.0
 11
-842.6969400419057
 21
-635.9838200505546
 31
0.0
  0
LINE
  5
5FE
330
29F
100
AcDbEntity
  8
0
  6
CONTINUOUS
 62
     7
100
AcDbLine
 10
-842.2289754942922
 20
-636.2816818560996
 30
0.0
 11
-842.3721414511692
 21
-636.1573531956183
 31
0.0
  0
LINE
  5
5FF
330
29F
100
AcDbEntity
  8
0
  6
CONTINUOUS
 62
     1
100
AcDbLine
 10
-839.6322225287204
 20
-636.0336766274568
 30
0.0
 11
-842.696947931232
 21
-633.817583600181
 31
0.0
  0
LINE
  5
600
330
29F
100
AcDbEntity
  8
0
  6
CONTINUOUS
 62
     7
100
AcDbLine
 10
-838.6091058090824
 20
-634.6756112299563
 30
0.0
 11
-842.6969517315083
 21
-631.7197030634889
 31
0.0
  0
LINE
  5
601
330
29F
100
AcDbEntity
  8
0
  6
CONTINUOUS
 62
     7
100
AcDbLine
 10
-832.2577310507786
 20
-659.4452188343512
 30
0.0
 11
-832.4916745631072
 21
-659.5383203116735
 31
0.0
  0
LINE
  5
602
330
29F
100
AcDbEntity
  8
0
  6
CONTINUOUS
 62
     7
100
AcDbLine
 10
-832.0825601523411
 20
-659.3424756855475
 30
0.0
 11
-832.2577310507786
 21
-659.4452188343512
 31
0.0
  0
LINE
  5
603
330
29F
100
AcDbEntity
  8
0
  6
CONTINUOUS
 62
     7
100
AcDbLine
 10
-832.0268960898411
 20
-659.3026502460943
 30
0.0
 11
-832.0825601523411
 21
-659.3424756855475
 31
0.0
  0
LINE
  5
604
330
29F
100
AcDbEntity
  8
0
  6
CONTINUOUS
 62
     7
100
AcDbLine
 10
-831.7962442343724
 20
-659.0881631702887
 30
0.0
 11
-832.0268960898411
 21
-659.3026502460943
 31
0.0
  0
LINE
  5
605
330
29F
100
AcDbEntity
  8
0
  6
CONTINUOUS
 62
     7
100
AcDbLine
 10
-831.7357889121067
 20
-659.014135155152
 30
0.0
 11
-831.7962442343724
 21
-659.0881631702887
 31
0.0
  0
LINE
  5
606
330
29F
100
AcDbEntity
  8
0
  6
CONTINUOUS
 62
     7
100
AcDbLine
 10
-831.6715188925755
 20
-658.9232652515875
 30
0.0
 11
-831.7357889121067
 21
-659.014135155152
 31
0.0
  0
LINE
  5
607
330
29F
100
AcDbEntity
  8
0
  6
CONTINUOUS
 62
     7
100
AcDbLine
 10
-831.5980935996067
 20
-658.7980039448248
 30
0.0
 11
-831.6715188925755
 21
-658.9232652515875
 31
0.0
  0
LINE
  5
608
330
29F
100
AcDbEntity
  8
0
  6
CONTINUOUS
 62
     7
100
AcDbLine
 10
-831.5057474082005
 20
-658.5815294117438
 30
0.0
 11
-831.5980935996067
 21
-658.7980039448248
 31
0.0
  0
LINE
  5
609
330
29F
100
AcDbEntity
  8
0
  6
CONTINUOUS
 62
     7
100
AcDbLine
 10
-831.4694620078099
 20
-658.4559476704108
 30
0.0
 11
-831.5057474082005
 21
-658.5815294117438
 31
0.0
  0
LINE
  5
60A
330
29F
100
AcDbEntity
  8
0
  6
CONTINUOUS
 62
     7
100
AcDbLine
 10
-831.4588113730442
 20
-658.4086187214361
 30
0.0
 11
-831.4694620078099
 21
-658.4559476704108
 31
0.0
  0
LINE
  5
60B
330
29F
100
AcDbEntity
  8
0
  6
CONTINUOUS
 62
     7
100
AcDbLine
 10
-831.4298501914036
 20
-658.1896760792242
 30
0.0
 11
-831.4588113730442
 21
-658.4086187214361
 31
0.0
  0
LINE
  5
60C
330
29F
100
AcDbEntity
  8
0
  6
CONTINUOUS
 62
     7
100
AcDbLine
 10
-831.4311319296849
 20
-657.9967115253912
 30
0.0
 11
-831.4298501914036
 21
-658.1896760792242
 31
0.0
  0
LINE
  5
60D
330
29F
100
AcDbEntity
  8
0
  6
CONTINUOUS
 62
     7
100
AcDbLine
 10
-831.4338885349971
 20
-657.9631731062555
 30
0.0
 11
-831.4311319296849
 21
-657.9967115253912
 31
0.0
  0
LINE
  5
60E
330
29F
100
AcDbEntity
  8
0
  6
CONTINUOUS
 62
     7
100
AcDbLine
 10
-831.7854022946904
 20
-659.323937021737
 30
0.0
 11
-833.6341915193116
 21
-659.8851221823288
 31
0.0
  0
LINE
  5
60F
330
29F
100
AcDbEntity
  8
0
  6
CONTINUOUS
 62
     7
100
AcDbLine
 10
-831.4920256706209
 20
-657.6673039857787
 30
0.0
 11
-832.3167131716255
 21
-654.9504228695323
 31
0.0
  0
LINE
  5
610
330
29F
100
AcDbEntity
  8
0
  6
CONTINUOUS
 62
     7
100
AcDbLine
 10
-831.4920256706209
 20
-657.6673039857787
 30
0.0
 11
-831.4338885349971
 21
-657.9631731062555
 31
0.0
  0
LINE
  5
611
330
29F
100
AcDbEntity
  8
0
  6
CONTINUOUS
 62
     1
100
AcDbLine
 10
-830.8377420080778
 20
-657.7822176030586
 30
0.0
 11
-831.4338885349971
 21
-657.9631731062555
 31
0.0
  0
LINE
  5
612
330
29F
100
AcDbEntity
  8
0
  6
CONTINUOUS
 62
     7
100
AcDbLine
 10
-831.8034158652317
 20
-659.5489194721686
 30
0.0
 11
-831.7854022946904
 21
-659.323937021737
 31
0.0
  0
LINE
  5
613
330
29F
100
AcDbEntity
  8
0
  6
CONTINUOUS
 62
     7
100
AcDbLine
 10
-831.823252291013
 20
-659.6866338581558
 30
0.0
 11
-831.8034158652317
 21
-659.5489194721686
 31
0.0
  0
LINE
  5
614
330
29F
100
AcDbEntity
  8
0
  6
CONTINUOUS
 62
     7
100
AcDbLine
 10
-831.90532723252
 20
-660.0385048303306
 30
0.0
 11
-831.823252291013
 21
-659.6866338581558
 31
0.0
  0
LINE
  5
615
330
29F
100
AcDbEntity
  8
0
  6
CONTINUOUS
 62
     7
100
AcDbLine
 10
-831.7953469411659
 20
-659.0870644277338
 30
0.0
 11
-831.7969032191613
 21
-659.0887759714296
 31
0.0
  0
LINE
  5
616
330
29F
100
AcDbEntity
  8
0
  6
CONTINUOUS
 62
     7
100
AcDbLine
 10
-831.6848978475155
 20
-658.94218641926
 30
0.0
 11
-831.7919542474338
 21
-659.0829101263935
 31
0.0
  0
LINE
  5
617
330
29F
100
AcDbEntity
  8
0
  6
CONTINUOUS
 62
     7
100
AcDbLine
 10
-832.0410951105023
 20
-659.3128090848841
 30
0.0
 11
-832.2517196914032
 21
-659.4416929863328
 31
0.0
  0
LINE
  5
618
330
29F
100
AcDbEntity
  8
0
  6
CONTINUOUS
 62
     7
100
AcDbLine
 10
-831.9955330310895
 20
-659.2734852051544
 30
0.0
 11
-832.036217599687
 21
-659.3093194192188
 31
0.0
  0
LINE
  5
619
330
29F
100
AcDbEntity
  8
0
  6
CONTINUOUS
 62
     1
100
AcDbLine
 10
-831.90532723252
 20
-660.0385048303306
 30
0.0
 11
-830.7559611526412
 21
-660.3834071562551
 31
0.0
  0
LINE
  5
61A
330
29F
100
AcDbEntity
  8
0
  6
CONTINUOUS
 62
     7
100
AcDbLine
 10
-831.4920256706209
 20
-657.6673039857787
 30
0.0
 11
-831.4311622110181
 21
-657.9963418258831
 31
0.0
  0
LINE
  5
61B
330
29F
100
AcDbEntity
  8
0
  6
CONTINUOUS
 62
     7
100
AcDbLine
 10
-831.5047971250697
 20
-658.5782405713562
 30
0.0
 11
-831.6769739491319
 21
-658.9309832828558
 31
0.0
  0
LINE
  5
61C
330
29F
100
AcDbEntity
  8
0
  6
CONTINUOUS
 62
     7
100
AcDbLine
 10
-831.4311421530692
 20
-657.9965866865105
 30
0.0
 11
-831.5041202503526
 21
-658.5758979049497
 31
0.0
  0
LINE
  5
61D
330
29F
100
AcDbEntity
  8
0
  6
CONTINUOUS
 62
     7
100
AcDbLine
 10
-830.844736666013
 20
-657.7963102192398
 30
0.0
 11
-830.8377420080778
 21
-657.7822176030586
 31
0.0
  0
LINE
  5
61E
330
29F
100
AcDbEntity
  8
0
  6
CONTINUOUS
 62
     7
100
AcDbLine
 10
-831.1126504843724
 20
-658.301639351319
 30
0.0
 11
-830.844736666013
 21
-657.7963102192398
 31
0.0
  0
LINE
  5
61F
330
29F
100
AcDbEntity
  8
0
  6
CONTINUOUS
 62
     7
100
AcDbLine
 10
-831.1425271933567
 20
-658.3541543812262
 30
0.0
 11
-831.1126504843724
 21
-658.301639351319
 31
0.0
  0
LINE
  5
620
330
29F
100
AcDbEntity
  8
0
  6
CONTINUOUS
 62
     7
100
AcDbLine
 10
-831.3960367148411
 20
-658.7716539234625
 30
0.0
 11
-831.1425271933567
 21
-658.3541543812262
 31
0.0
  0
LINE
  5
621
330
29F
100
AcDbEntity
  8
0
  6
CONTINUOUS
 62
     7
100
AcDbLine
 10
-831.4493204062474
 20
-658.8533437580572
 30
0.0
 11
-831.3960367148411
 21
-658.7716539234625
 31
0.0
  0
LINE
  5
622
330
29F
100
AcDbEntity
  8
0
  6
CONTINUOUS
 62
     7
100
AcDbLine
 10
-831.532480806638
 20
-658.9767873615738
 30
0.0
 11
-831.4493204062474
 21
-658.8533437580572
 31
0.0
  0
LINE
  5
623
330
29F
100
AcDbEntity
  8
0
  6
CONTINUOUS
 62
     7
100
AcDbLine
 10
-831.6267496054661
 20
-659.111017021607
 30
0.0
 11
-831.532480806638
 21
-658.9767873615738
 31
0.0
  0
LINE
  5
624
330
29F
100
AcDbEntity
  8
0
  6
CONTINUOUS
 62
     7
100
AcDbLine
 10
-831.6664224570286
 20
-659.1657693714606
 30
0.0
 11
-831.6267496054661
 21
-659.111017021607
 31
0.0
  0
LINE
  5
625
330
29F
100
AcDbEntity
  8
0
  6
CONTINUOUS
 62
     7
100
AcDbLine
 10
-831.7394815390599
 20
-659.2639444202887
 30
0.0
 11
-831.6664224570286
 21
-659.1657693714606
 31
0.0
  0
LINE
  5
626
330
29F
100
AcDbEntity
  8
0
  6
CONTINUOUS
 62
     7
100
AcDbLine
 10
-831.7854022946904
 20
-659.323937021737
 30
0.0
 11
-831.7394815390599
 21
-659.2639444202887
 31
0.0
  0
LINE
  5
627
330
29F
100
AcDbEntity
  8
0
  6
CONTINUOUS
 62
     7
100
AcDbLine
 10
-833.6341915193116
 20
-659.8851221823288
 30
0.0
 11
-835.8328604374619
 21
-660.5525105214028
 31
0.0
  0
LINE
  5
628
330
29F
100
AcDbEntity
  8
0
  6
CONTINUOUS
 62
     7
100
AcDbLine
 10
-831.90532723252
 20
-660.0385048303306
 30
0.0
 11
-832.9305117193217
 21
-663.4548699464203
 31
0.0
  0
LINE
  5
629
330
29F
100
AcDbEntity
  8
0
  6
CONTINUOUS
 62
     1
100
AcDbLine
 10
-830.7559611526412
 20
-660.3834071562551
 30
0.0
 11
-831.9668304163679
 21
-664.418555528081
 31
0.0
  0
LINE
  5
62A
330
29F
100
AcDbEntity
  8
0
  6
CONTINUOUS
 62
     1
100
AcDbLine
 10
-830.9424761083192
 20
-665.4429025702066
 30
0.0
 11
-830.2502024618825
 21
-665.2327684498432
 31
0.0
  0
LINE
  5
62B
330
29F
100
AcDbEntity
  8
0
  6
CONTINUOUS
 62
     1
100
AcDbLine
 10
-833.6341915193116
 20
-659.8851221823288
 30
0.0
 11
-834.2957260860694
 21
-662.0896459983505
 31
0.0
  0
ARC
  5
62C
330
29F
100
AcDbEntity
  8
0
  6
CONTINUOUS
 62
     1
100
AcDbCircle
 10
-834.682961925555
 20
-659.2049908760155
 30
0.0
 40
4.099999999999867
100
AcDbArc
 50
343.2965253889726
 51
20.30502290656212
  0
ENDBLK
  5
2A1
330
29F
100
AcDbEntity
  8
0
100
AcDbBlockEnd
  0
BLOCK
  5
2A4
330
2A2
100
AcDbEntity
  8
0
100
AcDbBlockBegin
  2
PD05300A09100_BIELLA_I_150
 70
     0
 10
-842.6969517315083
 20
-665.4429025702066
 30
0.0
  3
PD05300A09100_BIELLA_I_150
  1

  0
INSERT
  5
2A3
330
2A2
100
AcDbEntity
  8
0
100
AcDbBlockReference
  2
BIELLA_INTERNA_PORTA_S_149
 10
-842.6969517315083
 20
-665.4429025702066
 30
0.0
  0
ENDBLK
  5
2A5
330
2A2
100
AcDbEntity
  8
0
100
AcDbBlockEnd
  0
BLOCK
  5
2A7
330
2A6
100
AcDbEntity
  8
0
100
AcDbBlockBegin
  2
BIELLA_INTERNA_MONTANT_151
 70
     0
 10
-842.6969524788019
 20
-669.910307647765
 30
0.0
  3
BIELLA_INTERNA_MONTANT_151
  1

  0
LINE
  5
62D
330
2A6
100
AcDbEntity
  8
0
  6
CONTINUOUS
 62
     1
100
AcDbLine
 10
-828.0002778472335
 20
-645.8259384995772
 30
0.0
 11
-827.0689798395324
 21
-644.4037275374303
 31
0.0
  0
LINE
  5
62E
330
2A6
100
AcDbEntity
  8
0
  6
CONTINUOUS
 62
     1
100
AcDbLine
 10
-826.6211690249256
 20
-648.3633670080544
 30
0.0
 11
-824.9211874113462
 21
-648.3554604604678
 31
0.0
  0
LINE
  5
62F
330
2A6
100
AcDbEntity
  8
0
  6
CONTINUOUS
 62
     1
100
AcDbLine
 10
-826.570509830206
 20
-659.2555672562657
 30
0.0
 11
-826.6211690249256
 21
-648.3633670080544
 31
0.0
  0
LINE
  5
630
330
2A6
100
AcDbEntity
  8
0
  6
CONTINUOUS
 62
     7
100
AcDbLine
 10
-824.8703465511207
 20
-659.2867204902286
 30
0.0
 11
-824.9211874113462
 21
-648.3554604604678
 31
0.0
  0
LINE
  5
631
330
2A6
100
AcDbEntity
  8
0
  6
CONTINUOUS
 62
     7
100
AcDbLine
 10
-827.0689798395324
 20
-644.4037275374303
 30
0.0
 11
-839.083881890132
 21
-636.5360801628412
 31
0.0
  0
LINE
  5
632
330
2A6
100
AcDbEntity
  8
0
  6
CONTINUOUS
 62
     1
100
AcDbLine
 10
-828.0002778472335
 20
-645.8259384995772
 30
0.0
 11
-840.0151798978331
 21
-637.958291124989
 31
0.0
  0
LINE
  5
633
330
2A6
100
AcDbEntity
  8
0
  6
CONTINUOUS
 62
     7
100
AcDbLine
 10
-840.5549032552699
 20
-644.37565892357
 30
0.0
 11
-839.0938730022408
 21
-645.6430399943038
 31
0.0
  0
LINE
  5
634
330
2A6
100
AcDbEntity
  8
0
  6
CONTINUOUS
 62
     1
100
AcDbLine
 10
-841.6220716017706
 20
-637.8732728108698
 30
0.0
 11
-842.6060115888049
 21
-638.3780925120527
 31
0.0
  0
LINE
  5
635
330
2A6
100
AcDbEntity
  8
0
  6
CONTINUOUS
 62
     1
100
AcDbLine
 10
-840.0151798978331
 20
-637.958291124989
 30
0.0
 11
-839.083881890132
 21
-636.5360801628412
 31
0.0
  0
LINE
  5
636
330
2A6
100
AcDbEntity
  8
0
  6
CONTINUOUS
 62
     1
100
AcDbLine
 10
-841.6220716017706
 20
-637.8732728108698
 30
0.0
 11
-842.3980960295012
 21
-636.3607298899678
 31
0.0
  0
LINE
  5
637
330
2A6
100
AcDbEntity
  8
0
  6
CONTINUOUS
 62
     7
100
AcDbLine
 10
-842.3980960295012
 20
-636.3607298899678
 30
0.0
 11
-842.6969524788019
 21
-636.5140610132303
 31
0.0
  0
LINE
  5
638
330
2A6
100
AcDbEntity
  8
0
  6
CONTINUOUS
 62
     7
100
AcDbLine
 10
-842.5402089887702
 20
-645.2003356579507
 30
0.0
 11
-841.210852428263
 21
-644.5182967221544
 31
0.0
  0
LINE
  5
639
330
2A6
100
AcDbEntity
  8
0
  6
CONTINUOUS
 62
     7
100
AcDbLine
 10
-835.9041944391647
 20
-651.575481753126
 30
0.0
 11
-839.1915282971186
 21
-645.1681659808337
 31
0.0
  0
LINE
  5
63A
330
2A6
100
AcDbEntity
  8
0
  6
CONTINUOUS
 62
     1
100
AcDbLine
 10
-839.0938730022408
 20
-645.6430399943038
 30
0.0
 11
-839.002147487412
 21
-645.537299766067
 31
0.0
  0
LINE
  5
63B
330
2A6
100
AcDbEntity
  8
0
  6
CONTINUOUS
 62
     7
100
AcDbLine
 10
-831.2881532212232
 20
-656.0490866056061
 30
0.0
 11
-830.0020170682074
 21
-658.5558841548082
 31
0.0
  0
LINE
  5
63C
330
2A6
100
AcDbEntity
  8
0
  6
CONTINUOUS
 62
     7
100
AcDbLine
 10
-829.6900716601249
 20
-660.2612132114882
 30
0.0
 11
-830.3415743281403
 21
-666.0437948204435
 31
0.0
  0
LINE
  5
63D
330
2A6
100
AcDbEntity
  8
0
  6
CONTINUOUS
 62
     1
100
AcDbLine
 10
-827.9672321075705
 20
-668.4181411356203
 30
0.0
 11
-826.570509830206
 21
-659.2555672562657
 31
0.0
  0
LINE
  5
63E
330
2A6
100
AcDbEntity
  8
0
  6
CONTINUOUS
 62
     7
100
AcDbLine
 10
-826.4750563831367
 20
-669.910307647765
 30
0.0
 11
-824.8840375603795
 21
-659.4731378945535
 31
0.0
  0
LINE
  5
63F
330
2A6
100
AcDbEntity
  8
0
  6
CONTINUOUS
 62
     1
100
AcDbLine
 10
-826.570509830206
 20
-659.2555672562657
 30
0.0
 11
-824.8703465511207
 21
-659.2867204902286
 31
0.0
  0
LINE
  5
640
330
2A6
100
AcDbEntity
  8
0
  6
CONTINUOUS
 62
     7
100
AcDbLine
 10
-824.8710428183567
 20
-659.333471092652
 30
0.0
 11
-824.8703465511207
 21
-659.2867204902286
 31
0.0
  0
LINE
  5
641
330
2A6
100
AcDbEntity
  8
0
  6
CONTINUOUS
 62
     7
100
AcDbLine
 10
-824.873545259763
 20
-659.38019541211
 30
0.0
 11
-824.8710428183567
 21
-659.333471092652
 31
0.0
  0
LINE
  5
642
330
2A6
100
AcDbEntity
  8
0
  6
CONTINUOUS
 62
     7
100
AcDbLine
 10
-824.8778787558567
 20
-659.4267862171637
 30
0.0
 11
-824.873545259763
 21
-659.38019541211
 31
0.0
  0
LINE
  5
643
330
2A6
100
AcDbEntity
  8
0
  6
CONTINUOUS
 62
     7
100
AcDbLine
 10
-824.8840375603795
 20
-659.4731378945535
 30
0.0
 11
-824.8778787558567
 21
-659.4267862171637
 31
0.0
  0
LINE
  5
644
330
2A6
100
AcDbEntity
  8
0
  6
CONTINUOUS
 62
     1
100
AcDbLine
 10
-825.1690774863255
 20
-659.436363014649
 30
0.0
 11
-824.8840375603795
 21
-659.4731378945535
 31
0.0
  0
LINE
  5
645
330
2A6
100
AcDbEntity
  8
0
  6
CONTINUOUS
 62
     1
100
AcDbLine
 10
-826.570509830206
 20
-659.2555672562657
 30
0.0
 11
-825.1690774863255
 21
-659.436363014649
 31
0.0
  0
ARC
  5
646
330
2A6
100
AcDbEntity
  8
0
  6
CONTINUOUS
 62
     1
100
AcDbCircle
 10
-829.6711360375211
 20
-648.3775522846045
 30
0.0
 40
3.049999999998626
100
AcDbArc
 50
0.26647849432487
 51
56.78225451533848
  0
ARC
  5
647
330
2A6
100
AcDbEntity
  8
0
  6
CONTINUOUS
 62
     7
100
AcDbCircle
 10
-829.6711360375211
 20
-648.3775522846063
 30
0.0
 40
4.749999999999485
100
AcDbArc
 50
0.26647849436236
 51
56.78225451535596
  0
ARC
  5
648
330
2A6
100
AcDbEntity
  8
0
  6
CONTINUOUS
 62
     7
100
AcDbCircle
 10
-833.9573466110469
 20
-657.4185414780723
 30
0.0
 40
2.99999999999996
100
AcDbArc
 50
27.16051977941523
 51
64.63500331029327
  0
ARC
  5
649
330
2A6
100
AcDbEntity
  8
0
  6
CONTINUOUS
 62
     7
100
AcDbCircle
 10
-829.6711360375211
 20
-648.3775522846063
 30
0.0
 40
7.005552792173265
100
AcDbArc
 50
207.1605197794116
 51
244.6350033102983
  0
ARC
  5
64A
330
2A6
100
AcDbEntity
  8
0
  6
CONTINUOUS
 62
     1
100
AcDbCircle
 10
-840.8916956697867
 20
-639.2968426187736
 30
0.0
 40
1.599999999998777
100
AcDbArc
 50
56.78225451535079
 51
117.1605197795137
  0
ARC
  5
64B
330
2A6
100
AcDbEntity
  8
0
  6
CONTINUOUS
 62
     7
100
AcDbCircle
 10
-840.8916956697885
 20
-639.2968426187745
 30
0.0
 40
3.300000000000959
100
AcDbArc
 50
56.78225451534318
 51
117.1605197794095
  0
ARC
  5
64C
330
2A6
100
AcDbEntity
  8
0
  6
CONTINUOUS
 62
     7
100
AcDbCircle
 10
-840.2733616119131
 20
-647.0027482790674
 30
0.0
 40
1.800000000000606
100
AcDbArc
 50
27.16051977935287
 51
49.0597640775426
  0
ARC
  5
64D
330
2A6
100
AcDbEntity
  8
0
  6
CONTINUOUS
 62
     7
100
AcDbCircle
 10
-840.5261249920295
 20
-645.8528934170663
 30
0.0
 40
1.499999999998963
100
AcDbArc
 50
27.16051977941563
 51
117.1605197794307
  0
ARC
  5
64E
330
2A6
100
AcDbEntity
  8
0
  6
CONTINUOUS
 62
     7
100
AcDbCircle
 10
-832.671210458031
 20
-659.9253390272761
 30
0.0
 40
3.000000000000266
100
AcDbArc
 50
353.5717984320967
 51
27.16051977944614
  0
ENDBLK
  5
2A8
330
2A6
100
AcDbEntity
  8
0
100
AcDbBlockEnd
  0
BLOCK
  5
2AB
330
2A9
100
AcDbEntity
  8
0
100
AcDbBlockBegin
  2
PD05300A09200_BIELLA_I_152
 70
     0
 10
-842.6969524788019
 20
-669.910307647765
 30
0.0
  3
PD05300A09200_BIELLA_I_152
  1

  0
INSERT
  5
2AA
330
2A9
100
AcDbEntity
  8
0
100
AcDbBlockReference
  2
BIELLA_INTERNA_MONTANT_151
 10
-842.6969524788019
 20
-669.910307647765
 30
0.0
  0
ENDBLK
  5
2AC
330
2A9
100
AcDbEntity
  8
0
100
AcDbBlockEnd
  0
BLOCK
  5
2B0
330
2AD
100
AcDbEntity
  8
0
100
AcDbBlockBegin
  2
GFS00600A00100_GRUPPO__153
 70
     0
 10
-842.6969524788019
 20
-669.910307647765
 30
0.0
  3
GFS00600A00100_GRUPPO__153
  1

  0
INSERT
  5
2AE
330
2AD
100
AcDbEntity
  8
0
100
AcDbBlockReference
  2
PD05300A09100_BIELLA_I_150
 10
-842.6969517315083
 20
-665.4429025702066
 30
0.0
  0
INSERT
  5
2AF
330
2AD
100
AcDbEntity
  8
0
100
AcDbBlockReference
  2
PD05300A09200_BIELLA_I_152
 10
-842.6969524788019
 20
-669.910307647765
 30
0.0
  0
ENDBLK
  5
2B1
330
2AD
100
AcDbEntity
  8
0
100
AcDbBlockEnd
  0
BLOCK
  5
2B3
330
2B2
100
AcDbEntity
  8
0
100
AcDbBlockBegin
  2
PD02100A09500_SPINA_Ø3_154
 70
     0
 10
-831.6711360376594
 20
-650.3775522845708
 30
0.0
  3
PD02100A09500_SPINA_Ø3_154
  1

  0
CIRCLE
  5
64F
330
2B2
100
AcDbEntity
  8
0
  6
CONTINUOUS
 62
     7
100
AcDbCircle
 10
-829.6711360376594
 20
-648.3775522845708
 30
0.0
 40
1.999999999999928
  0
ENDBLK
  5
2B4
330
2B2
100
AcDbEntity
  8
0
100
AcDbBlockEnd
  0
BLOCK
  5
2B8
330
2B5
100
AcDbEntity
  8
0
100
AcDbBlockBegin
  2
GFS00600A00200_GRUPPO__155
 70
     0
 10
-842.6969524788019
 20
-669.910307647765
 30
0.0
  3
GFS00600A00200_GRUPPO__155
  1

  0
INSERT
  5
2B6
330
2B5
100
AcDbEntity
  8
0
100
AcDbBlockReference
  2
GFS00600A00100_GRUPPO__153
 10
-842.6969524788019
 20
-669.910307647765
 30
0.0
  0
INSERT
  5
2B7
330
2B5
100
AcDbEntity
  8
0
100
AcDbBlockReference
  2
PD02100A09500_SPINA_Ø3_154
 10
-831.6711360376594
 20
-650.3775522845708
 30
0.0
  0
ENDBLK
  5
2B9
330
2B5
100
AcDbEntity
  8
0
100
AcDbBlockEnd
  0
BLOCK
  5
2BD
330
2BA
100
AcDbEntity
  8
0
100
AcDbBlockBegin
  2
GFS00600A00300_GRUPPO__156
 70
     0
 10
-842.6969524788019
 20
-669.910307647765
 30
0.0
  3
GFS00600A00300_GRUPPO__156
  1

  0
INSERT
  5
2BB
330
2BA
100
AcDbEntity
  8
0
100
AcDbBlockReference
  2
PD00700A24600_CORPO_RE_148
 10
-842.6969400394191
 20
-645.4460650690062
 30
0.0
  0
INSERT
  5
2BC
330
2BA
100
AcDbEntity
  8
0
100
AcDbBlockReference
  2
GFS00600A00200_GRUPPO__155
 10
-842.6969524788019
 20
-669.910307647765
 30
0.0
  0
ENDBLK
  5
2BE
330
2BA
100
AcDbEntity
  8
0
100
AcDbBlockEnd
  0
BLOCK
  5
2C1
330
2BF
100
AcDbEntity
  8
0
100
AcDbBlockBegin
  2
GFS0060A00400_GRUPPO_B_157
 70
     0
 10
-842.6969524788019
 20
-669.910307647765
 30
0.0
  3
GFS0060A00400_GRUPPO_B_157
  1

  0
INSERT
  5
2C0
330
2BF
100
AcDbEntity
  8
0
100
AcDbBlockReference
  2
GFS00600A00300_GRUPPO__156
 10
-842.6969524788019
 20
-669.910307647765
 30
0.0
  0
ENDBLK
  5
2C2
330
2BF
100
AcDbEntity
  8
0
100
AcDbBlockEnd
  0
BLOCK
  5
2C5
330
2C3
100
AcDbEntity
  8
0
100
AcDbBlockBegin
  2
GFS0060A00500_GRUPPO_C_158
 70
     0
 10
-842.6969524788019
 20
-669.910307647765
 30
0.0
  3
GFS0060A00500_GRUPPO_C_158
  1

  0
INSERT
  5
2C4
330
2C3
100
AcDbEntity
  8
0
100
AcDbBlockReference
  2
GFS0060A00400_GRUPPO_B_157
 10
-842.6969524788019
 20
-669.910307647765
 30
0.0
  0
ENDBLK
  5
2C6
330
2C3
100
AcDbEntity
  8
0
100
AcDbBlockEnd
  0
BLOCK
  5
2C9
330
2C7
100
AcDbEntity
  8
0
100
AcDbBlockBegin
  2
GFS0060A00700_GRUPPO_C_159
 70
     0
 10
-842.6969524788019
 20
-669.910307647765
 30
0.0
  3
GFS0060A00700_GRUPPO_C_159
  1

  0
INSERT
  5
2C8
330
2C7
100
AcDbEntity
  8
0
100
AcDbBlockReference
  2
GFS0060A00500_GRUPPO_C_158
 10
-842.6969524788019
 20
-669.910307647765
 30
0.0
  0
ENDBLK
  5
2CA
330
2C7
100
AcDbEntity
  8
0
100
AcDbBlockEnd
  0
BLOCK
  5
2CD
330
2CB
100
AcDbEntity
  8
0
100
AcDbBlockBegin
  2
00S0060A00100_CERNIERA_160
 70
     0
 10
-842.6969524788019
 20
-669.910307647765
 30
0.0
  3
00S0060A00100_CERNIERA_160
  1

  0
INSERT
  5
2CC
330
2CB
100
AcDbEntity
  8
0
100
AcDbBlockReference
  2
GFS0060A00700_GRUPPO_C_159
 10
-842.6969524788019
 20
-669.910307647765
 30
0.0
  0
ENDBLK
  5
2CE
330
2CB
100
AcDbEntity
  8
0
100
AcDbBlockEnd
  0
BLOCK
  5
2D0
330
2CF
100
AcDbEntity
  8
0
100
AcDbBlockBegin
  2
PX001595_PX001297_1187_161
 70
     0
 10
-1556.88441228662
 20
-1405.797725471651
 30
0.0
  3
PX001595_PX001297_1187_161
  1

  0
LINE
  5
650
330
2CF
100
AcDbEntity
  8
0
  6
CONTINUOUS
 62
     7
100
AcDbLine
 10
-1556.298625848993
 20
-1372.685086603769
 30
0.0
 11
-841.4136700693944
 21
-657.8001308241692
 31
0.0
  0
LINE
  5
651
330
2CF
100
AcDbEntity
  8
0
  6
CONTINUOUS
 62
     7
100
AcDbLine
 10
-808.8867581348131
 20
-690.3270427587504
 30
0.0
 11
-1523.771713914412
 21
-1405.21199853835
 31
0.0
  0
LINE
  5
652
330
2CF
100
AcDbEntity
  8
0
  6
CONTINUOUS
 62
     7
100
AcDbLine
 10
-1526.600141039158
 20
-1405.21199853835
 30
0.0
 11
-1556.298625848993
 21
-1375.513513728514
 31
0.0
  0
LINE
  5
653
330
2CF
100
AcDbEntity
  8
0
  6
CONTINUOUS
 62
     7
100
AcDbLine
 10
-808.8867581348131
 20
-687.4986156340037
 30
0.0
 11
-838.5852429446477
 21
-657.8001308241683
 31
0.0
  0
ARC
  5
654
330
2CF
100
AcDbEntity
  8
0
  6
CONTINUOUS
 62
     7
100
AcDbCircle
 10
-1525.185902828982
 20
-1403.797760328604
 30
0.0
 40
1.999999999999737
100
AcDbArc
 50
225.0015860766866
 51
314.9990014218503
  0
ARC
  5
655
330
2CF
100
AcDbEntity
  8
0
  6
CONTINUOUS
 62
     7
100
AcDbCircle
 10
-1554.88441228662
 20
-1374.099300166142
 30
0.0
 40
1.999999999999855
100
AcDbArc
 50
134.9999999999954
 51
224.9999999999816
  0
ARC
  5
656
330
2CF
100
AcDbEntity
  8
0
  6
CONTINUOUS
 62
     7
100
AcDbCircle
 10
-810.3009716971847
 20
-688.9128291963771
 30
0.0
 40
1.999999999999051
100
AcDbArc
 50
314.9999999999632
 51
45.00000000003685
  0
ARC
  5
657
330
2CF
100
AcDbEntity
  8
0
  6
CONTINUOUS
 62
     7
100
AcDbCircle
 10
-839.999456507021
 20
-659.2143443865416
 30
0.0
 40
2.000000000000338
100
AcDbArc
 50
45.0
 51
135.0000000000184
  0
ENDBLK
  5
2D1
330
2CF
100
AcDbEntity
  8
0
100
AcDbBlockEnd
  0
BLOCK
  5
2D4
330
2D2
100
AcDbEntity
  8
0
100
AcDbBlockBegin
  2
PX001681_PANNELLO_1015_162
 70
     0
 10
-1556.88441228662
 20
-1405.797725471651
 30
0.0
  3
PX001681_PANNELLO_1015_162
  1

  0
INSERT
  5
2D3
330
2D2
100
AcDbEntity
  8
0
100
AcDbBlockReference
  2
PX001595_PX001297_1187_161
 10
-1556.88441228662
 20
-1405.797725471651
 30
0.0
  0
ENDBLK
  5
2D5
330
2D2
100
AcDbEntity
  8
0
100
AcDbBlockEnd
  0
BLOCK
  5
2D7
330
2D6
100
AcDbEntity
  8
0
100
AcDbBlockBegin
  2
PX000467_1__163
 70
     0
 10
-1491.086392526925
 20
-1304.644480382001
 30
0.0
  3
PX000467_1__163
  1

  0
LINE
  5
658
330
2D6
100
AcDbEntity
  8
0
  6
CONTINUOUS
 62
     7
100
AcDbLine
 10
-1484.853362914172
 20
-1287.51937226619
 30
0.0
 11
-1491.086392526925
 21
-1304.644480382001
 31
0.0
  0
LINE
  5
659
330
2D6
100
AcDbEntity
  8
0
  6
CONTINUOUS
 62
     7
100
AcDbLine
 10
-1482.973977672601
 20
-1288.203412552841
 30
0.0
 11
-1487.740086078316
 21
-1301.298187776198
 31
0.0
  0
LINE
  5
65A
330
2D6
100
AcDbEntity
  8
0
  6
CONTINUOUS
 62
     7
100
AcDbLine
 10
-1484.853362914172
 20
-1287.51937226619
 30
0.0
 11
-1482.973977672601
 21
-1288.203412552841
 31
0.0
  0
ENDBLK
  5
2D8
330
2D6
100
AcDbEntity
  8
0
100
AcDbBlockEnd
  0
BLOCK
  5
2DA
330
2D9
100
AcDbEntity
  8
0
100
AcDbBlockBegin
  2
PX000466_1__164
 70
     0
 10
-1502.558510478941
 20
-1317.53072951706
 30
0.0
  3
PX000466_1__164
  1

  0
LINE
  5
65B
330
2D9
100
AcDbEntity
  8
0
  6
CONTINUOUS
 62
     1
100
AcDbLine
 10
-1478.516879918598
 20
-1292.074913548439
 30
0.0
 11
-1477.102693498794
 21
-1293.489099968241
 31
0.0
  0
LINE
  5
65C
330
2D9
100
AcDbEntity
  8
0
  6
CONTINUOUS
 62
     7
100
AcDbLine
 10
-1477.102666356226
 20
-1290.660699986064
 30
0.0
 11
-1475.688479852129
 21
-1292.074886490162
 31
0.0
  0
LINE
  5
65D
330
2D9
100
AcDbEntity
  8
0
  6
CONTINUOUS
 62
     7
100
AcDbLine
 10
-1477.102666356226
 20
-1290.660699986064
 30
0.0
 11
-1478.516879918598
 21
-1292.074913548439
 31
0.0
  0
LINE
  5
65E
330
2D9
100
AcDbEntity
  8
0
  6
CONTINUOUS
 62
     7
100
AcDbLine
 10
-1501.144296916567
 20
-1314.702330546409
 30
0.0
 11
-1478.516879918598
 21
-1292.074913548439
 31
0.0
  0
LINE
  5
65F
330
2D9
100
AcDbEntity
  8
0
  6
CONTINUOUS
 62
     7
100
AcDbLine
 10
-1501.144296916567
 20
-1314.702330546409
 30
0.0
 11
-1502.558510478941
 21
-1316.116544108782
 31
0.0
  0
LINE
  5
660
330
2D9
100
AcDbEntity
  8
0
  6
CONTINUOUS
 62
     1
100
AcDbLine
 10
-1501.144296916567
 20
-1314.702330546409
 30
0.0
 11
-1499.730111423996
 21
-1316.11651603898
 31
0.0
  0
LINE
  5
661
330
2D9
100
AcDbEntity
  8
0
  6
CONTINUOUS
 62
     7
100
AcDbLine
 10
-1502.558510478941
 20
-1316.116544108782
 30
0.0
 11
-1501.144325070663
 21
-1317.53072951706
 31
0.0
  0
ENDBLK
  5
2DB
330
2D9
100
AcDbEntity
  8
0
100
AcDbBlockEnd
  0
BLOCK
  5
2DF
330
2DC
100
AcDbEntity
  8
0
100
AcDbBlockBegin
  2
CM06100A01100_MANIGLIA_165
 70
     0
 10
-1502.558510478941
 20
-1317.53072951706
 30
0.0
  3
CM06100A01100_MANIGLIA_165
  1

  0
INSERT
  5
2DD
330
2DC
100
AcDbEntity
  8
0
100
AcDbBlockReference
  2
PX000467_1__163
 10
-1491.086392526925
 20
-1304.644480382001
 30
0.0
  0
INSERT
  5
2DE
330
2DC
100
AcDbEntity
  8
0
100
AcDbBlockReference
  2
PX000466_1__164
 10
-1502.558510478941
 20
-1317.53072951706
 30
0.0
  0
ENDBLK
  5
2E0
330
2DC
100
AcDbEntity
  8
0
100
AcDbBlockEnd
  0
BLOCK
  5
2E2
330
2E1
100
AcDbEntity
  8
0
100
AcDbBlockBegin
  2
PX000467_1__166
 70
     0
 10
-1455.731011490687
 20
-1339.999730201373
 30
0.0
  3
PX000467_1__166
  1

  0
LINE
  5
662
330
2E1
100
AcDbEntity
  8
0
  6
CONTINUOUS
 62
     7
100
AcDbLine
 10
-1455.731011490687
 20
-1339.999730201373
 30
0.0
 11
-1438.605999577021
 21
-1333.766735603338
 31
0.0
  0
LINE
  5
663
330
2E1
100
AcDbEntity
  8
0
  6
CONTINUOUS
 62
     7
100
AcDbLine
 10
-1452.384724740667
 20
-1336.653425884095
 30
0.0
 11
-1439.290039863672
 21
-1331.887350361769
 31
0.0
  0
LINE
  5
664
330
2E1
100
AcDbEntity
  8
0
  6
CONTINUOUS
 62
     7
100
AcDbLine
 10
-1438.605999577021
 20
-1333.766735603338
 30
0.0
 11
-1439.290039863672
 21
-1331.887350361769
 31
0.0
  0
ENDBLK
  5
2E3
330
2E1
100
AcDbEntity
  8
0
100
AcDbBlockEnd
  0
BLOCK
  5
2E5
330
2E4
100
AcDbEntity
  8
0
100
AcDbBlockBegin
  2
PX000466_1__167
 70
     0
 10
-1468.617354467669
 20
-1351.471883168107
 30
0.0
  3
PX000466_1__167
  1

  0
LINE
  5
665
330
2E4
100
AcDbEntity
  8
0
  6
CONTINUOUS
 62
     7
100
AcDbLine
 10
-1443.161540859272
 20
-1327.430252607764
 30
0.0
 11
-1441.747327296896
 21
-1326.016039045392
 31
0.0
  0
LINE
  5
666
330
2E4
100
AcDbEntity
  8
0
  6
CONTINUOUS
 62
     1
100
AcDbLine
 10
-1443.161540859272
 20
-1327.430252607764
 30
0.0
 11
-1444.575723907326
 21
-1326.01606955971
 31
0.0
  0
LINE
  5
667
330
2E4
100
AcDbEntity
  8
0
  6
CONTINUOUS
 62
     7
100
AcDbLine
 10
-1441.747327296896
 20
-1326.016039045392
 30
0.0
 11
-1443.161510344952
 21
-1324.601855997336
 31
0.0
  0
LINE
  5
668
330
2E4
100
AcDbEntity
  8
0
  6
CONTINUOUS
 62
     7
100
AcDbLine
 10
-1443.161540859272
 20
-1327.430252607764
 30
0.0
 11
-1465.788957857241
 21
-1350.057669605733
 31
0.0
  0
LINE
  5
669
330
2E4
100
AcDbEntity
  8
0
  6
CONTINUOUS
 62
     7
100
AcDbLine
 10
-1467.203171419615
 20
-1351.471883168107
 30
0.0
 11
-1465.788957857241
 21
-1350.057669605733
 31
0.0
  0
LINE
  5
66A
330
2E4
100
AcDbEntity
  8
0
  6
CONTINUOUS
 62
     1
100
AcDbLine
 10
-1465.788957857241
 20
-1350.057669605733
 30
0.0
 11
-1467.203140905295
 21
-1348.643486557679
 31
0.0
  0
LINE
  5
66B
330
2E4
100
AcDbEntity
  8
0
  6
CONTINUOUS
 62
     7
100
AcDbLine
 10
-1467.203171419615
 20
-1351.471883168107
 30
0.0
 11
-1468.617354467669
 21
-1350.057700120053
 31
0.0
  0
ENDBLK
  5
2E6
330
2E4
100
AcDbEntity
  8
0
100
AcDbBlockEnd
  0
BLOCK
  5
2EA
330
2E7
100
AcDbEntity
  8
0
100
AcDbBlockBegin
  2
CM06100A01100_MANIGLIA_168
 70
     0
 10
-1468.617354467669
 20
-1351.471883168107
 30
0.0
  3
CM06100A01100_MANIGLIA_168
  1

  0
INSERT
  5
2E8
330
2E7
100
AcDbEntity
  8
0
100
AcDbBlockReference
  2
PX000467_1__166
 10
-1455.731011490687
 20
-1339.999730201373
 30
0.0
  0
INSERT
  5
2E9
330
2E7
100
AcDbEntity
  8
0
100
AcDbBlockReference
  2
PX000466_1__167
 10
-1468.617354467669
 20
-1351.471883168107
 30
0.0
  0
ENDBLK
  5
2EB
330
2E7
100
AcDbEntity
  8
0
100
AcDbBlockEnd
  0
BLOCK
  5
2F0
330
2EC
100
AcDbEntity
  8
0
100
AcDbBlockBegin
  2
PANNELLO__169
 70
     0
 10
-1556.88441228662
 20
-1405.797725471651
 30
0.0
  3
PANNELLO__169
  1

  0
INSERT
  5
2ED
330
2EC
100
AcDbEntity
  8
0
100
AcDbBlockReference
  2
PX001681_PANNELLO_1015_162
 10
-1556.88441228662
 20
-1405.797725471651
 30
0.0
  0
INSERT
  5
2EE
330
2EC
100
AcDbEntity
  8
0
100
AcDbBlockReference
  2
CM06100A01100_MANIGLIA_165
 10
-1502.558510478941
 20
-1317.53072951706
 30
0.0
  0
INSERT
  5
2EF
330
2EC
100
AcDbEntity
  8
0
100
AcDbBlockReference
  2
CM06100A01100_MANIGLIA_168
 10
-1468.617354467669
 20
-1351.471883168107
 30
0.0
  0
ENDBLK
  5
2F1
330
2EC
100
AcDbEntity
  8
0
100
AcDbBlockEnd
  0
BLOCK
  5
2F4
330
2F2
100
AcDbEntity
  8
0
100
AcDbBlockBegin
  2
PX001593_GRUPPO_ANTA_L_170
 70
     0
 10
-1556.88441228662
 20
-1405.797725471651
 30
0.0
  3
PX001593_GRUPPO_ANTA_L_170
  1

  0
INSERT
  5
2F3
330
2F2
100
AcDbEntity
  8
0
100
AcDbBlockReference
  2
PANNELLO__169
 10
-1556.88441228662
 20
-1405.797725471651
 30
0.0
  0
ENDBLK
  5
2F5
330
2F2
100
AcDbEntity
  8
0
100
AcDbBlockEnd
  0
BLOCK
  5
2FB
330
2F6
100
AcDbEntity
  8
0
100
AcDbBlockBegin
  2
TKKZ0TEC43200_TECNICO__171
 70
     0
 10
-1556.88441228662
 20
-1405.797725471651
 30
0.0
  3
TKKZ0TEC43200_TECNICO__171
  1

  0
INSERT
  5
2F7
330
2F6
100
AcDbEntity
  8
0
100
AcDbBlockReference
  2
STIPITE_MONTANTE_SX_1__140
 10
-878.6969323913836
 20
-651.6302790407808
 30
0.0
  0
INSERT
  5
2F8
330
2F6
100
AcDbEntity
  8
0
100
AcDbBlockReference
  2
TELAIO_BATTENTE_L1000X_146
 10
-843.9451216586149
 20
-651.6302790386835
 30
0.0
  0
INSERT
  5
2F9
330
2F6
100
AcDbEntity
  8
0
100
AcDbBlockReference
  2
00S0060A00100_CERNIERA_160
 10
-842.6969524788019
 20
-669.910307647765
 30
0.0
  0
INSERT
  5
2FA
330
2F6
100
AcDbEntity
  8
0
100
AcDbBlockReference
  2
PX001593_GRUPPO_ANTA_L_170
 10
-1556.88441228662
 20
-1405.797725471651
 30
0.0
  0
ENDBLK
  5
2FC
330
2F6
100
AcDbEntity
  8
0
100
AcDbBlockEnd
  0
BLOCK
  5
2FF
330
2FD
100
AcDbEntity
  8
0
100
AcDbBlockBegin
  2
GEN10
 70
     0
 10
-331.6968789999974
 20
-632.3959730000006
 30
0.0
  3
GEN10
  1

  0
INSERT
  5
2FE
330
2FD
100
AcDbEntity
  8
0
100
AcDbBlockReference
  2
TKKZ0TEC43200_TECNICO__171
 10
-1556.88441228662
 20
-1405.797725471651
 30
0.0
  0
MTEXT
  5
66C
330
2FD
100
AcDbEntity
  8
1
 62
     3
100
AcDbMText
 10
-352.600436925448
 20
-712.866234334931
 30
0.0
 40
5.0
 41
0.0
 71
     5
 72
     1
  1
APERTURA 135\U+00b0
  7
CONVERTER_13
1001
ACAD
1000
MTEXTBEGIN
1070
    44
1040
0.96038415366146
1000
MTEXTEND
  0
DIMENSION
  5
675
330
2FD
100
AcDbEntity
  8
1
100
AcDbDimension
  2
*D184
 10
-402.9289900849726
 20
-1538.276776622394
 30
0.0
 11
-441.8847400371883
 21
-1549.435734037901
 31
0.0
 70
    37
  1
<>
  3
ME10_DIM_16
100
AcDb3PointAngularDimension
 13
-808.8867581348131
 23
-690.3270427587504
 33
0.0
 14
181.3030674759484
 24
-651.6302790386835
 34
0.0
 15
-770.1899944147463
 25
-651.630279038684
 35
0.0
  0
ENDBLK
  5
300
330
2FD
100
AcDbEntity
  8
0
100
AcDbBlockEnd
  0
BLOCK
  5
3B8
330
3AF
100
AcDbEntity
  8
0
100
AcDbBlockBegin
  2
*D177
 70
     1
 10
0.0
 20
0.0
 30
0.0
  3
*D177
  1

  0
LINE
  5
3B0
330
3AF
100
AcDbEntity
  8
1
  6
CONTINUOUS
 62
     1
100
AcDbLine
 10
-1560.376715146713
 20
635.9500112793571
 30
0.0
 11
-1538.507553785188
 21
635.9500112793571
 31
0.0
  0
LINE
  5
3B1
330
3AF
100
AcDbEntity
  8
1
  6
CONTINUOUS
 62
     1
100
AcDbLine
 10
-1538.507553785188
 20
635.9500112793571
 30
0.0
 11
-1535.007553765945
 21
635.9500112793571
 31
0.0
  0
LINE
  5
3B2
330
3AF
100
AcDbEntity
  8
1
  6
CONTINUOUS
 62
     1
100
AcDbLine
 10
-1535.007553765945
 20
635.9500112793571
 30
0.0
 11
-1528.007553765945
 21
635.9500112793571
 31
0.0
  0
LINE
  5
3B3
330
3AF
100
AcDbEntity
  8
1
  6
CONTINUOUS
 62
     1
100
AcDbLine
 10
-1538.507553785188
 20
653.7035939654443
 30
0.0
 11
-1538.507553785188
 21
634.9500112793571
 31
0.0
  0
LINE
  5
3B4
330
3AF
100
AcDbEntity
  8
1
  6
CONTINUOUS
 62
     1
100
AcDbLine
 10
-1535.007553765945
 20
653.7035939649741
 30
0.0
 11
-1535.007553765945
 21
634.9500112793571
 31
0.0
  0
SOLID
  5
3B5
330
3AF
100
AcDbEntity
  8
1
 62
     1
100
AcDbTrace
 10
-1542.007553785188
 20
635.4892275378012
 30
0.0
 11
-1542.007553785188
 21
636.410795020913
 31
0.0
 12
-1538.507553785188
 22
635.9500112793571
 32
0.0
 13
-1538.507553785188
 23
635.9500112793571
 33
0.0
  0
SOLID
  5
3B6
330
3AF
100
AcDbEntity
  8
1
 62
     1
100
AcDbTrace
 10
-1531.507553765945
 20
636.410795020913
 30
0.0
 11
-1531.507553765945
 21
635.4892275378012
 31
0.0
 12
-1535.007553765945
 22
635.9500112793571
 32
0.0
 13
-1535.007553765945
 23
635.9500112793571
 33
0.0
  0
MTEXT
  5
3B7
330
3AF
100
AcDbEntity
  8
1
 62
     3
100
AcDbMText
 10
-1560.376715146713
 20
638.8250112793571
 30
0.0
 40
3.5
 41
0.0
 71
     7
 72
     1
  1
\C3;3.5\C3;\H2.1;\S+3^ -2;
  7
CONVERTER_13
 11
0.9999999999970619
 21
2.424068405545306E-6
 31
0.0
1001
ACAD
1000
MTEXTBEGIN
1070
    44
1040
0.60024009603842
1000
MTEXTEND
  0
ENDBLK
  5
3B9
330
3AF
100
AcDbEntity
  8
0
100
AcDbBlockEnd
  0
BLOCK
  5
3C3
330
3BC
100
AcDbEntity
  8
0
100
AcDbBlockBegin
  2
*D178
 70
     1
 10
0.0
 20
0.0
 30
0.0
  3
*D178
  1

  0
LINE
  5
3BD
330
3BC
100
AcDbEntity
  8
1
  6
CONTINUOUS
 62
     1
100
AcDbLine
 10
-1335.436118931001
 20
653.203593965146
 30
0.0
 11
-1335.436118931001
 21
699.203593965146
 31
0.0
  0
LINE
  5
3BE
330
3BC
100
AcDbEntity
  8
1
  6
CONTINUOUS
 62
     1
100
AcDbLine
 10
-523.5075537659418
 20
653.203593965146
 30
0.0
 11
-1336.436118931001
 21
653.203593965146
 31
0.0
  0
LINE
  5
3BF
330
3BC
100
AcDbEntity
  8
1
  6
CONTINUOUS
 62
     1
100
AcDbLine
 10
-523.5075537659511
 20
699.203593965146
 30
0.0
 11
-1336.436118931001
 21
699.203593965146
 31
0.0
  0
SOLID
  5
3C0
330
3BC
100
AcDbEntity
  8
1
 62
     1
100
AcDbTrace
 10
-1335.896902672557
 20
656.703593965146
 30
0.0
 11
-1334.975335189445
 21
656.703593965146
 31
0.0
 12
-1335.436118931001
 22
653.203593965146
 32
0.0
 13
-1335.436118931001
 23
653.203593965146
 33
0.0
  0
SOLID
  5
3C1
330
3BC
100
AcDbEntity
  8
1
 62
     1
100
AcDbTrace
 10
-1334.975335189445
 20
695.703593965146
 30
0.0
 11
-1335.896902672557
 21
695.703593965146
 31
0.0
 12
-1335.436118931001
 22
699.203593965146
 32
0.0
 13
-1335.436118931001
 23
699.203593965146
 33
0.0
  0
MTEXT
  5
3C2
330
3BC
100
AcDbEntity
  8
1
 62
     3
100
AcDbMText
 10
-1337.436118931001
 20
673.2285939651459
 30
0.0
 40
3.5
 41
0.0
 71
     7
 72
     1
  1
SP
  7
CONVERTER_13
 11
0.0
 21
1.0
 31
0.0
1001
ACAD
1000
MTEXTBEGIN
1070
    44
1040
0.60024009603842
1000
MTEXTEND
  0
ENDBLK
  5
3C4
330
3BC
100
AcDbEntity
  8
0
100
AcDbBlockEnd
  0
BLOCK
  5
456
330
44F
100
AcDbEntity
  8
0
100
AcDbBlockBegin
  2
*D179
 70
     1
 10
0.0
 20
0.0
 30
0.0
  3
*D179
  1

  0
LINE
  5
450
330
44F
100
AcDbEntity
  8
1
  6
CONTINUOUS
 62
     1
100
AcDbLine
 10
802.4785373031973
 20
-29.07656299475116
 30
0.0
 11
803.1856440843835
 21
-29.78366977593811
 31
0.0
  0
LINE
  5
451
330
44F
100
AcDbEntity
  8
1
  6
CONTINUOUS
 62
     1
100
AcDbLine
 10
750.3479641090437
 20
23.05401019945265
 30
0.0
 11
802.4785373031973
 21
-29.07656299475116
 31
0.0
  0
ARC
  5
452
330
44F
100
AcDbEntity
  8
1
  6
CONTINUOUS
 62
     1
100
AcDbCircle
 10
120.1983803464592
 20
653.2035939626451
 30
0.0
 40
964.8898513067284
100
AcDbArc
 50
314.9999999999724
 51
0.000000000168
  0
SOLID
  5
453
330
44F
100
AcDbEntity
  8
1
 62
     1
100
AcDbTrace
 10
804.6225046331733
 20
-26.27197287416705
 30
0.0
 11
805.2753320548546
 21
-26.92243654219918
 31
0.0
 12
802.4785373031973
 22
-29.07656299475116
 32
0.0
 13
802.4785373031973
 23
-29.07656299475116
 33
0.0
  0
SOLID
  5
454
330
44F
100
AcDbEntity
  8
1
 62
     1
100
AcDbTrace
 10
1085.542666765547
 20
649.7027640088587
 30
0.0
 11
1084.62110079815
 21
649.704435435091
 31
0.0
 12
1085.088231653188
 22
653.2035939654743
 32
0.0
 13
1085.088231653188
 23
653.2035939654743
 33
0.0
  0
MTEXT
  5
455
330
44F
100
AcDbEntity
  8
1
 62
     3
100
AcDbMText
 10
1022.398257533013
 20
316.741010821426
 30
0.0
 40
3.5
 41
0.0
 71
     7
 72
     1
  1
45{\Fgdt;~}
  7
CONVERTER_13
 11
0.3456780887357223
 21
0.9383531632429328
 31
0.0
1001
ACAD
1000
MTEXTBEGIN
1070
    44
1040
0.60024009603842
1000
MTEXTEND
  0
ENDBLK
  5
457
330
44F
100
AcDbEntity
  8
0
100
AcDbBlockEnd
  0
BLOCK
  5
4F4
330
4EB
100
AcDbEntity
  8
0
100
AcDbBlockBegin
  2
*D180
 70
     1
 10
0.0
 20
0.0
 30
0.0
  3
*D180
  1

  0
LINE
  5
4EC
330
4EB
100
AcDbEntity
  8
1
  6
CONTINUOUS
 62
     1
100
AcDbLine
 10
1528.882997515737
 20
635.6340111642548
 30
0.0
 11
1543.243779214813
 21
635.6340111642548
 31
0.0
  0
LINE
  5
4ED
330
4EB
100
AcDbEntity
  8
1
  6
CONTINUOUS
 62
     1
100
AcDbLine
 10
1543.243779214813
 20
635.6340111642548
 30
0.0
 11
1545.802573541641
 21
635.6340111642548
 31
0.0
  0
LINE
  5
4EE
330
4EB
100
AcDbEntity
  8
1
  6
CONTINUOUS
 62
     1
100
AcDbLine
 10
1545.802573541641
 20
635.6340111642548
 30
0.0
 11
1552.802573541641
 21
635.6340111642548
 31
0.0
  0
LINE
  5
4EF
330
4EB
100
AcDbEntity
  8
1
  6
CONTINUOUS
 62
     1
100
AcDbLine
 10
1543.243779214813
 20
652.9866869654461
 30
0.0
 11
1543.243779214813
 21
634.6340111642548
 31
0.0
  0
LINE
  5
4F0
330
4EB
100
AcDbEntity
  8
1
  6
CONTINUOUS
 62
     1
100
AcDbLine
 10
1545.802573541641
 20
647.2839287572751
 30
0.0
 11
1545.802573541641
 21
634.6340111642548
 31
0.0
  0
SOLID
  5
4F1
330
4EB
100
AcDbEntity
  8
1
 62
     1
100
AcDbTrace
 10
1539.743779214813
 20
635.1732274226989
 30
0.0
 11
1539.743779214813
 21
636.0947949058108
 31
0.0
 12
1543.243779214813
 22
635.6340111642548
 32
0.0
 13
1543.243779214813
 23
635.6340111642548
 33
0.0
  0
SOLID
  5
4F2
330
4EB
100
AcDbEntity
  8
1
 62
     1
100
AcDbTrace
 10
1549.302573541641
 20
636.0947949058108
 30
0.0
 11
1549.302573541641
 21
635.1732274226989
 31
0.0
 12
1545.802573541641
 22
635.6340111642548
 32
0.0
 13
1545.802573541641
 23
635.6340111642548
 33
0.0
  0
MTEXT
  5
4F3
330
4EB
100
AcDbEntity
  8
1
 62
     3
100
AcDbMText
 10
1528.882997515737
 20
637.6340111642548
 30
0.0
 40
3.5
 41
0.0
 71
     7
 72
     1
  1
2.6
  7
CONVERTER_13
 11
0.9999999999970619
 21
2.424068405545306E-6
 31
0.0
1001
ACAD
1000
MTEXTBEGIN
1070
    44
1040
0.60024009603842
1000
MTEXTEND
  0
ENDBLK
  5
4F5
330
4EB
100
AcDbEntity
  8
0
100
AcDbBlockEnd
  0
BLOCK
  5
4FD
330
4F8
100
AcDbEntity
  8
0
100
AcDbBlockBegin
  2
*D181
 70
     1
 10
0.0
 20
0.0
 30
0.0
  3
*D181
  1

  0
ARC
  5
4F9
330
4F8
100
AcDbEntity
  8
1
  6
CONTINUOUS
 62
     1
100
AcDbCircle
 10
1591.802573541802
 20
652.4866869625916
 30
0.0
 40
984.0476678601597
100
AcDbArc
 50
270.0
 51
0.00000000016801
  0
SOLID
  5
4FA
330
4F8
100
AcDbEntity
  8
1
 62
     1
100
AcDbTrace
 10
1595.301748564107
 20
-331.0939735959565
 30
0.0
 11
1595.303387450411
 21
-332.0155396217955
 31
0.0
 12
1591.802573541802
 22
-331.5609808975681
 32
0.0
 13
1591.802573541802
 23
-331.5609808975681
 33
0.0
  0
SOLID
  5
4FB
330
4F8
100
AcDbEntity
  8
1
 62
     1
100
AcDbTrace
 10
2576.3048001262
 20
648.9858730568695
 30
0.0
 11
2575.383234100361
 21
648.9875119431707
 31
0.0
 12
2575.850241401962
 22
652.4866869654772
 32
0.0
 13
2575.850241401962
 23
652.4866869654772
 33
0.0
  0
MTEXT
  5
4FC
330
4F8
100
AcDbEntity
  8
1
 62
     3
100
AcDbMText
 10
2321.293964274844
 20
-4.9893622558957
 30
0.0
 40
3.5
 41
0.0
 71
     7
 72
     1
  1
90{\Fgdt;~}
  7
CONVERTER_13
 11
0.6665726382955737
 21
0.7454400833572598
 31
0.0
1001
ACAD
1000
MTEXTBEGIN
1070
    44
1040
0.60024009603842
1000
MTEXTEND
  0
ENDBLK
  5
4FE
330
4F8
100
AcDbEntity
  8
0
100
AcDbBlockEnd
  0
BLOCK
  5
59B
330
592
100
AcDbEntity
  8
0
100
AcDbBlockBegin
  2
*D182
 70
     1
 10
0.0
 20
0.0
 30
0.0
  3
*D182
  1

  0
LINE
  5
593
330
592
100
AcDbEntity
  8
1
  6
CONTINUOUS
 62
     1
100
AcDbLine
 10
1478.205398452689
 20
-598.2838215165027
 30
0.0
 11
1478.205398452689
 21
-591.2838215165027
 31
0.0
  0
LINE
  5
594
330
592
100
AcDbEntity
  8
1
  6
CONTINUOUS
 62
     1
100
AcDbLine
 10
1478.205398452689
 20
-591.2838215165027
 30
0.0
 11
1478.205398452689
 21
-581.8220470344488
 31
0.0
  0
LINE
  5
595
330
592
100
AcDbEntity
  8
1
  6
CONTINUOUS
 62
     1
100
AcDbLine
 10
1478.205398452689
 20
-581.8220470344488
 30
0.0
 11
1478.205398452689
 21
-544.2294258837802
 31
0.0
  0
LINE
  5
596
330
592
100
AcDbEntity
  8
1
  6
CONTINUOUS
 62
     1
100
AcDbLine
 10
1504.408681481836
 20
-591.2838215165027
 30
0.0
 11
1477.205398452689
 21
-591.2838215165027
 31
0.0
  0
LINE
  5
597
330
592
100
AcDbEntity
  8
1
  6
CONTINUOUS
 62
     1
100
AcDbLine
 10
1505.743779208085
 20
-581.8220470344488
 30
0.0
 11
1477.205398452689
 21
-581.8220470344488
 31
0.0
  0
SOLID
  5
598
330
592
100
AcDbEntity
  8
1
 62
     1
100
AcDbTrace
 10
1478.666182194245
 20
-594.7838215165027
 30
0.0
 11
1477.744614711133
 21
-594.7838215165027
 31
0.0
 12
1478.205398452689
 22
-591.2838215165027
 32
0.0
 13
1478.205398452689
 23
-591.2838215165027
 33
0.0
  0
SOLID
  5
599
330
592
100
AcDbEntity
  8
1
 62
     1
100
AcDbTrace
 10
1477.744614711133
 20
-578.3220470344488
 30
0.0
 11
1478.666182194245
 21
-578.3220470344488
 31
0.0
 12
1478.205398452689
 22
-581.8220470344488
 32
0.0
 13
1478.205398452689
 23
-581.8220470344488
 33
0.0
  0
MTEXT
  5
59A
330
592
100
AcDbEntity
  8
1
 62
     3
100
AcDbMText
 10
1476.205398452689
 20
-557.6169258837803
 30
0.0
 40
3.5
 41
0.0
 71
     7
 72
     1
  1
\C3;9.46\C3;\H2.1;{\Fgdt;`}1
  7
CONVERTER_13
 11
0.0
 21
1.0
 31
0.0
1001
ACAD
1000
MTEXTBEGIN
1070
    44
1040
0.60024009603842
1000
MTEXTEND
  0
ENDBLK
  5
59C
330
592
100
AcDbEntity
  8
0
100
AcDbBlockEnd
  0
BLOCK
  5
5A7
330
59F
100
AcDbEntity
  8
0
100
AcDbBlockBegin
  2
*D183
 70
     1
 10
0.0
 20
0.0
 30
0.0
  3
*D183
  1

  0
LINE
  5
5A0
330
59F
100
AcDbEntity
  8
1
  6
CONTINUOUS
 62
     1
100
AcDbLine
 10
1575.53831972063
 20
-624.4691126951101
 30
0.0
 11
1556.599332036641
 21
-624.4691126951101
 31
0.0
  0
LINE
  5
5A1
330
59F
100
AcDbEntity
  8
1
  6
CONTINUOUS
 62
     1
100
AcDbLine
 10
1556.599332036641
 20
-624.4691126951101
 30
0.0
 11
1543.908681481834
 21
-624.4691126951101
 31
0.0
  0
LINE
  5
5A2
330
59F
100
AcDbEntity
  8
1
  6
CONTINUOUS
 62
     1
100
AcDbLine
 10
1556.599332036641
 20
-586.9734537960223
 30
0.0
 11
1556.599332036641
 21
-625.4691126951101
 31
0.0
  0
LINE
  5
5A3
330
59F
100
AcDbEntity
  8
1
  6
CONTINUOUS
 62
     1
100
AcDbLine
 10
1543.908681481834
 20
-633.7838215165009
 30
0.0
 11
1543.908681481834
 21
-623.4691126951101
 31
0.0
  0
SOLID
  5
5A4
330
59F
100
AcDbEntity
  8
1
 62
     1
100
AcDbTrace
 10
1553.099332036641
 20
-624.929896436666
 30
0.0
 11
1553.099332036641
 21
-624.0083289535542
 31
0.0
 12
1556.599332036641
 22
-624.4691126951101
 32
0.0
 13
1556.599332036641
 23
-624.4691126951101
 33
0.0
  0
SOLID
  5
5A5
330
59F
100
AcDbEntity
  8
1
 62
     1
100
AcDbTrace
 10
1547.408681481834
 20
-624.0083289535542
 30
0.0
 11
1547.408681481834
 21
-624.929896436666
 31
0.0
 12
1543.908681481834
 22
-624.4691126951101
 32
0.0
 13
1543.908681481834
 23
-624.4691126951101
 33
0.0
  0
MTEXT
  5
5A6
330
59F
100
AcDbEntity
  8
1
 62
     3
100
AcDbMText
 10
1559.21081972063
 20
-621.5941126951101
 30
0.0
 40
3.5
 41
0.0
 71
     7
 72
     1
  1
\C3;12.69\C3;\H2.1;\S+3^ -2;
  7
CONVERTER_13
 11
0.9999999999970619
 21
2.424068405545306E-6
 31
0.0
1001
ACAD
1000
MTEXTBEGIN
1070
    44
1040
0.60024009603842
1000
MTEXTEND
  0
ENDBLK
  5
5A8
330
59F
100
AcDbEntity
  8
0
100
AcDbBlockEnd
  0
BLOCK
  5
672
330
66D
100
AcDbEntity
  8
0
100
AcDbBlockBegin
  2
*D184
 70
     1
 10
0.0
 20
0.0
 30
0.0
  3
*D184
  1

  0
ARC
  5
66E
330
66D
100
AcDbEntity
  8
1
  6
CONTINUOUS
 62
     1
100
AcDbCircle
 10
-770.1899944147463
 20
-651.630279038684
 30
0.0
 40
959.6992534011753
100
AcDbArc
 50
225.0
 51
0.0
  0
SOLID
  5
66F
330
66D
100
AcDbEntity
  8
1
 62
     1
100
AcDbTrace
 10
-1445.995233242897
 20
-1332.384068836841
 30
0.0
 11
-1446.64569050705
 21
-1333.036902639151
 31
0.0
 12
-1448.799844394384
 22
-1330.240129018322
 32
0.0
 13
-1448.799844394384
 23
-1330.240129018322
 33
0.0
  0
SOLID
  5
670
330
66D
100
AcDbEntity
  8
1
 62
     1
100
AcDbTrace
 10
189.9636597577072
 20
-655.1311134528693
 30
0.0
 11
189.0420938067508
 21
-655.1294329866232
 31
0.0
 12
189.5092589864289
 22
-651.630279038684
 32
0.0
 13
189.5092589864289
 23
-651.630279038684
 33
0.0
  0
MTEXT
  5
671
330
66D
100
AcDbEntity
  8
1
 62
     3
100
AcDbMText
 10
-445.8856977456937
 20
-1552.762119074957
 30
0.0
 40
3.5
 41
0.0
 71
     7
 72
     1
  1
135{\Fgdt;~}
  7
CONVERTER_13
 11
0.9391768985695756
 21
0.3434337682774264
 31
0.0
1001
ACAD
1000
MTEXTBEGIN
1070
    44
1040
0.60024009603842
1000
MTEXTEND
  0
ENDBLK
  5
673
330
66D
100
AcDbEntity
  8
0
100
AcDbBlockEnd
  0
ENDSEC
  0
SECTION
  2
ENTITIES
  0
INSERT
  5
301
330
1F
100
AcDbEntity
  8
0
100
AcDbBlockReference
  2
_TECNICI__1
 10
1327.629104667345
 20
-837.3746891736482
 30
0.0
  0
INSERT
  5
302
330
1F
100
AcDbEntity
  8
0
100
AcDbBlockReference
  2
GEN11
 10
-1027.507499999998
 20
672.4379000000017
 30
0.0
  0
INSERT
  5
303
330
1F
100
AcDbEntity
  8
0
100
AcDbBlockReference
  2
GEN9
 10
564.4878999999951
 20
672.4379000000031
 30
0.0
  0
INSERT
  5
304
330
1F
100
AcDbEntity
  8
0
100
AcDbBlockReference
  2
GEN8
 10
2054.243833
 20
671.7209930000031
 30
0.0
  0
INSERT
  5
305
330
1F
100
AcDbEntity
  8
0
100
AcDbBlockReference
  2
GEN7
 10
2054.243833000001
 20
-562.5877409999969
 30
0.0
  0
INSERT
  5
306
330
1F
100
AcDbEntity
  8
0
100
AcDbBlockReference
  2
GEN10
 10
-331.6968789999974
 20
-632.3959730000006
 30
0.0
  0
LINE
  5
676
330
1F
100
AcDbEntity
  8
1
  6
CONTINUOUS
 62
     7
100
AcDbLine
 10
2655.25820933469
 20
799.9132000000001
 30
0.0
 11
2655.25820933469
 21
-1674.69066889456
 31
0.0
  0
LINE
  5
677
330
1F
100
AcDbEntity
  8
1
  6
CONTINUOUS
 62
     7
100
AcDbLine
 10
-1605.18470977237
 20
799.9132000000001
 30
0.0
 11
2655.25820933469
 21
799.9132000000001
 31
0.0
  0
LINE
  5
678
330
1F
100
AcDbEntity
  8
1
  6
CONTINUOUS
 62
     7
100
AcDbLine
 10
-1605.18470977237
 20
-1674.69066889456
 30
0.0
 11
-1605.18470977237
 21
799.9132000000001
 31
0.0
  0
LINE
  5
679
330
1F
100
AcDbEntity
  8
1
  6
CONTINUOUS
 62
     7
100
AcDbLine
 10
2655.25820933469
 20
-1674.69066889456
 30
0.0
 11
-1605.18470977237
 21
-1674.69066889456
 31
0.0
  0
ENDSEC
  0
SECTION
  2
OBJECTS
  0
DICTIONARY
  5
C
330
0
100
AcDbDictionary
  3
ACAD_GROUP
350
D
  3
ACAD_IMAGE_DICT
350
321
  3
ACAD_LAYOUT
350
1A
  3
ACAD_MATERIAL
350
3B
  3
ACAD_MLEADERSTYLE
350
69C
  3
ACAD_MLINESTYLE
350
17
  3
ACAD_PLOTSETTINGS
350
19
  3
ACAD_VISUALSTYLE
350
2A
  3
ACDBHEADERROUNDTRIPXREC
350
67A
  3
ACDBVARIABLEDICTIONARY
350
69A
  0
IMAGEDEF_REACTOR
  5
324
330
323
100
AcDbRasterImageDefReactor
 90
        2
330
323
  0
IMAGEDEF_REACTOR
  5
327
330
326
100
AcDbRasterImageDefReactor
 90
        2
330
326
  0
IMAGEDEF_REACTOR
  5
32A
330
329
100
AcDbRasterImageDefReactor
 90
        2
330
329
  0
IMAGEDEF_REACTOR
  5
32D
330
32C
100
AcDbRasterImageDefReactor
 90
        2
330
32C
  0
IMAGEDEF_REACTOR
  5
330
330
32F
100
AcDbRasterImageDefReactor
 90
        2
330
32F
  0
IMAGEDEF_REACTOR
  5
333
330
332
100
AcDbRasterImageDefReactor
 90
        2
330
332
  0
DICTIONARY
  5
D
102
{ACAD_REACTORS
330
C
102
}
330
C
100
AcDbDictionary
  0
DICTIONARY
  5
321
102
{ACAD_REACTORS
330
C
102
}
330
C
100
AcDbDictionary
  3
1280PX-FLAG_OF_INDIA.SVG.PNG
350
331
  3
3BK7MJO35M64ILT7096_PICTURE.BMP
350
325
  3
3BK7MJO35M654NT7096_PICTURE.BMP
350
32B
  3
3BK7MJO35M66O7M7096_PICTURE.BMP
350
328
  3
3BK7MJO35M66Q067096_PICTURE.BMP
350
32E
  3
KK_LOGO.JPG
350
322
  0
DICTIONARY
  5
1A
102
{ACAD_REACTORS
330
C
102
}
330
C
100
AcDbDictionary
  0
DICTIONARY
  5
3B
102
{ACAD_REACTORS
330
C
102
}
330
C
100
AcDbDictionary
  3
BYBLOCK
350
3D
  3
BYLAYER
350
3C
  3
GLOBAL
350
3E
  0
DICTIONARY
  5
69C
102
{ACAD_REACTORS
330
C
102
}
330
C
100
AcDbDictionary
  0
DICTIONARY
  5
17
102
{ACAD_REACTORS
330
C
102
}
330
C
100
AcDbDictionary
  3
STANDARD
350
18
  0
DICTIONARY
  5
19
102
{ACAD_REACTORS
330
C
102
}
330
C
100
AcDbDictionary
  0
DICTIONARY
  5
2A
102
{ACAD_REACTORS
330
C
102
}
330
C
100
AcDbDictionary
  3
2DWIREFRAME
350
2F
  3
3D_HIDDEN
350
31
  3
3DWIREFRAME
350
30
  3
BASIC
350
32
  3
BRIGHTEN
350
36
  3
COLORCHANGE
350
3A
  3
CONCEPTUAL
350
34
  3
DIM
350
35
  3
FACEPATTERN
350
39
  3
FLAT
350
2B
  3
FLATWITHEDGES
350
2C
  3
GOURAUD
350
2D
  3
GOURAUDWITHEDGES
350
2E
  3
LINEPATTERN
350
38
  3
REALISTIC
350
33
  3
THICKEN
350
37
  0
DICTIONARY
  5
67A
102
{ACAD_REACTORS
330
C
102
}
330
C
100
AcDbDictionary
  3
CEPSNTYPE
350
683
  3
DIMSTYLEDATA
350
699
  3
FINGERPRINTGUID
350
684
  3
HYPERLINKBASE
350
67D
  3
INSUNITS
350
682
  3
LAYOUTDICT
350
67F
  3
LWETCUNION
350
681
  3
PLOTSETDICT
350
680
  3
PSVPSCALE
350
686
  3
PUCSBASE
350
689
  3
PUCSORGBACK
350
68F
  3
PUCSORGBOTTOM
350
68B
  3
PUCSORGFRONT
350
68E
  3
PUCSORGLEFT
350
68C
  3
PUCSORGRIGHT
350
68D
  3
PUCSORGTOP
350
68A
  3
PUCSORTHOREF
350
687
  3
PUCSORTHOVIEW
350
688
  3
STYLESHEET
350
67E
  3
TSTACKALIGN
350
67B
  3
TSTACKSIZE
350
67C
  3
UCSBASE
350
692
  3
UCSORGBACK
350
698
  3
UCSORGBOTTOM
350
694
  3
UCSORGFRONT
350
697
  3
UCSORGLEFT
350
695
  3
UCSORGRIGHT
350
696
  3
UCSORGTOP
350
693
  3
UCSORTHOREF
350
690
  3
UCSORTHOVIEW
350
691
  3
VERSIONGUID
350
685
  0
DICTIONARY
  5
69A
102
{ACAD_REACTORS
330
C
102
}
330
C
100
AcDbDictionary
  3
DIMASSOC
350
69D
  3
HIDETEXT
350
69E
  0
IMAGEDEF
  5
331
102
{ACAD_REACTORS
330
321
330
333
102
}
330
321
100
AcDbRasterImageDef
 90
        0
  1
C:\Users\ced\AppData\Local\Temp\1280px-Flag_of_India.svg.png
 10
1279.0
 20
852.0
 11
0.1693333333333333
 21
0.1693333333333333
280
     1
281
     1
  0
IMAGEDEF
  5
325
102
{ACAD_REACTORS
330
321
330
327
102
}
330
321
100
AcDbRasterImageDef
 90
        0
  1
C:\Users\ced\AppData\Local\Temp\3bk7mjo35m64ilt7096_picture.bmp
 10
125.0
 20
93.0
 11
0.1693333333333333
 21
0.1693333333333333
280
     1
281
     1
  0
IMAGEDEF
  5
32B
102
{ACAD_REACTORS
330
321
330
32D
102
}
330
321
100
AcDbRasterImageDef
 90
        0
  1
C:\Users\ced\AppData\Local\Temp\3bk7mjo35m654nt7096_picture.bmp
 10
125.0
 20
93.0
 11
0.1693333333333333
 21
0.1693333333333333
280
     1
281
     1
  0
IMAGEDEF
  5
328
102
{ACAD_REACTORS
330
321
330
32A
102
}
330
321
100
AcDbRasterImageDef
 90
        0
  1
C:\Users\ced\AppData\Local\Temp\3bk7mjo35m66o7m7096_picture.bmp
 10
125.0
 20
93.0
 11
0.1693333333333333
 21
0.1693333333333333
280
     1
281
     1
  0
IMAGEDEF
  5
32E
102
{ACAD_REACTORS
330
321
330
330
102
}
330
321
100
AcDbRasterImageDef
 90
        0
  1
C:\Users\ced\AppData\Local\Temp\3bk7mjo35m66q067096_picture.bmp
 10
125.0
 20
93.0
 11
0.1693333333333333
 21
0.1693333333333333
280
     1
281
     1
  0
IMAGEDEF
  5
322
102
{ACAD_REACTORS
330
321
330
324
102
}
330
321
100
AcDbRasterImageDef
 90
        0
  1
C:\Users\ced\AppData\Local\Temp\KK logo.jpg
 10
624.0
 20
698.0
 11
0.1693333333333333
 21
0.1693333333333333
280
     1
281
     1
  0
MATERIAL
  5
3D
102
{ACAD_REACTORS
330
3B
102
}
102
{ACAD_XDICTIONARY
360
6A1
102
}
330
3B
100
AcDbMaterial
  1
ByBlock
  0
MATERIAL
  5
3C
102
{ACAD_REACTORS
330
3B
102
}
102
{ACAD_XDICTIONARY
360
69F
102
}
330
3B
100
AcDbMaterial
  1
ByLayer
  0
MATERIAL
  5
3E
102
{ACAD_REACTORS
330
3B
102
}
102
{ACAD_XDICTIONARY
360
6A3
102
}
330
3B
100
AcDbMaterial
  1
Global
  0
MLINESTYLE
  5
18
102
{ACAD_REACTORS
330
17
102
}
330
17
100
AcDbMlineStyle
  2
Standard
 70
     0
  3

 62
   256
 51
90.0
 52
90.0
 71
     2
 49
0.5
 62
   256
  6
BYLAYER
 49
-0.5
 62
   256
  6
BYLAYER
  0
ACAD_PROXY_OBJECT
  5
2F
102
{ACAD_REACTORS
330
2A
102
}
330
2A
100
AcDbProxyObject
 90
      499
 91
      501
 93
      436
310
42CC9915DA5C99599C985B595049028333333333333E3BF0000000000000FB0107901411070040501600405405064090741402480A0340
1001
ACAD
1000
AcDbSavedByObjectVersion
1070
     0
  0
ACAD_PROXY_OBJECT
  5
31
102
{ACAD_REACTORS
330
2A
102
}
330
2A
100
AcDbProxyObject
 90
      499
 91
      501
 93
      500
310
424CD108121A5919195B90640502408333333333333E3BF0000000000000FB01079024090700405020000000000001110200405405064090740C02480A0340
1001
ACAD
1000
AcDbSavedByObjectVersion
1070
     0
  0
ACAD_PROXY_OBJECT
  5
30
102
{ACAD_REACTORS
330
2A
102
}
330
2A
100
AcDbProxyObject
 90
      499
 91
      501
 93
      436
310
42CCD915DA5C99599C985B595059028333333333333E3BF0000000000000FB0107901411070040501600405405064090741402480A0340
1001
ACAD
1000
AcDbSavedByObjectVersion
1070
     0
  0
ACAD_PROXY_OBJECT
  5
32
102
{ACAD_REACTORS
330
2A
102
}
330
2A
100
AcDbProxyObject
 90
      499
 91
      501
 93
      388
310
4150985CDA58D07406404333333333333E3BF0000000000000FB0107A41107004050150841D405064090741402480A0350
1001
ACAD
1000
AcDbSavedByObjectVersion
1070
     0
  0
ACAD_PROXY_OBJECT
  5
36
102
{ACAD_REACTORS
330
2A
102
}
330
2A
100
AcDbProxyObject
 90
      499
 91
      501
 93
      428
310
42109C9A59DA1D195B90C409028333333333333E3BF0000000000000FB010790141107004050150841D405064090741402480A029950
1001
ACAD
1000
AcDbSavedByObjectVersion
1070
     0
  0
ACAD_PROXY_OBJECT
  5
3A
102
{ACAD_REACTORS
330
2A
102
}
330
2A
100
AcDbProxyObject
 90
      499
 91
      501
 93
      452
310
42D0DBDB1BDC90DA185B99D95104090240C333333333333E3BF0000000000000FB0108901411070040501508421405064090741402480A0350
1001
ACAD
1000
AcDbSavedByObjectVersion
1070
     0
  0
ACAD_PROXY_OBJECT
  5
34
102
{ACAD_REACTORS
330
2A
102
}
330
2A
100
AcDbProxyObject
 90
      499
 91
      501
 93
      500
310
4290DBDB98D95C1D1D585B10940D028333333333333E3BF0000000000000FB0107902409070040501000000000000111010841D405064090740C02480A0340
1001
ACAD
1000
AcDbSavedByObjectVersion
1070
     0
  0
ACAD_PROXY_OBJECT
  5
35
102
{ACAD_REACTORS
330
2A
102
}
330
2A
100
AcDbProxyObject
 90
      499
 91
      501
 93
      412
310
40D11A5B50B409028333333333333E3BF0000000000000FB010790141107004050150841D405064090741402480A02677FFFFFD0
1001
ACAD
1000
AcDbSavedByObjectVersion
1070
     0
  0
ACAD_PROXY_OBJECT
  5
39
102
{ACAD_REACTORS
330
2A
102
}
330
2A
100
AcDbProxyObject
 90
      499
 91
      501
 93
      444
310
42D19858D95C185D1D195C9B90F409028333333333333E3BF0000000000000FB010790141107004050150841D405064090741402480A0350
1001
ACAD
1000
AcDbSavedByObjectVersion
1070
     0
  0
ACAD_PROXY_OBJECT
  5
2B
102
{ACAD_REACTORS
330
2A
102
}
330
2A
100
AcDbProxyObject
 90
      499
 91
      501
 93
      388
310
41119B185D240901404333333333333E3BF0000000000000F9010740A41107004050150841D405064090741402480A1B50
1001
ACAD
1000
AcDbSavedByObjectVersion
1070
     0
  0
ACAD_PROXY_OBJECT
  5
2C
102
{ACAD_REACTORS
330
2A
102
}
330
2A
100
AcDbProxyObject
 90
      499
 91
      501
 93
      476
310
43519B185D15DA5D1A115919D95CD0140901404333333333333E3BF0000000000000F9010740901411070040501600405405064090741402480A1B50
1001
ACAD
1000
AcDbSavedByObjectVersion
1070
     0
  0
ACAD_PROXY_OBJECT
  5
2D
102
{ACAD_REACTORS
330
2A
102
}
330
2A
100
AcDbProxyObject
 90
      499
 91
      501
 93
      412
310
41D1DBDD5C985D5910240902404333333333333E3BF0000000000000F9010740A411070040501641D405064090741402480A1B50
1001
ACAD
1000
AcDbSavedByObjectVersion
1070
     0
  0
ACAD_PROXY_OBJECT
  5
2E
102
{ACAD_REACTORS
330
2A
102
}
330
2A
100
AcDbProxyObject
 90
      499
 91
      501
 93
      500
310
4411DBDD5C985D5915DA5D1A115919D95CD0340902404333333333333E3BF0000000000000F9010740901411070040501600405405064090741402480A1B50
1001
ACAD
1000
AcDbSavedByObjectVersion
1070
     0
  0
ACAD_PROXY_OBJECT
  5
38
102
{ACAD_REACTORS
330
2A
102
}
330
2A
100
AcDbProxyObject
 90
      499
 91
      501
 93
      444
310
42D31A5B995C185D1D195C9B90E409028333333333333E3BF0000000000000FB010790141107004050750841D405064090741402483A0350
1001
ACAD
1000
AcDbSavedByObjectVersion
1070
     0
  0
ACAD_PROXY_OBJECT
  5
33
102
{ACAD_REACTORS
330
2A
102
}
330
2A
100
AcDbProxyObject
 90
      499
 91
      501
 93
      420
310
425499585B1A5CDD1A58D08409028333333333333E3BF0000000000000FB01079019070040501508421405064090741402480A1B40
1001
ACAD
1000
AcDbSavedByObjectVersion
1070
     0
  0
ACAD_PROXY_OBJECT
  5
37
102
{ACAD_REACTORS
330
2A
102
}
330
2A
100
AcDbProxyObject
 90
      499
 91
      501
 93
      412
310
41D51A1A58DAD95B90D409028333333333333E3BF0000000000000FB010790141107004050150C41D405064090741402480A0350
1001
ACAD
1000
AcDbSavedByObjectVersion
1070
     0
  0
XRECORD
  5
683
102
{ACAD_REACTORS
330
67A
102
}
330
67A
100
AcDbXrecord
 90
        0
  0
XRECORD
  5
699
102
{ACAD_REACTORS
330
67A
102
}
330
67A
100
AcDbXrecord
1000
DSTYLE
1002
{
1070
   171
 70
     2
1070
   143
 40
25.4
1070
   274
 70
     2
1070
    41
 40
0.18
1070
   141
 40
0.09
1070
   271
 70
     4
1070
    43
 40
0.38
1070
   278
 70
    46
1070
    44
 40
0.18
1070
    42
 40
0.0625
1070
   147
 40
0.09
1070
    77
 70
     0
1070
   272
 70
     4
1070
    73
 70
     1
1070
   172
 70
     0
1070
    74
 70
     1
1070
   283
 70
     1
1070
   340
340
11
1070
   140
 40
0.18
1070
   284
 70
     0
1070
    78
 70
     0
1002
}
  0
XRECORD
  5
684
102
{ACAD_REACTORS
330
67A
102
}
330
67A
100
AcDbXrecord
  1
{7EB871DA-3F94-4A52-80BD-E324D1B77F11}
  0
XRECORD
  5
67D
102
{ACAD_REACTORS
330
67A
102
}
330
67A
100
AcDbXrecord
  1

  0
XRECORD
  5
682
102
{ACAD_REACTORS
330
67A
102
}
330
67A
100
AcDbXrecord
 90
        4
  0
XRECORD
  5
67F
102
{ACAD_REACTORS
330
67A
102
}
330
67A
100
AcDbXrecord
340
1A
  0
XRECORD
  5
681
102
{ACAD_REACTORS
330
67A
102
}
330
67A
100
AcDbXrecord
 90
    10781
  0
XRECORD
  5
680
102
{ACAD_REACTORS
330
67A
102
}
330
67A
100
AcDbXrecord
340
19
  0
XRECORD
  5
686
102
{ACAD_REACTORS
330
67A
102
}
330
67A
100
AcDbXrecord
 40
0.0
  0
XRECORD
  5
689
102
{ACAD_REACTORS
330
67A
102
}
330
67A
100
AcDbXrecord
340
0
  0
XRECORD
  5
68F
102
{ACAD_REACTORS
330
67A
102
}
330
67A
100
AcDbXrecord
 10
0.0
 20
0.0
 30
0.0
  0
XRECORD
  5
68B
102
{ACAD_REACTORS
330
67A
102
}
330
67A
100
AcDbXrecord
 10
0.0
 20
0.0
 30
0.0
  0
XRECORD
  5
68E
102
{ACAD_REACTORS
330
67A
102
}
330
67A
100
AcDbXrecord
 10
0.0
 20
0.0
 30
0.0
  0
XRECORD
  5
68C
102
{ACAD_REACTORS
330
67A
102
}
330
67A
100
AcDbXrecord
 10
0.0
 20
0.0
 30
0.0
  0
XRECORD
  5
68D
102
{ACAD_REACTORS
330
67A
102
}
330
67A
100
AcDbXrecord
 10
0.0
 20
0.0
 30
0.0
  0
XRECORD
  5
68A
102
{ACAD_REACTORS
330
67A
102
}
330
67A
100
AcDbXrecord
 10
0.0
 20
0.0
 30
0.0
  0
XRECORD
  5
687
102
{ACAD_REACTORS
330
67A
102
}
330
67A
100
AcDbXrecord
340
0
  0
XRECORD
  5
688
102
{ACAD_REACTORS
330
67A
102
}
330
67A
100
AcDbXrecord
 70
     0
  0
XRECORD
  5
67E
102
{ACAD_REACTORS
330
67A
102
}
330
67A
100
AcDbXrecord
  1

  0
XRECORD
  5
67B
102
{ACAD_REACTORS
330
67A
102
}
330
67A
100
AcDbXrecord
 90
        1
  0
XRECORD
  5
67C
102
{ACAD_REACTORS
330
67A
102
}
330
67A
100
AcDbXrecord
 90
       70
  0
XRECORD
  5
692
102
{ACAD_REACTORS
330
67A
102
}
330
67A
100
AcDbXrecord
340
0
  0
XRECORD
  5
698
102
{ACAD_REACTORS
330
67A
102
}
330
67A
100
AcDbXrecord
 10
0.0
 20
0.0
 30
0.0
  0
XRECORD
  5
694
102
{ACAD_REACTORS
330
67A
102
}
330
67A
100
AcDbXrecord
 10
0.0
 20
0.0
 30
0.0
  0
XRECORD
  5
697
102
{ACAD_REACTORS
330
67A
102
}
330
67A
100
AcDbXrecord
 10
0.0
 20
0.0
 30
0.0
  0
XRECORD
  5
695
102
{ACAD_REACTORS
330
67A
102
}
330
67A
100
AcDbXrecord
 10
0.0
 20
0.0
 30
0.0
  0
XRECORD
  5
696
102
{ACAD_REACTORS
330
67A
102
}
330
67A
100
AcDbXrecord
 10
0.0
 20
0.0
 30
0.0
  0
XRECORD
  5
693
102
{ACAD_REACTORS
330
67A
102
}
330
67A
100
AcDbXrecord
 10
0.0
 20
0.0
 30
0.0
  0
XRECORD
  5
690
102
{ACAD_REACTORS
330
67A
102
}
330
67A
100
AcDbXrecord
340
0
  0
XRECORD
  5
691
102
{ACAD_REACTORS
330
67A
102
}
330
67A
100
AcDbXrecord
 70
     0
  0
XRECORD
  5
685
102
{ACAD_REACTORS
330
67A
102
}
330
67A
100
AcDbXrecord
  1
{FAEB1C32-E019-11D5-929B-00C0DF256EC4}
  0
DICTIONARYVAR
  5
69D
102
{ACAD_REACTORS
330
69A
102
}
330
69A
100
DictionaryVariables
280
     0
  1
2
  0
DICTIONARYVAR
  5
69E
102
{ACAD_REACTORS
330
69A
102
}
330
69A
100
DictionaryVariables
280
     0
  1
1
  0
DICTIONARY
  5
6A1
330
3D
100
AcDbDictionary
280
     1
  3
ACAD_XREC_ROUNDTRIP
360
6A2
  0
DICTIONARY
  5
69F
330
3C
100
AcDbDictionary
280
     1
  3
ACAD_XREC_ROUNDTRIP
360
6A0
  0
DICTIONARY
  5
6A3
330
3E
100
AcDbDictionary
280
     1
  3
ACAD_XREC_ROUNDTRIP
360
6A4
  0
XRECORD
  5
6A2
102
{ACAD_REACTORS
330
6A1
102
}
330
6A1
100
AcDbXrecord
102
MATERIAL
148
0.0
149
0.0
149
0.0
 93
        0
 94
      127
282
     0
 72
     1
 77
     1
171
     1
175
     1
179
     1
273
     0
  0
XRECORD
  5
6A0
102
{ACAD_REACTORS
330
69F
102
}
330
69F
100
AcDbXrecord
102
MATERIAL
148
0.0
149
0.0
149
0.0
 93
        0
 94
      127
282
     0
 72
     1
 77
     1
171
     1
175
     1
179
     1
273
     0
  0
XRECORD
  5
6A4
102
{ACAD_REACTORS
330
6A3
102
}
330
6A3
100
AcDbXrecord
102
MATERIAL
148
0.0
149
0.0
149
0.0
 93
        0
 94
      127
282
     0
 72
     1
 77
     1
171
     1
175
     1
179
     1
273
     0
  0
ENDSEC
  0
EOF
